Download
Shokugeki no Soma 80

Скачать через торрент Чёрная Пантера Black Panther Фильм бесплатно в хорошем качестве torrent

Скачивайте на UnionPeer.org фильмы через торрент без регистрации. Новинки кино в хорошем качестве через торрент. На UnionPeer.org можно скачать через торрент фильмы 2014 и 2015 годов. Самые новые фильмы.

Скачать торрент Чёрная Пантера Black Panther бесплатно через .torrent фильм мультфильм сериал

Статистика раздачи
Размер:  772 MB   |    Зарегистрирован:  5 месяцев 5 дней   |    .torrent скачан:  40 раз   |   
Раздают:  1  
   
загрузка...
 
Автор Сообщение

Galfimbul

avatar Galfimbul


Год выпуска: 2018
Страна: США
Жанр: фантастика, боевик, приключения, ...
Продолжительность: 00:02:25
Перевод: Профессиональный (полное дублирование)Режиссер: Райан Куглер / Ryan CooglerВ ролях: Чедвик Боузман (T'Challa / Black Panther), Майкл Б. Джордан (Erik Killmonger), Лупита Нионго (Nakia), Данай Джекесай Гурира (Okoye), Мартин Фриман (Everett K. Ross), Форест Уитакер (Zuri), Энди Серкис (Ulysses Klaue / Klaw), Джон Кахи (King T'Chaka)Описание:
«Чёрная Пантера» - это история персонажа по имени Т’Чалла. Действие фильма начинается там, где заканчиваются события блокбастера «Первый мститель: Противостояние». Т’Чалла возвращается домой, чтобы возглавить изолированное, но технологически продвинутое африканское королевство Ваканда. Когда на горизонте появляется его старый враг, власть и невероятные способности Т’Чаллы подвергаются проверке – в ходе конфликта на кон поставлена судьба королевства Ваканда и всего мира.Дата выхода РФ: 15 февраля 2018, «WDSSPR» 3D IMAXКачество: DCPRip 2К
Формат: MKV
Видео кодек: AVC
Аудио кодек: FLAC
Видео: AVC, 10bit, [email protected], 2048x858 (2.40:1), 24 fps, ~ 40.6 Mb/s
Аудио: Русский / FLAC / 5.1 / 48 kHz / ~4 063 kb/s / 24 bit
General
Unique ID : 203597728210116827981484504846782178939 (0x992B7F02D41147D58E7CDB09397C267B)
Complete name : C:\Users\Адхам\Desktop\BlackPanther_TLR-E-2D-16Plus_S_RU-XX_RU_51_2K_DI_20170930_DDS_IOP_01.mkv
Format : Matroska
Format version : Version 4 / Version 2
File size : 772 MiB
Duration : 2 min 25 s
Overall bit rate mode : Variable
Overall bit rate : 44.6 Mb/s
Movie name : BlackPanther_TLR-E-2D-16Plus_S_RU-XX_RU_51_2K_DI_20170930_DDS_IOP_01
Encoded date : UTC 2017-11-16 09:39:01
Writing application : mkvmerge v7.1.0 ('Good Love') 64bit built on Jul 27 2014 13:06:55
Writing library : libebml v1.3.0 + libmatroska v1.4.1

Video
ID : 1
Format : AVC
Format/Info : Advanced Video Codec
Format profile : High 4:4:4 [email protected]
Format settings : CABAC / 12 Ref Frames
Format settings, CABAC : Yes
Format settings, ReFrames : 12 frames
Codec ID : V_MPEG4/ISO/AVC
Duration : 2 min 25 s
Bit rate : 40.6 Mb/s
Width : 2 048 pixels
Height : 858 pixels
Display aspect ratio : 2.40:1
Frame rate mode : Constant
Frame rate : 24.000 FPS
Color space : YUV
Chroma subsampling : 4:4:4
Bit depth : 10 bits
Scan type : Progressive
Bits/(Pixel*Frame) : 0.962
Stream size : 701 MiB (91%)
Title : DCPrip, h264, 10-bit, 444 css, pc range
Writing library : x264 core 142 r2431+42 c69a006 tMod [[email protected] X86_64]
Encoding settings : cabac=1 / ref=12 / deblock=1:-3:-2 / analyse=0x3:0x133 / me=tesa / subme=11 / psy=1 / fade_compensate=0.00 / psy_rd=0.70:0.10 / mixed_ref=1 / me_range=32 / chroma_me=1 / trellis=2 / 8x8dct=1 / cqm=0 / deadzone=21,11 / fast_pskip=0 / chroma_qp_offset=3 / threads=3 / lookahead_threads=1 / sliced_threads=0 / nr=0 / decimate=0 / interlaced=0 / bluray_compat=0 / constrained_intra=0 / fgo=0 / bframes=16 / b_pyramid=2 / b_adapt=2 / b_bias=0 / direct=3 / weightb=1 / open_gop=0 / weightp=2 / keyint=250 / keyint_min=24 / scenecut=40 / intra_refresh=0 / rc_lookahead=72 / rc=crf / mbtree=1 / crf=12.0000 / qcomp=0.75 / qpmin=0:0:0 / qpmax=81:81:81 / qpstep=4 / ip_ratio=1.40 / aq=1:1.00 / aq-sensitivity=10.00 / aq-factor=1.00:1.00:1.00 / aq2=0 / aq3=0
Default : Yes
Forced : No
Color range : Full
Color primaries : BT.709
Transfer characteristics : BT.709
Matrix coefficients : BT.709

Audio
ID : 2
Format : FLAC
Format/Info : Free Lossless Audio Codec
Codec ID : A_FLAC
Duration : 2 min 25 s
Bit rate mode : Variable
Bit rate : 4 063 kb/s
Channel(s) : 6 channels
Sampling rate : 48.0 kHz
Frame rate : 11.724 FPS (4094 SPF)
Bit depth : 24 bits
Stream size : 70.2 MiB (9%)
Title : FLAC
Writing library : libFLAC 1.2.1 (UTC 2007-09-17)
Default : Yes
Forced : No


Трекер:  [ 16-Ноя-2017 17:01 ]

  

Скачать .torrent

Размер .torrent файла 15 KB


Размер: 772 MB
Хэш (hash) релиза: cb361c10b21b03c79088a24e9c61a0c3566709a7
Подписка на обновления:

Торренты, похожие на Чёрная Пантера Black Panther скачать торрент

Форум Название Автор Размер S L Добавлен
Зарубежные фильмы 2016-2018 (Новинки зарубежного кино) ·· Чёрная Пантера / Black Panther (Райан Куглер) [2017 г., фантастика, боевик, приключения, TS 720p] DUB Galfimbul 32614543503.04 GB 3 0 1519189662

08:07

21-Фев-18

Зарубежные фильмы 2016-2018 (Новинки зарубежного кино) ·· Чёрная Пантера / Black Panther (Райан Куглер) [2017 г., фантастика, боевик, приключения, TS] DUB Galfimbul 22045716482.05 GB 0 0 1519189652

08:07

21-Фев-18

Зарубежные фильмы 2016-2018 (Новинки зарубежного кино) ·· Чёрная Пантера / Black Panther (Райан Куглер) [2017 г., фантастика, боевик, приключения, TS] DUB Galfimbul 14675415041.37 GB 3 0 1519189644

08:07

21-Фев-18

Зарубежные фильмы 2016-2018 (Новинки зарубежного кино) ·· Чёрная Пантера / Black Panther (Райан Куглер) [2018 г.,Фантастика, Боевик, Прикючения , TS ] MVO | КОЛОБОК Galfimbul 14676439041.37 GB 2 0 1518856412

11:33

17-Фев-18

Зарубежные фильмы 2016-2018 (Новинки зарубежного кино) ·· Чёрная Пантера / Black Panther (Райан Куглер) [2018 г.,Фантастика, Боевик, Прикючения , TS ] MVO | КОЛОБОК Galfimbul 22039470082.05 GB 0 0 1518856377

11:32

17-Фев-18

Зарубежные фильмы 2016-2018 (Новинки зарубежного кино) ·· Чёрная Пантера / Black Panther (Райан Куглер) [2018 г.,Фантастика, Боевик, Прикючения , TS 720p] MVO | КОЛОБОК Galfimbul 31946564142.98 GB 2 0 1518856345

11:32

17-Фев-18

Трейлеры и дополнительные материалы ·· Чёрная Пантера / Black Panther (Райан Куглер) [2018, Фантастика, Боевик, Драма, Приключения, HDRip] Трейлер Galfimbul 463913325442 MB 0 0 1509356231

12:37

30-Окт-17

Трейлеры и дополнительные материалы ·· Чёрная Пантера / Black Panther (Райан Куглер) [2018, фантастика, боевик, драма, WEBRip-1080p] Трейлер Galfimbul 4219062240 MB 0 0 1497740933

02:08

18-Июн-17

Азиатские фильмы ·· Черная пантера / Black Panther / Hak Paau (Хау Чан / Hau Chang) [1973, Гонконг, боевые искусства, DVDRip] VO (Виктор Береговых) Galfimbul 734316544700 MB 0 0 1424188220

18:50

17-Фев-15

Мультсериалы ·· Рыцари Марвел. Черная Пантера / Marvel Knights. Black Panther / Сезон: 1 / Серии: 1-12 из 12 (Марк Брукс / Mark Brooks) [2010 г., анимационный комикс, фантастика, DVD9 (Custom) R1] DUB, ENG + Rus sub Galfimbul 56418222085.25 GB 0 0 1452692345

16:39

13-Янв-16

Мультсериалы ·· Рыцари Марвел: Черная Пантера / Marvel Knights: Black Panther / Сезон: 1 / Серии: 6 (6) (Марк Брукс / Mark Brooks, Джон Шнепп / Jon Schnepp) [2009, экшн, приключения, фантастика, WEB-DLRip] rus sub L 13987187091.3 GB 0 0 1346778720

20:12

4-Сен-12

Еще никто не оставлял запись к записи скачать торрент Чёрная Пантера Black Panther . Будь первым!

!Обратная связь