American Idol S16E16 WEB x264-TBS [eztv] | Joel Soisson | Gracepoint 1. Sezon

Скачать через торрент Тетрадь дружбы Нацумэ Фильм бесплатно в хорошем качестве torrent

Скачивайте на UnionPeer.org фильмы через торрент без регистрации. Новинки кино в хорошем качестве через торрент. На UnionPeer.org можно скачать через торрент фильмы 2014 и 2015 годов. Самые новые фильмы.

Скачать торрент Тетрадь дружбы Нацумэ бесплатно через .torrent фильм мультфильм сериал

Статистика раздачи
Размер:  1.18 GB   |    Зарегистрирован:  6 месяцев   |    .torrent скачан:  11 раз   |   
Раздают:  1  
   
загрузка...
 
Автор Сообщение

Galfimbul

avatar Galfimbul


Тетрадь дружбы Нацумэ (шестой сезон)

Оригинальное название: 夏目友人帳 陸
Японское название: Natsume Yuujinchou Roku
Страна: Япония
Жанр: мистика, повседневность
Продолжительность: 25 мин.Перевод: SovetRomantica
Переводчик: Shika
Редактор: AkiraРежиссер: Омори Такахиро
Студия: Описание: Порой мы не замечаем даже то, что лежит у нас перед носом. А юноша по имени Такаши Нацумэ замечает очень многое, ведь он особенный с самого детства. Дело в том, что от своей бабушки Рэйко Нацумэ он унаследовал своеобразный дар - способность видеть духов. Стоит ли упоминать, что с младых ногтей его мир был наполнен страхами? Мало кто сможет сохранять самообладание в такой ситуации. Но однажды Такаши находит "Тетрадь дружбы”, принадлежащую его бабуле, и она буквально переворачивает его мировоззрение с ног на голову.

Отныне он выполняет важную миссию по освобождению духов от контракта с его бабушкой Рэйко. Такаши возвращает ёкаям имена, записанные в "Тетради дружбы”, а помогает ему в этом верный друг, телохранитель, огромный кот и могущественный дух в одном лице - Нянко-сенсей или же Мадара. На своём нелёгком пути он встречает множество ёкаев и людей, а также тех, кто обладает таким же даром, как и Такаши. В шестом сезоне нас ждут новые увлекательные приключения Нацумэ и Нянко. Что же произойдёт на этот раз?
01. The Days Eater
02. It Blooms Tomorrow
03. Nitai-sama
04. Lying Eyes
05. The Bound Ones
06. Nishimura and Kitamoto
07. Gomochi`s Benefactor
08. A Day That Will Someday Come
09. What Flows
10. The Sealed Room
11. What Matters
Качество видео: HDTVRip
Формат: MP4
Видео кодек: H.264
Аудио кодек: AAC
Видео: 512 Kbps, 480*272 (16:9), at 23.976 fps, H264
Аудио: AAC 44100Hz stereo 128kbps
General
Complete name : D:\Загрузки\Natsume Yuujinchou Roku\Natsume Yuujinchou Roku - 01.mp4
Format : MPEG-4
Format profile : Base Media
Codec ID : isom (isom/avc1)
File size : 110 MiB
Duration : 23 min 50 s
Overall bit rate mode : Variable
Overall bit rate : 644 kb/s
Encoded date : UTC 2017-11-08 10:15:40
Tagged date : UTC 2017-11-08 10:15:40

Video
ID : 1
Format : AVC
Format/Info : Advanced Video Codec
Format profile : [email protected]
Format settings : CABAC / 2 Ref Frames
Format settings, CABAC : Yes
Format settings, RefFrames : 2 frames
Codec ID : avc1
Codec ID/Info : Advanced Video Coding
Duration : 23 min 50 s
Bit rate : 512 kb/s
Maximum bit rate : 3 380 kb/s
Width : 480 pixels
Height : 272 pixels
Display aspect ratio : 16:9
Frame rate mode : Constant
Frame rate : 23.976 (24000/1001) FPS
Original frame rate : 23.976 (23976/1000) FPS
Color space : YUV
Chroma subsampling : 4:2:0
Bit depth : 8 bits
Scan type : Progressive
Bits/(Pixel*Frame) : 0.164
Stream size : 87.3 MiB (79%)
Writing library : x264 core 65 r999kMod cc51047
Encoding settings : cabac=1 / ref=2 / deblock=1:-2:-1 / analyse=0x1:0x131 / me=umh / subme=7 / psy_rd=1.0:0.0 / mixed_ref=1 / me_range=16 / chroma_me=1 / trellis=2 / 8x8dct=0 / cqm=0 / deadzone=21,11 / chroma_qp_offset=-2 / threads=1 / thread_queue=1 / nr=0 / decimate=0 / mbaff=0 / bframes=3 / b_pyramid=0 / b_adapt=1 / b_bias=0 / direct=3 / wpredb=1 / keyint=250 / keyint_min=25 / scenecut=40 / rc=2pass / bitrate=512 / ratetol=1.0 / qcomp=0.60 / qpmin=10 / qpmax=51 / qpstep=4 / cplxblur=20.0 / qblur=0.5 / ip_ratio=1.40 / pb_ratio=1.30 / aq=1:1.00
Encoded date : UTC 2017-11-08 10:15:40
Tagged date : UTC 2017-11-08 10:15:56

Audio
ID : 2
Format : AAC
Format/Info : Advanced Audio Codec
Format profile : LC
Codec ID : mp4a-40-2
Duration : 23 min 50 s
Bit rate mode : Variable
Bit rate : 129 kb/s
Maximum bit rate : 201 kb/s
Channel(s) : 2 channels
Channel positions : Front: L R
Sampling rate : 44.1 kHz
Frame rate : 43.066 FPS (1024 SPF)
Compression mode : Lossy
Stream size : 22.0 MiB (20%)
Encoded date : UTC 2017-11-08 10:15:54
Tagged date : UTC 2017-11-08 10:15:56


Трекер:  [ 11-Ноя-2017 06:12 ]

  

Скачать .torrent

Размер .torrent файла 13 KB


Размер: 1.18 GB
Хэш (hash) релиза: a3a0195551882db873aa90c35cad36e1db47f973
Подписка на обновления:

Торренты, похожие на Тетрадь дружбы Нацумэ скачать торрент

Форум Название Автор Размер S L Добавлен
PSP | Аниме ·· [ONG] Тетрадь дружбы Нацумэ (пятый сезон) / Natsume Yuujinchou Go [Омори Такахиро][TV-5][05 из 12][2016, мистика, сёдзё, HDTVRip][Субтитры] Galfimbul 593487016566 MB 0 0 1478316969

06:36

5-Ноя-16

PSP | Аниме ·· [ONG] Тетрадь дружбы Нацумэ (пятый сезон) / Natsume Yuujinchou Go [Омори Такахиро][TV-5][03 из 12][2016, мистика, сёдзё, HDTVRip][Субтитры] Galfimbul 356912411340 MB 0 0 1477798575

06:36

30-Окт-16

PSP | Аниме ·· [ONG] Тетрадь дружбы Нацумэ (пятый сезон) / Natsume Yuujinchou Go [Омори Такахиро][TV-5][02 из 12][2016, мистика, сёдзё, HDTVRip][Субтитры] Galfimbul 237991528227 MB 0 0 1476594390

08:06

16-Окт-16

PSP | Аниме ·· [ONG] Тетрадь дружбы Нацумэ (пятый сезон) / Natsume Yuujinchou Go [Омори Такахиро][TV-5][01 из 12][2016 г., мистика, сёдзё, HDTVRip][Субтитры] Galfimbul 118924231113 MB 0 0 1476076104

08:08

10-Окт-16

PSP | Аниме ·· [ONG] Тетрадь дружбы Нацумэ (пятый сезон) / Natsume Yuujinchou Go [Омори Такахиро][TV-5][12 из 12][2016 г., мистика, сёдзё, HDTVRip][Субтитры] Galfimbul 118999142113 MB 0 0 1475912099

10:34

8-Окт-16

Видео для Консолей ·· [ANIME] Тетрадь дружбы Нацумэ 3 / Natsume Yuujinchou San / Natsume Yuujinchou 3 [Омори Такахиро][TV][3 сезон][13 из 13][2011г., Мистика, комедия, драма, сёдзё., HDTVRip][AnsverITO] Galfimbul 15268423491.42 GB 0 0 1338992700

17:25

6-Июн-12

Видео для Консолей ·· Тетрадь дружбы Нацумэ 4 / Natsume Yuujinchou Shi / Natsume Yuujinchou 4 [Омори Такахиро][TV][4 сезон][13 из 13][2012г., мистика, комедия, драма, сёдзё., HDTVRip][Субтитры] Galfimbul 12698909091.18 GB 0 0 1338838380

22:33

4-Июн-12

Видео для Консолей ·· Тетрадь дружбы Нацумэ 4 / Natsume Yuujinchou Shi / Natsume Yuujinchou 4 [Омори Такахиро][TV][4 сезон][13 из 13][2012г., Мистика, комедия, драма, сёдзё., HDTVRip][Озвучка] Galfimbul 15499209951.44 GB 0 0 1338826500

19:15

4-Июн-12

Видео для Консолей ·· [ANIME] Тетрадь дружбы Нацумэ 3 / Natsume Yuujinchou San / Natsume Yuujinchou 3 [Омори Такахиро][TV][3 сезон][13 из 13][2011г., мистика, комедия, драма, сёдзё., HDTVRip][Субтитры] Galfimbul 12765060301.19 GB 0 0 1338790620

09:17

4-Июн-12

Еще никто не оставлял запись к записи скачать торрент Тетрадь дружбы Нацумэ . Будь первым!

!Обратная связь