Short Stories | La nuit des rois | KanColle: Fleet Girls Collection

Скачать через торрент музыку Mobile Suit Gundam Wing Endless Waltz OST бесплатно без регистрации torrent

Статистика раздачи
Размер:  2.08 GB   |    Зарегистрирован:  8 месяцев   |    .torrent скачан:  12 раз   |   
Раздают:  1   Качают:  1  
   
загрузка...
 
Автор Сообщение

Galfimbul

avatar Galfimbul


Mobile Suit Gundam Wing / Endless Waltz OST / Mobile Suit Gundam Wing / Endless Waltz OST

Название альбома: Mobile Suit Gundam Wing / Endless Waltz OST
Жанр: Soundtrack
Композитор: Kow Otani
Год выпуска диска: 1995-1997
Год выпуска фильма: 1995-1996
Страна-производитель диска: Japan
Издатель (лейбл): King Records
Аудиокодек: FLAC (*.flac)
Тип рипа: tracks+.cue
Битрейт аудио: lossless
Источник: собственный рип
Наличие сканов в содержимом раздачи: да
Треклист:
Mobile Suit Gundam Wing (Operation 1)



1. "The Wings of A Boy That Killed Adolescence"
2. "Black Wind Invites To The Death"
3. "In The Returned Blood & Smell of Gunpowder"
4. "Looking For The Peace Hiding In The Corpse"
5. "When Dragon Swims, Everything Ends"
6. "Just Communication"
7. "The Curtain of The Next Chapter Is Coming Up Now"
8. "Eternity & Infinity In This Hands"
9. "Treize Khushrenada - The Person Who Makes History"
10. "Use Coming From Darkness"
11. "Can Hear The Voice Calling The Soul"
12. "GW Bridge Collection I: Noble-Mindedness"
13. "Soft Hair and See Through Eyes"
14. "Inside of The Girl's Heart..."
15. "Heard The Whispers of Stars At The Night of Moon Smiling"
16. "To Beauty, To Elegance, And To Noble-Mindedness"
17. "Feel Like Crossing Over That Rainbow Bridge Destiny"
18. "Peace Being Broken, Time Moving Out"
19. "Plot "String & Marionette""
20. "Cold Bloodthirstiness"
21. "As Relena Peacecraft"
22. "From Uncertainty to Impatience"
23. "Heero's Time of Decision"
24. "Gundam Wing Bridge Collection II"
25. "Long Time Ago, Pain already Thrown"
26. "That Clown Doesn't Need Make Up For Tears"
27. "Sandy Clock of a Sad Color"
28. "Sparkling Harmony"
29. "Peaceful Moment With You"
30. "Mission: Accomplished"
31. "Gundam Attack"
32. "Important Battlefield"
33. "OZ Mobile Suit Getting Close"
34. "Enforcement Breakthrough"
35. "Swinging Target"
36. "Unknown Pressure"
37. "Zechs Comes"
38. "Just Communication" (Instrumental Version)
39. "Code Name is Heero Yuy"
40. "It's Just Love"

Mobile Suit Gundam Wing (Operation 2)



1. "Cry for the Dream"
2. "Good Luck and Good-Bye"
3. "The Clown"
4. "I'm Your Friend"
5. "Knock at Tomorrow's Door"
6. "It's Just Love!" (TV size)
7. "New Hope"
8. "True Figure of Truth"
9. "Mission"
10. "Soldiers Who Don't Have Grave-Post"
11. "Touched Heartstrings"
12. "Everyone's Thought"
13. "Invitation from Hell"
14. "Smoke & Bullet Rain"
15. "That Day Was The Last Day I Saw Your Smile"
16. "With Only That, I'm Happy"
17. "Left Smell of Summer"
18. "Like Venus Melting In The Morning"
19. "Break Out"
20. "Sympathy"
21. "Scattering Left Light"
22. "Signs of Consciousness"
23. "Just Communication" (TV version)

Mobile Suit Gundam Wing (Operation 3)



1. "Always a Secret"
2. "Only if You Smile"
3. "Brightness & Darkness"
4. "It'll Be OK!"
5. "Joy to My Life"
6. "Behind The Scenes of The Blackout"
7. "Legend of Zero - XXXG-00W0"
8. "Hellraiser Returns"
9. "The Labyrinth Called Yourself"
10. "Requiem, Softly"
11. "The Soldier Milliardo"
12. "Interlude-The Final Chapter"
13. "The Eye of a Mobile Doll"
14. "Secret Ambitions"
15. "The Abandoned Horse of The Age"
16. "Well-Planned Strategy/Tactics"
17. "Accelerated Beat"
18. "Dangerous Shining Because For The Purity"
19. "I Don't Like Fairy Tale"
20. "I Believed We'd Meet"
21. "Ties-From The Cockpit of A (An Expected/Resigned) Suicide Mission"
22. "Proof of Existence"
23. "Reversal of A Memory"
24. "What Are You Looking For On The Other Side of Victory?"
25. "The Flight Towards The Future"
26. "Who Will Give Their Life? (Burn)"
27. "Rhythm Emotion" (TV version)

Mobile Suit Gundam Wing (Operation 4)



1. "With Only My Words"
2. "Love is Not Crying Yet"
3. "Wild Wing"
4. "Far Off Dawn"
5. "Star's Gaze"
6. "Love is A Shooting Star"
7. "Stardust Soldiers"
8. "Grasp the Truth"
9. "Rhythm Emotion"
10. "Flying Away"

Mobile Suit Gundam Wing: Endless Waltz



1. "Prologue: AC195 Xmas Eve"
2. "White Reflection" (Short Version)
3. "Journey to the Sun"
4. "Main Title - Sub Title"
5. "AC196 Xmas Eve"
6. "At Circus Tent"
7. "The Powergame"
8. "Heero's Dream"
9. "Appearance of Mariemaia"
10. "Enforcement Rush"
11. "Duel!"
12. "The Dangerous Game"
13. "Codename: WIND"
14. "Battlefield"
15. "Perplexity"
16. "Holy Night"
17. "Wufei's Irritation"
18. "Clash at the Stratosphere"
19. "Sorrowful Memory"
20. "Final Attack"
21. "Riot of Citizens"
22. "ENDLESS WALTZ"
23. "White Reflection" (Reprise, Full Size Version)
[Mobile Suit Gundam Wing (Operation 1)]

Exact Audio Copy V0.99 prebeta 5 from 4. May 2009

EAC extraction logfile from 29. July 2009, 16:02

Koh Otani / Gundam Wing Operation 01

Used drive : BENQ DVD-ROM 16X Adapter: 0 ID: 0

Read mode : SecureUtilize accurate stream : YesDefeat audio cache : YesMake use of C2 pointers : Yes

Combined read/write offset correction : 0Overread into Lead-In and Lead-Out : NoFill up missing offset samples with silence : YesDelete leading and trailing silent blocks : NoNull samples used in CRC calculations : NoUsed interface : Native Win32 interface for Win NT & 2000Gap handling : Not detected, thus appended to previous track

Used output format : User Defined EncoderSelected bitrate : 320 kBit/sQuality : HighAdd ID3 tag : NoCommand line compressor : C:\Program Files\FLAC\flac.exeAdditional command line options : -T "artist=%a" -T "title=%t" -T "album=%g" -T "date=%y" -T "tracknumber=%n" -T "genre=%m" -5 %s

TOC of the extracted CD

Track | Start | Length | Start sector | End sector --------------------------------------------------------- 1 | 0:00.00 | 1:54.10 | 0 | 8559 2 | 1:54.10 | 1:48.25 | 8560 | 16684 3 | 3:42.35 | 1:44.30 | 16685 | 24514 4 | 5:26.65 | 1:35.40 | 24515 | 31679 5 | 7:02.30 | 1:37.62 | 31680 | 39016 6 | 8:40.17 | 4:20.30 | 39017 | 58546 7 | 13:00.47 | 1:24.55 | 58547 | 64901 8 | 14:25.27 | 2:19.15 | 64902 | 75341 9 | 16:44.42 | 2:04.68 | 75342 | 84709 10 | 18:49.35 | 2:13.57 | 84710 | 94741 11 | 21:03.17 | 1:52.45 | 94742 | 103186 12 | 22:55.62 | 1:08.33 | 103187 | 108319 13 | 24:04.20 | 2:07.42 | 108320 | 117886 14 | 26:11.62 | 1:29.25 | 117887 | 124586 15 | 27:41.12 | 1:34.55 | 124587 | 131691 16 | 29:15.67 | 3:35.40 | 131692 | 147856 17 | 32:51.32 | 1:31.05 | 147857 | 154686 18 | 34:22.37 | 2:11.55 | 154687 | 164566 19 | 36:34.17 | 2:13.18 | 164567 | 174559 20 | 38:47.35 | 3:33.22 | 174560 | 190556 21 | 42:20.57 | 1:34.20 | 190557 | 197626 22 | 43:55.02 | 1:06.60 | 197627 | 202636 23 | 45:01.62 | 1:22.10 | 202637 | 208796 24 | 46:23.72 | 0:39.38 | 208797 | 211759 25 | 47:03.35 | 2:05.55 | 211760 | 221189 26 | 49:09.15 | 1:42.00 | 221190 | 228839 27 | 50:51.15 | 1:36.02 | 228840 | 236041 28 | 52:27.17 | 1:06.13 | 236042 | 241004 29 | 53:33.30 | 2:11.52 | 241005 | 250881 30 | 55:45.07 | 1:41.15 | 250882 | 258471 31 | 57:26.22 | 2:07.58 | 258472 | 268054 32 | 59:34.05 | 2:13.30 | 268055 | 278059 33 | 61:47.35 | 2:11.65 | 278060 | 287949 34 | 63:59.25 | 2:12.35 | 287950 | 297884 35 | 66:11.60 | 1:20.10 | 297885 | 303894 36 | 67:31.70 | 1:11.35 | 303895 | 309254 37 | 68:43.30 | 1:56.32 | 309255 | 317986 38 | 70:39.62 | 1:03.18 | 317987 | 322729 39 | 71:43.05 | 1:11.65 | 322730 | 328119 40 | 72:54.70 | 3:56.20 | 328120 | 345839

Track 1

Filename D:\EAC\01 - The Wings of a Boy Who Killed Aldolescence.wav

Peak level 98.8 % Track quality 99.8 % Copy CRC B495A972 Copy OK

Track 2

Filename D:\EAC\02 - The Black Wind Invites Death.wav

Peak level 98.8 % Track quality 100.0 % Copy CRC 58E81E14 Copy OK

Track 3

Filename D:\EAC\03 - Back in the Smell of Blood and Gunpowder.wav

Peak level 98.8 % Track quality 100.0 % Copy CRC B61A8049 Copy OK

Track 4

Filename D:\EAC\04 - Looking for Peace Hiding in the Corps.wav

Peak level 98.8 % Track quality 100.0 % Copy CRC CFF54ED0 Copy OK

Track 5

Filename D:\EAC\05 - When the Dragons Swims, it all Ends.wav

Peak level 98.8 % Track quality 100.0 % Copy CRC 210C3A8F Copy OK

Track 6

Filename D:\EAC\06 - Just Communication.wav

Peak level 94.4 % Track quality 100.0 % Copy CRC 3ED4A23C Copy OK

Track 7

Filename D:\EAC\07 - The Curtain of the Next Chapter Lifts Now.wav

Peak level 98.8 % Track quality 100.0 % Copy CRC 76F69354 Copy OK

Track 8

Filename D:\EAC\08 - Eternity and Infinity are in these Hands.wav

Peak level 98.8 % Track quality 100.0 % Copy CRC E170D209 Copy OK

Track 9

Filename D:\EAC\09 - Treize Khushrenada - Man Who Makes History.wav

Peak level 98.8 % Track quality 100.0 % Copy CRC D1DD1CD6 Copy OK

Track 10

Filename D:\EAC\10 - Use the Cloak of Darkness.wav

Peak level 98.8 % Track quality 100.0 % Copy CRC BE80F53D Copy OK

Track 11

Filename D:\EAC\11 - You Can Hear the Voice Calling the Soul.wav

Peak level 98.8 % Track quality 100.0 % Copy CRC AB2CD493 Copy OK

Track 12

Filename D:\EAC\12 - Gundam Wing Bridge Collection 1.wav

Peak level 98.8 % Track quality 100.0 % Copy CRC D728285A Copy OK

Track 13

Filename D:\EAC\13 - Soft Hair and see-through Eyes.wav

Peak level 98.8 % Track quality 100.0 % Copy CRC 19095834 Copy OK

Track 14

Filename D:\EAC\14 - Inside the Girl's Heart....wav

Peak level 87.8 % Track quality 100.0 % Copy CRC 08CE04A0 Copy OK

Track 15

Filename D:\EAC\15 - Hearing the Whispers of Stars at Night Under the Smiling Moon.wav

Peak level 98.8 % Track quality 100.0 % Copy CRC 8A11DB64 Copy OK

Track 16

Filename D:\EAC\16 - To Beauty, to Elegance, and to Noble-Mindedness.wav

Peak level 98.8 % Track quality 100.0 % Copy CRC F8465A2E Copy OK

Track 17

Filename D:\EAC\17 - I Feel Like Crossing Over that Rainbow Bridge.wav

Peak level 87.5 % Track quality 100.0 % Copy CRC B01F9D1C Copy OK

Track 18

Filename D:\EAC\18 - Peace is Broken and Time is Running Out.wav

Peak level 98.8 % Track quality 100.0 % Copy CRC CAA9D5A1 Copy OK

Track 19

Filename D:\EAC\19 - Plot String and Marionette.wav

Peak level 98.8 % Track quality 99.8 % Copy CRC 13A2D8E9 Copy OK

Track 20

Filename D:\EAC\20 - Cold Bloodthirstiness.wav

Peak level 98.8 % Track quality 100.0 % Copy CRC 61B91AEF Copy OK

Track 21

Filename D:\EAC\21 - As Relena Peacecraft.wav

Peak level 72.5 % Track quality 100.0 % Copy CRC 9C5CBD48 Copy OK

Track 22

Filename D:\EAC\22 - From Uncertainty to Impatientce.wav

Peak level 93.3 % Track quality 100.0 % Copy CRC 8B286C45 Copy OK

Track 23

Filename D:\EAC\23 - Heero's Time of Desicion.wav

Peak level 98.8 % Track quality 100.0 % Copy CRC 6AE73093 Copy OK

Track 24

Filename D:\EAC\24 - Gundam Wing Bridge Collection 2.wav

Peak level 98.8 % Track quality 100.0 % Copy CRC 5B6A6CA7 Copy OK

Track 25

Filename D:\EAC\25 - Long Time Ago, Pain already Thrown.wav

Peak level 62.8 % Track quality 100.0 % Copy CRC B4F5A565 Copy OK

Track 26

Filename D:\EAC\26 - The Clown that Doesn't Neep Make-Up of Tears.wav

Peak level 85.3 % Track quality 99.7 % Copy CRC 0F17C224 Copy OK

Track 27

Filename D:\EAC\27 - Sandy Clock of Sad Color.wav

Peak level 88.4 % Track quality 100.0 % Copy CRC 02456B98 Copy OK

Track 28

Filename D:\EAC\28 - Sparkling Harmony.wav

Peak level 98.8 % Track quality 100.0 % Copy CRC DEC0D61F Copy OK

Track 29

Filename D:\EAC\29 - Peaceful Moment With You.wav

Peak level 98.8 % Track quality 100.0 % Copy CRC 71DB62BD Copy OK

Track 30

Filename D:\EAC\30 - Mission- Accomplished.wav

Peak level 98.8 % Track quality 100.0 % Copy CRC 037EEED3 Copy OK

Track 31

Filename D:\EAC\31 - Gundam Attack.wav

Peak level 98.8 % Track quality 100.0 % Copy CRC F399982E Copy OK

Track 32

Filename D:\EAC\32 - Important Battlefield.wav

Peak level 98.8 % Track quality 100.0 % Copy CRC F2EA2AD6 Copy OK

Track 33

Filename D:\EAC\33 - OZ Mobile Suit Getting Close.wav

Peak level 98.8 % Track quality 100.0 % Copy CRC 187D264B Copy OK

Track 34

Filename D:\EAC\34 - Enforcement Breakthrough.wav

Peak level 98.8 % Track quality 100.0 % Copy CRC 62C68395 Copy OK

Track 35

Filename D:\EAC\35 - Swinging Target.wav

Peak level 98.8 % Track quality 100.0 % Copy CRC 6322D369 Copy OK

Track 36

Filename D:\EAC\36 - Unknown Pressure.wav

Peak level 78.6 % Track quality 100.0 % Copy CRC 3544409A Copy OK

Track 37

Filename D:\EAC\37 - Zechs Comes.wav

Peak level 98.8 % Track quality 100.0 % Copy CRC 8F79ECF0 Copy OK

Track 38

Filename D:\EAC\38 - Just Communication (Inst. Version).wav

Peak level 98.8 % Track quality 100.0 % Copy CRC 648B4842 Copy OK

Track 39

Filename D:\EAC\39 - Code Name is Heero Yuy.wav

Peak level 98.8 % Track quality 100.0 % Copy CRC 10CFB449 Copy OK

Track 40

Filename D:\EAC\40 - It's Just Love.wav

Peak level 97.7 % Track quality 100.0 % Copy CRC 8CFDC346 Copy OK

No errors occurred

End of status report

[Mobile Suit Gundam Wing (Operation 2)]

Exact Audio Copy V0.99 prebeta 5 from 4. May 2009

EAC extraction logfile from 29. July 2009, 16:43

Various / Gundam Wing Operation 02

Used drive : BENQ DVD-ROM 16X Adapter: 0 ID: 0

Read mode : SecureUtilize accurate stream : YesDefeat audio cache : YesMake use of C2 pointers : Yes

Combined read/write offset correction : 0Overread into Lead-In and Lead-Out : NoFill up missing offset samples with silence : YesDelete leading and trailing silent blocks : NoNull samples used in CRC calculations : NoUsed interface : Native Win32 interface for Win NT & 2000Gap handling : Not detected, thus appended to previous track

Used output format : User Defined EncoderSelected bitrate : 320 kBit/sQuality : HighAdd ID3 tag : NoCommand line compressor : C:\Program Files\FLAC\flac.exeAdditional command line options : -T "artist=%a" -T "title=%t" -T "album=%g" -T "date=%y" -T "tracknumber=%n" -T "genre=%m" -5 %s

TOC of the extracted CD

Track | Start | Length | Start sector | End sector --------------------------------------------------------- 1 | 0:00.00 | 4:01.15 | 0 | 18089 2 | 4:01.15 | 3:52.07 | 18090 | 35496 3 | 7:53.22 | 5:34.35 | 35497 | 60581 4 | 13:27.57 | 3:53.35 | 60582 | 78091 5 | 17:21.17 | 3:50.63 | 78092 | 95404 6 | 21:12.05 | 1:13.02 | 95405 | 100881 7 | 22:25.07 | 1:28.60 | 100882 | 107541 8 | 23:53.67 | 3:00.43 | 107542 | 121084 9 | 26:54.35 | 1:19.15 | 121085 | 127024 10 | 28:13.50 | 1:06.65 | 127025 | 132039 11 | 29:20.40 | 1:14.35 | 132040 | 137624 12 | 30:35.00 | 2:23.57 | 137625 | 148406 13 | 32:58.57 | 2:13.30 | 148407 | 158411 14 | 35:12.12 | 2:53.60 | 158412 | 171446 15 | 38:05.72 | 1:30.03 | 171447 | 178199 16 | 39:36.00 | 1:18.30 | 178200 | 184079 17 | 40:54.30 | 2:30.10 | 184080 | 195339 18 | 43:24.40 | 2:38.05 | 195340 | 207194 19 | 46:02.45 | 1:12.42 | 207195 | 212636 20 | 47:15.12 | 2:35.30 | 212637 | 224291 21 | 49:50.42 | 1:05.65 | 224292 | 229231 22 | 50:56.32 | 2:38.30 | 229232 | 241111 23 | 53:34.62 | 1:21.53 | 241112 | 247239

Track 1

Filename D:\EAC\01 - Cry for the Dream.wav

Peak level 98.8 % Track quality 100.0 % Copy CRC E520D155 Copy OK

Track 2

Filename D:\EAC\02 - Good Luck and Good Bye.wav

Peak level 99.8 % Track quality 100.0 % Copy CRC 5FD90D7B Copy OK

Track 3

Filename D:\EAC\03 - The Clown.wav

Peak level 98.8 % Track quality 100.0 % Copy CRC 1F940EA7 Copy OK

Track 4

Filename D:\EAC\04 - I'm Your Friend.wav

Peak level 100.0 % Track quality 100.0 % Copy CRC 65C3BDF1 Copy OK

Track 5

Filename D:\EAC\05 - Knock On Morning's Door.wav

Peak level 98.8 % Track quality 100.0 % Copy CRC CCD74222 Copy OK

Track 6

Filename D:\EAC\06 - It's Just Love (TV Version).wav

Peak level 98.8 % Track quality 99.7 % Copy CRC AA99B595 Copy OK

Track 7

Filename D:\EAC\07 - A New Hope.wav

Peak level 98.8 % Track quality 100.0 % Copy CRC BC5E0E3D Copy OK

Track 8

Filename D:\EAC\08 - One's True Colors.wav

Peak level 98.8 % Track quality 100.0 % Copy CRC 84944D4E Copy OK

Track 9

Filename D:\EAC\09 - Mission.wav

Peak level 98.8 % Track quality 100.0 % Copy CRC 729C7C24 Copy OK

Track 10

Filename D:\EAC\10 - Soldiers with Unmarked Graves.wav

Peak level 98.8 % Track quality 100.0 % Copy CRC 06CECFAB Copy OK

Track 11

Filename D:\EAC\11 - Touching Heartstrings.wav

Peak level 86.3 % Track quality 100.0 % Copy CRC D9B49135 Copy OK

Track 12

Filename D:\EAC\12 - Each One's Intention.wav

Peak level 98.8 % Track quality 99.8 % Copy CRC 938585F0 Copy OK

Track 13

Filename D:\EAC\13 - Invitation from Hell.wav

Peak level 98.8 % Track quality 100.0 % Copy CRC 099B1011 Copy OK

Track 14

Filename D:\EAC\14 - The Rain Driving Back Gunpowder Smoke.wav

Peak level 98.8 % Track quality 100.0 % Copy CRC 8EF9AAFB Copy OK

Track 15

Filename D:\EAC\15 - A Smiling Face Looking at the End of the Day.wav

Peak level 98.8 % Track quality 100.0 % Copy CRC 0ED70736 Copy OK

Track 16

Filename D:\EAC\16 - Just Happy and That's it.wav

Peak level 91.5 % Track quality 100.0 % Copy CRC 364AF6D0 Copy OK

Track 17

Filename D:\EAC\17 - The Remaining Fragrance of Summer.wav

Peak level 98.8 % Track quality 99.8 % Copy CRC 7107ABD7 Copy OK

Track 18

Filename D:\EAC\18 - Engrossed with the Venus Dissolving in the Morning.wav

Peak level 98.8 % Track quality 100.0 % Copy CRC F48E1648 Copy OK

Track 19

Filename D:\EAC\19 - Break Out.wav

Peak level 98.8 % Track quality 100.0 % Copy CRC A640D934 Copy OK

Track 20

Filename D:\EAC\20 - Resonance.wav

Peak level 98.8 % Track quality 100.0 % Copy CRC 1E74288A Copy OK

Track 21

Filename D:\EAC\21 - Scattering What's Left of the Light.wav

Peak level 98.8 % Track quality 100.0 % Copy CRC EA408825 Copy OK

Track 22

Filename D:\EAC\22 - Awakening of Consciousness.wav

Peak level 96.0 % Track quality 100.0 % Copy CRC 7EA9BC48 Copy OK

Track 23

Filename D:\EAC\23 - Just Communication (TV Version).wav

Peak level 99.5 % Track quality 100.0 % Copy CRC F908A299 Copy OK

No errors occurred

End of status report

[Mobile Suit Gundam Wing (Operation 3)]

Exact Audio Copy V0.99 prebeta 5 from 4. May 2009

EAC extraction logfile from 29. July 2009, 17:12

Various Artists / Mobile Suit Gundam Wing: Operation 3

Used drive : BENQ DVD-ROM 16X Adapter: 0 ID: 0

Read mode : SecureUtilize accurate stream : YesDefeat audio cache : YesMake use of C2 pointers : Yes

Combined read/write offset correction : 0Overread into Lead-In and Lead-Out : NoFill up missing offset samples with silence : YesDelete leading and trailing silent blocks : NoNull samples used in CRC calculations : NoUsed interface : Native Win32 interface for Win NT & 2000Gap handling : Not detected, thus appended to previous track

Used output format : User Defined EncoderSelected bitrate : 320 kBit/sQuality : HighAdd ID3 tag : NoCommand line compressor : C:\Program Files\FLAC\flac.exeAdditional command line options : -T "artist=%a" -T "title=%t" -T "album=%g" -T "date=%y" -T "tracknumber=%n" -T "genre=%m" -5 %s

TOC of the extracted CD

Track | Start | Length | Start sector | End sector --------------------------------------------------------- 1 | 0:00.00 | 4:41.20 | 0 | 21094 2 | 4:41.20 | 4:46.60 | 21095 | 42604 3 | 9:28.05 | 5:03.12 | 42605 | 65341 4 | 14:31.17 | 4:22.40 | 65342 | 85031 5 | 18:53.57 | 4:06.28 | 85032 | 103509 6 | 23:00.10 | 1:42.15 | 103510 | 111174 7 | 24:42.25 | 1:37.27 | 111175 | 118476 8 | 26:19.52 | 1:32.58 | 118477 | 125434 9 | 27:52.35 | 1:47.10 | 125435 | 133469 10 | 29:39.45 | 1:41.22 | 133470 | 141066 11 | 31:20.67 | 1:46.13 | 141067 | 149029 12 | 33:07.05 | 2:00.52 | 149030 | 158081 13 | 35:07.57 | 3:25.00 | 158082 | 173456 14 | 38:32.57 | 1:44.53 | 173457 | 181309 15 | 40:17.35 | 1:53.72 | 181310 | 189856 16 | 42:11.32 | 3:08.15 | 189857 | 203971 17 | 45:19.47 | 1:29.13 | 203972 | 210659 18 | 46:48.60 | 1:38.45 | 210660 | 218054 19 | 48:27.30 | 1:28.60 | 218055 | 224714 20 | 49:56.15 | 1:54.67 | 224715 | 233331 21 | 51:51.07 | 1:36.40 | 233332 | 240571 22 | 53:27.47 | 1:39.20 | 240572 | 248016 23 | 55:06.67 | 1:37.28 | 248017 | 255319 24 | 56:44.20 | 1:29.32 | 255320 | 262026 25 | 58:13.52 | 1:39.60 | 262027 | 269511 26 | 59:53.37 | 1:36.30 | 269512 | 276741 27 | 61:29.67 | 1:24.73 | 276742 | 283114

Track 1

Filename D:\EAC\01 - Always A Secret.wav

Peak level 98.8 % Track quality 100.0 % Copy CRC 2781592F Copy OK

Track 2

Filename D:\EAC\02 - Only If You Smile.wav

Peak level 98.8 % Track quality 100.0 % Copy CRC 568803FC Copy OK

Track 3

Filename D:\EAC\03 - Brightness and Darkness.wav

Peak level 98.8 % Track quality 100.0 % Copy CRC A2C9B8AD Copy OK

Track 4

Filename D:\EAC\04 - Absolutely OK!.wav

Peak level 98.8 % Track quality 100.0 % Copy CRC 85EC6304 Copy OK

Track 5

Filename D:\EAC\05 - Joy to my Life.wav

Peak level 98.8 % Track quality 100.0 % Copy CRC EF4A719E Copy OK

Track 6

Filename D:\EAC\06 - At The Backstage of the Dark Fall.wav

Peak level 98.8 % Track quality 100.0 % Copy CRC 9E5DE59A Copy OK

Track 7

Filename D:\EAC\07 - Zero's Saga.wav

Peak level 98.8 % Track quality 100.0 % Copy CRC A5F39662 Copy OK

Track 8

Filename D:\EAC\08 - Hellraiser Returns.wav

Peak level 98.8 % Track quality 99.7 % Copy CRC 00E787C3 Copy OK

Track 9

Filename D:\EAC\09 - Losing One's Self.wav

Peak level 98.8 % Track quality 100.0 % Copy CRC 053ADEE9 Copy OK

Track 10

Filename D:\EAC\10 - Silent Requiem.wav

Peak level 98.8 % Track quality 100.0 % Copy CRC F27343A2 Copy OK

Track 11

Filename D:\EAC\11 - The Soldier Milliardo.wav

Peak level 98.8 % Track quality 99.8 % Copy CRC 65083A03 Copy OK

Track 12

Filename D:\EAC\12 - The Final Chapter.wav

Peak level 100.0 % Track quality 100.0 % Copy CRC 63ECA7FA Copy OK

Track 13

Filename D:\EAC\13 - The Eye of a Mobile Doll.wav

Peak level 98.8 % Track quality 100.0 % Copy CRC 3D6B1A74 Copy OK

Track 14

Filename D:\EAC\14 - A Secret Wish.wav

Peak level 98.8 % Track quality 100.0 % Copy CRC 5E5897BE Copy OK

Track 15

Filename D:\EAC\15 - A Forsaken Soldier in an Era.wav

Peak level 98.3 % Track quality 100.0 % Copy CRC F1F651E1 Copy OK

Track 16

Filename D:\EAC\16 - Estimating Tactics.wav

Peak level 98.8 % Track quality 100.0 % Copy CRC F003CE8C Copy OK

Track 17

Filename D:\EAC\17 - An Accelerating Pulse.wav

Peak level 87.6 % Track quality 100.0 % Copy CRC A7ED18DD Copy OK

Track 18

Filename D:\EAC\18 - The Dangerous Brilliance of a Pure Cause.wav

Peak level 93.3 % Track quality 100.0 % Copy CRC C68D320C Copy OK

Track 19

Filename D:\EAC\19 - Don't Love Fairytales, Then.wav

Peak level 87.3 % Track quality 100.0 % Copy CRC 60E2053B Copy OK

Track 20

Filename D:\EAC\20 - Believing in Meeting by All Means.wav

Peak level 97.7 % Track quality 100.0 % Copy CRC 635399C3 Copy OK

Track 21

Filename D:\EAC\21 - A Bond, Self-Explosion, Resolved at the Cockpit.wav

Peak level 64.9 % Track quality 100.0 % Copy CRC B54E39DA Copy OK

Track 22

Filename D:\EAC\22 - Proof of Existence.wav

Peak level 82.2 % Track quality 100.0 % Copy CRC 6EE9AFCA Copy OK

Track 23

Filename D:\EAC\23 - A Memory's Retrogressing Tide.wav

Peak level 86.4 % Track quality 100.0 % Copy CRC 63D3E605 Copy OK

Track 24

Filename D:\EAC\24 - Looking for Something Else in a Victory.wav

Peak level 98.8 % Track quality 100.0 % Copy CRC D4A7AD91 Copy OK

Track 25

Filename D:\EAC\25 - Soaring Towards the Future.wav

Peak level 98.8 % Track quality 99.7 % Copy CRC 28582BDB Copy OK

Track 26

Filename D:\EAC\26 - A Life Burning for Someone.wav

Peak level 98.8 % Track quality 100.0 % Copy CRC 72419021 Copy OK

Track 27

Filename D:\EAC\27 - Rhythm Emotion (TV Size Version).wav

Peak level 98.8 % Track quality 100.0 % Copy CRC FBD911B4 Copy OK

No errors occurred

End of status report

[Mobile Suit Gundam Wing (Operation 4)]

Exact Audio Copy V0.99 prebeta 5 from 4. May 2009

EAC extraction logfile from 29. July 2009, 18:01

Various Artists / Gundam Wing: Operation 4

Used drive : BENQ DVD-ROM 16X Adapter: 0 ID: 0

Read mode : SecureUtilize accurate stream : YesDefeat audio cache : YesMake use of C2 pointers : Yes

Combined read/write offset correction : 0Overread into Lead-In and Lead-Out : NoFill up missing offset samples with silence : YesDelete leading and trailing silent blocks : NoNull samples used in CRC calculations : NoUsed interface : Native Win32 interface for Win NT & 2000Gap handling : Not detected, thus appended to previous track

Used output format : User Defined EncoderSelected bitrate : 320 kBit/sQuality : HighAdd ID3 tag : NoCommand line compressor : C:\Program Files\FLAC\flac.exeAdditional command line options : -T "artist=%a" -T "title=%t" -T "album=%g" -T "date=%y" -T "tracknumber=%n" -T "genre=%m" -5 %s

TOC of the extracted CD

Track | Start | Length | Start sector | End sector --------------------------------------------------------- 1 | 0:00.00 | 4:36.50 | 0 | 20749 2 | 4:36.50 | 4:27.15 | 20750 | 40789 3 | 9:03.65 | 4:18.72 | 40790 | 60211 4 | 13:22.62 | 5:08.15 | 60212 | 83326 5 | 18:31.02 | 5:20.28 | 83327 | 107354 6 | 23:51.30 | 4:26.12 | 107355 | 127316 7 | 28:17.42 | 6:03.15 | 127317 | 154556 8 | 34:20.57 | 3:59.08 | 154557 | 172489 9 | 38:19.65 | 3:56.02 | 172490 | 190191 10 | 42:15.67 | 4:33.53 | 190192 | 210719

Track 1

Filename D:\EAC\01 - With Only My Words.wav

Peak level 98.8 % Track quality 99.9 % Copy CRC D87E025D Copy OK

Track 2

Filename D:\EAC\02 - Love Is Not Crying Yet.wav

Peak level 98.8 % Track quality 100.0 % Copy CRC 9CFE90CB Copy OK

Track 3

Filename D:\EAC\03 - Wild Wing.wav

Peak level 98.8 % Track quality 100.0 % Copy CRC A6D5401E Copy OK

Track 4

Filename D:\EAC\04 - Far Off Dawn.wav

Peak level 98.8 % Track quality 100.0 % Copy CRC 8FCAE833 Copy OK

Track 5

Filename D:\EAC\05 - Star's Gaze.wav

Peak level 98.8 % Track quality 100.0 % Copy CRC DDE3DAC9 Copy OK

Track 6

Filename D:\EAC\06 - Love Is A Shooting Star.wav

Peak level 98.8 % Track quality 99.9 % Copy CRC 4447E9EC Copy OK

Track 7

Filename D:\EAC\07 - Stardust Soldiers.wav

Peak level 98.8 % Track quality 100.0 % Copy CRC A5D8F7FF Copy OK

Track 8

Filename D:\EAC\08 - Grasp The Truth.wav

Peak level 98.8 % Track quality 100.0 % Copy CRC 047861ED Copy OK

Track 9

Filename D:\EAC\09 - Rhythm Emotion.wav

Peak level 98.8 % Track quality 100.0 % Copy CRC C2E36B12 Copy OK

Track 10

Filename D:\EAC\10 - Flying Away.wav

Peak level 98.8 % Track quality 99.7 % Copy CRC A0461CDC Copy OK

No errors occurred

End of status report

[Mobile Suit Gundam Wing: Endless Waltz]

Exact Audio Copy V0.99 prebeta 5 from 4. May 2009

EAC extraction logfile from 17. July 2009, 19:20

Kow Otani / Gundam Wing - Endless Waltz Original Soundtrack

Used drive : ATAPI DVD A DH16A1L Adapter: 1 ID: 0

Read mode : SecureUtilize accurate stream : YesDefeat audio cache : YesMake use of C2 pointers : No

Read offset correction : 6Overread into Lead-In and Lead-Out : NoFill up missing offset samples with silence : YesDelete leading and trailing silent blocks : NoNull samples used in CRC calculations : YesUsed interface : Installed external ASPI interfaceGap handling : Appended to previous track

Used output format : User Defined EncoderSelected bitrate : 192 kBit/sQuality : HighAdd ID3 tag : NoCommand line compressor : C:\Program Files\Exact Audio Copy\Flac\flac.exeAdditional command line options : -V -8 -T "artist=%a" -T "title=%t" -T "album=%g" -T "date=%y" -T "tracknumber=%n" -T "genre=%m" %s

TOC of the extracted CD

Track | Start | Length | Start sector | End sector --------------------------------------------------------- 1 | 0:00.00 | 4:57.25 | 0 | 22299 2 | 4:57.25 | 1:46.05 | 22300 | 30254 3 | 6:43.30 | 2:35.65 | 30255 | 41944 4 | 9:19.20 | 0:23.40 | 41945 | 43709 5 | 9:42.60 | 4:14.57 | 43710 | 62816 6 | 13:57.42 | 1:36.03 | 62817 | 70019 7 | 15:33.45 | 2:51.27 | 70020 | 82871 8 | 18:24.72 | 3:50.25 | 82872 | 100146 9 | 22:15.22 | 2:11.20 | 100147 | 109991 10 | 24:26.42 | 3:46.58 | 109992 | 126999 11 | 28:13.25 | 3:09.25 | 127000 | 141199 12 | 31:22.50 | 3:13.05 | 141200 | 155679 13 | 34:35.55 | 3:15.27 | 155680 | 170331 14 | 37:51.07 | 4:52.18 | 170332 | 192249 15 | 42:43.25 | 4:10.25 | 192250 | 211024 16 | 46:53.50 | 1:32.30 | 211025 | 217954 17 | 48:26.05 | 3:52.12 | 217955 | 235366 18 | 52:18.17 | 4:21.43 | 235367 | 254984 19 | 56:39.60 | 3:30.25 | 254985 | 270759 20 | 60:10.10 | 4:03.32 | 270760 | 289016 21 | 64:13.42 | 2:13.48 | 289017 | 299039 22 | 66:27.15 | 2:44.40 | 299040 | 311379 23 | 69:11.55 | 4:44.57 | 311380 | 332736

Track 1

Filename C:\EAC\01. Prologue- AC195 Xmas Eve.wav

Pre-gap length 0:00:02.00

Peak level 96.0 % Track quality 100.0 % Test CRC 4ABB08E8 Copy CRC 4ABB08E8 Cannot be verified as accurate (confidence 1) [E9A15285], AccurateRip returned [F6A121F6] Copy OK

Track 2

Filename C:\EAC\02. White Reflection (Short Size Version).wav

Pre-gap length 0:00:01.93

Peak level 87.6 % Track quality 100.0 % Test CRC 8A5EA577 Copy CRC 8A5EA577 Cannot be verified as accurate (confidence 1) [9ABEB99E], AccurateRip returned [A634786A] Copy OK

Track 3

Filename C:\EAC\03. Journey to The Sun.wav

Pre-gap length 0:00:02.90

Peak level 70.6 % Track quality 100.0 % Test CRC D4A7FE2C Copy CRC D4A7FE2C Cannot be verified as accurate (confidence 1) [58EF7BF0], AccurateRip returned [C62C464D] Copy OK

Track 4

Filename C:\EAC\04. Main Title ~ Sub Title.wav

Pre-gap length 0:00:01.93

Peak level 98.8 % Track quality 100.0 % Test CRC 7AAD446F Copy CRC 7AAD446F Cannot be verified as accurate (confidence 1) [FEF13144], AccurateRip returned [24F4A006] Copy OK

Track 5

Filename C:\EAC\05. AC196 Xmas Eve.wav

Pre-gap length 0:00:01.97

Peak level 99.7 % Track quality 100.0 % Test CRC 1988D11B Copy CRC 1988D11B Cannot be verified as accurate (confidence 1) [110C8280], AccurateRip returned [F244F204] Copy OK

Track 6

Filename C:\EAC\06. At Circus Tent.wav

Pre-gap length 0:00:02.06

Peak level 63.7 % Track quality 100.0 % Test CRC B99C2758 Copy CRC B99C2758 Cannot be verified as accurate (confidence 1) [B690253E], AccurateRip returned [839E2E39] Copy OK

Track 7

Filename C:\EAC\07. The Powergame.wav

Pre-gap length 0:00:02.33

Peak level 99.8 % Track quality 99.9 % Test CRC 0D425836 Copy CRC 0D425836 Cannot be verified as accurate (confidence 1) [F24948FA], AccurateRip returned [A0763CEF] Copy OK

Track 8

Filename C:\EAC\08. Heero's Dream.wav

Pre-gap length 0:00:01.82

Peak level 91.4 % Track quality 100.0 % Test CRC 24887FAD Copy CRC 24887FAD Cannot be verified as accurate (confidence 1) [CD7F014A], AccurateRip returned [1180C2BA] Copy OK

Track 9

Filename C:\EAC\09. Appearance of Mariemaia.wav

Pre-gap length 0:00:01.40

Peak level 88.5 % Track quality 100.0 % Test CRC E8965703 Copy CRC E8965703 Cannot be verified as accurate (confidence 1) [B72FE972], AccurateRip returned [5067754B] Copy OK

Track 10

Filename C:\EAC\10. Enforcement Rush.wav

Pre-gap length 0:00:02.00

Peak level 100.0 % Track quality 99.9 % Test CRC 4A6031D8 Copy CRC 4A6031D8 Cannot be verified as accurate (confidence 1) [F644189C], AccurateRip returned [979FB893] Copy OK

Track 11

Filename C:\EAC\11. Duel!.wav

Pre-gap length 0:00:01.97

Peak level 98.8 % Track quality 100.0 % Test CRC 948C3E37 Copy CRC 948C3E37 Cannot be verified as accurate (confidence 1) [52DD1669], AccurateRip returned [C008A51D] Copy OK

Track 12

Filename C:\EAC\12. The Dangerous Game.wav

Pre-gap length 0:00:01.53

Peak level 87.6 % Track quality 100.0 % Test CRC 4981C8F1 Copy CRC 4981C8F1 Cannot be verified as accurate (confidence 1) [5DDBE953], AccurateRip returned [F3B84B1F] Copy OK

Track 13

Filename C:\EAC\13. Codename- Wind.wav

Pre-gap length 0:00:01.86

Peak level 97.4 % Track quality 100.0 % Test CRC 41360E55 Copy CRC 41360E55 Cannot be verified as accurate (confidence 1) [4AE47F00], AccurateRip returned [94E9E7B1] Copy OK

Track 14

Filename C:\EAC\14. Battlefield.wav

Pre-gap length 0:00:01.86

Peak level 98.8 % Track quality 99.9 % Test CRC E0CD83AD Copy CRC E0CD83AD Cannot be verified as accurate (confidence 1) [0AA8E854], AccurateRip returned [35191213] Copy OK

Track 15

Filename C:\EAC\15. Perplexity.wav

Pre-gap length 0:00:02.20

Peak level 88.2 % Track quality 100.0 % Test CRC D3F94D6B Copy CRC D3F94D6B Cannot be verified as accurate (confidence 1) [65BE03A0], AccurateRip returned [EC62CE09] Copy OK

Track 16

Filename C:\EAC\16. Holy Night.wav

Pre-gap length 0:00:01.77

Peak level 96.2 % Track quality 100.0 % Test CRC 2BAC4400 Copy CRC 2BAC4400 Cannot be verified as accurate (confidence 1) [4FE3C887], AccurateRip returned [0A149869] Copy OK

Track 17

Filename C:\EAC\17. Wufei's Irritation.wav

Pre-gap length 0:00:01.97

Peak level 91.0 % Track quality 100.0 % Test CRC E82C1511 Copy CRC E82C1511 Cannot be verified as accurate (confidence 1) [DA2FE194], AccurateRip returned [2607F46B] Copy OK

Track 18

Filename C:\EAC\18. Clash at The Stratosphere.wav

Pre-gap length 0:00:01.46

Peak level 89.1 % Track quality 100.0 % Test CRC 33BF355C Copy CRC 33BF355C Cannot be verified as accurate (confidence 1) [AE477D00], AccurateRip returned [01C307C9] Copy OK

Track 19

Filename C:\EAC\19. Sorrowful Memory.wav

Pre-gap length 0:00:02.86

Peak level 86.0 % Track quality 100.0 % Test CRC BA6FD66A Copy CRC BA6FD66A Cannot be verified as accurate (confidence 1) [EF9C5791], AccurateRip returned [B6930A47] Copy OK

Track 20

Filename C:\EAC\20. Final Attack.wav

Pre-gap length 0:00:01.66

Peak level 91.7 % Track quality 99.9 % Test CRC A74333C1 Copy CRC A74333C1 Cannot be verified as accurate (confidence 1) [A594E81B], AccurateRip returned [A90CC36C] Copy OK

Track 21

Filename C:\EAC\21. Riot of Citizens.wav

Pre-gap length 0:00:01.69

Peak level 98.8 % Track quality 100.0 % Test CRC 7206D056 Copy CRC 7206D056 Cannot be verified as accurate (confidence 1) [D89816F6], AccurateRip returned [C0825765] Copy OK

Track 22

Filename C:\EAC\22. 'ENDLESS WALTZ'.wav

Pre-gap length 0:00:02.24

Peak level 89.1 % Track quality 100.0 % Test CRC 1AC16BFB Copy CRC 1AC16BFB Cannot be verified as accurate (confidence 1) [1AB3931A], AccurateRip returned [DE845644] Copy OK

Track 23

Filename C:\EAC\23. White Reflection (Reprise, Full Size Version).wav

Pre-gap length 0:00:01.57

Peak level 86.1 % Track quality 100.0 % Test CRC 5AA73AC1 Copy CRC 5AA73AC1 Cannot be verified as accurate (confidence 1) [BF0E04A6], AccurateRip returned [B75846F0] Copy OK

No tracks could be verified as accurateYou may have a different pressing from the one(s) in the database

No errors occurred

End of status report


Трекер:  [ 11-Ноя-2017 01:12 ]

  

Скачать .torrent

Размер .torrent файла 68 KB


Размер: 2.08 GB
Хэш (hash) релиза: 0cec043bf0dd4d5089dca296a171c077ea63b8d5

Еще никто не оставлял запись к записи скачать торрент Mobile Suit Gundam Wing Endless Waltz OST . Будь первым!

!Обратная связь