Jack the Giant Killer | SAM HUNT | Danni Lowinski

Скачать через торрент музыку Kono Sekai no Katasumi ni бесплатно без регистрации torrent

Статистика раздачи
Размер:  160 MB   |    Зарегистрирован:  8 месяцев   |    .torrent скачан:  8 раз   |   
Раздают:  1  
   
загрузка...
 
Автор Сообщение

Galfimbul

avatar Galfimbul


Kotringo and Katasumi Quintet - Live at Mt.RAINIER HALL SHIBUYA PLEASURE PLEASURE
(Kono Sekai no Katasumi ni Original Soundtrack)

Жанр: Soundtrack
Композитор: kotringo
Год выпуска фильма: 2016

Аудиокодек: flac
Тип: image+.cue
Битрейт аудио: lossless
Продолжительность: 34:21

Треклист (в скобках — номер трека на студийном альбоме):

Kami no Miko wa Koyoi Shimo (1)
Kanashikute Yarikirenai (2)
Hikishio no Umi wo Aruku Kodomotachi (3)
Tonarigumi (8)
Senkan Yamato (11)
Gohan no Shitaku (12)
Omiokuri (20)
Tobisaru Seigi (26)
Saigo no Tsutome (29)
Migite no Uta (30)
Suzu-san (32)
New day (33)
Tanpopo (31)

Описание:
Аудио-версия живого выступления kotringo и квинтета «Катасуми» в Mt.RAINIER HALL SHIBUYA PLEASURE PLEASURE. Источник — японский бонусный диск фильма Kono Sekai no Katasumi ni. Оригинальный звук в видео имел характеристики 24 бита, 48 кГц, впоследствии понижены разрядность и частота дискретизации до стандартов CD (16 бит и 44 кГц соотв.).

Участники выступления:
kotringo — вокал, фортепиано
Каору Судзуки — ударные
Хисаси Суто — бас
Сэйгэн Токудзава — виолончель
Наому Соэда — саксафон, флейта, кларнет

Дополнительные манипуляции:

Сокращены паузы между треками: уменьшена длительность аплодисментов (где была возможность безболезненно их убрать — они убраны), вырезаны комментарии композитора между треками.
В открывающей композиции (отрывок из трека Gohan no Shitaku) заменены участки с речью, звучащей в видео. На эти места поставлены заплатки из студийного альбома.
В начале некоторых вокальных треков почищены слюни.

Все операции по редактированию производились в Протулзе.
REM GENRE SoundtrackREM DATE 2016PERFORMER "kotringo"TITLE "Kotringo and Katasumi Quintet - Live at Mt.RAINIER HALL SHIBUYA PLEASURE PLEASURE"FILE "KONOSEKAI_LIVE.flac" WAVE TRACK 01 AUDIO TITLE "Gohan no Shitaku/Avant" INDEX 01 00:00:00 TRACK 02 AUDIO TITLE "Kami no Miko wa Koyoi Shimo" INDEX 01 00:45:28 TRACK 03 AUDIO TITLE "Kanashikute Yarikirenai" INDEX 01 02:48:24 TRACK 04 AUDIO TITLE "Hikishio no Umi wo Aruku Kodomotachi" INDEX 01 08:08:21 TRACK 05 AUDIO TITLE "Tonarigumi" INDEX 01 09:43:00 TRACK 06 AUDIO TITLE "Senkan Yamato" INDEX 01 12:03:00 TRACK 07 AUDIO TITLE "Gohan no Shitaku" INDEX 01 12:46:65 TRACK 08 AUDIO TITLE "Omiokuri" INDEX 01 15:28:06 TRACK 09 AUDIO TITLE "Tobisaru Seigi" INDEX 01 16:22:66 TRACK 10 AUDIO TITLE "Saigo no Tsutome" INDEX 01 17:42:28 TRACK 11 AUDIO TITLE "Migite no Uta" INDEX 01 18:30:22 TRACK 12 AUDIO TITLE "Suzu-san" INDEX 01 23:32:16 TRACK 13 AUDIO TITLE "New day" INDEX 01 26:14:34 TRACK 14 AUDIO TITLE "Tanpopo" INDEX 01 29:35:20
Lossless Audio Checker 2.0.6 logfile from Monday 30 October 2017 08:41:56 PM

File: D:\KONOSEKAI_LIVE\KONOSEKAI_LIVE.flacResult: Clean


Трекер:  [ 30-Окт-2017 21:42 ]

  

Скачать .torrent

Размер .torrent файла 13 KB


Размер: 160 MB
Хэш (hash) релиза: 6329865df43016773c2df74af52894149407719e

Торренты, похожие на Kono Sekai no Katasumi ni скачать торрент

Форум Название Автор Размер S L Добавлен
Саундтреки к аниме (lossless) ·· (OST) Kono Sekai no Katasumi ni (Kono Sekai no Katasumi ni Original Soundtrack) (kotringo) - 2016, FLAC (tracks), lossless Galfimbul 222339842212 MB 0 0 1509550931

18:42

1-Ноя-17

Саундтреки к аниме (mp3) ·· (OST) Kono Sekai no Katasumi ni - 2016, MP3 (tracks), 320 kbps [1CD] Galfimbul 134899969129 MB 0 0 1480232427

10:40

27-Ноя-16

Еще никто не оставлял запись к записи скачать торрент Kono Sekai no Katasumi ni . Будь первым!

!Обратная связь