Efeitos Sonoros | [A3] Thanh Ninh Chi Hạ | Экономия на строительстве, реконструкция малоэтажного энергоэффективного дома (2015) PDF

Скачать через торрент [VIDEO] Стражи Галактики. Часть 2 Guardians of the Galaxy Vol. 2 бесплатно русская версия torrent активатор

Статистика раздачи
Размер:  1.47 GB   |    Зарегистрирован:  8 месяцев   |    .torrent скачан:  61 раз   |   
Раздают:  1  
   
загрузка...
 
Автор Сообщение

Galfimbul

avatar Galfimbul


Стражи Галактики. Часть 2 / Guardians of the Galaxy Vol. 2

Год выпуска: 2017

Страна: США
Жанр: фантастика, боевик, приключения
Продолжительность: 02:15:46
Перевод: Профессиональный (дублированный) iTunes
Субтитры: нет
Оригинальная аудиодорожка: нет

Режиссер: Джеймс Ганн / James Gunn
В ролях: Крис Пратт, Зои Салдана, Дэйв Батиста, Сильвестр Сталлоне, Брэдли Купер, Майкл Рукер, Карен Гиллан, Пом Клементьефф, Элизабет Дебики, Курт Рассел
Описание: Все в сборе: землянин Питер Квилл (Звездный Лорд), молчаливый громила Дракс, зеленокожая наемница Гамора, живое дерево Грут и говорящий енот. Герои не изменяют себе и с завидной регулярностью продолжают попадать в немыслимые ситуации, выпутываясь из них почти без ущерба (а иногда даже с пользой) для окружающих. На этот раз им предстоит раскрыть одну из самых главных тайн во всей Галактике: кто же на самом деле отец Питера Квилла?
Качество: HDRip (с BDRip 1080p)
Формат: MP4
Видео: AVC/H.264, 1280x536 (2,40:1), 1354 Kbps, 23,976 fps
Аудио: Русский, 2 ch, 44.1 kHz, 192 Kbps

Время раздачи: с 10:00 до 22:00
ОбщееПолное имя : E:\Download\Стражи Галактики Часть 2 2017 720p.mp4Формат : MPEG-4Профиль формата : Base Media / Version 2Идентификатор кодека : mp42 (isom/mp42)Размер файла : 1,47 ГбайтПродолжительность : 2 ч. 15 м.Режим общего битрейта : ПеременныйОбщий поток : 1548 Кбит/секДата кодирования : UTC 2017-10-03 16:55:39Дата пометки : UTC 2017-10-03 16:55:39gsst : 0gstd : 8146233

ВидеоИдентификатор : 1Формат : AVCФормат/Информация : Advanced Video CodecПрофиль формата : [email protected]Настройки формата : CABAC / 1 Ref FramesПараметр CABAC формата : ДаПараметр RefFrames формата : 1 кадрИдентификатор кодека : avc1Идентификатор кодека/Информация : Advanced Video CodingПродолжительность : 2 ч. 15 м.Битрейт : 1354 Кбит/секМаксимальный битрейт : 10,7 Мбит/секШирина : 1280 пикселейВысота : 536 пикселейСоотношение сторон : 2,40:1Режим частоты кадров : ПостоянныйЧастота кадров : 23,976 (24000/1001) кадра/секЦветовое пространство : YUVСубдискретизация насыщенности : 4:2:0Битовая глубина : 8 битТип развёртки : ПрогрессивнаяБит/(Пиксели*Кадры) : 0.082Размер потока : 1,28 Гбайт (87%)Дата пометки : UTC 2017-10-03 16:56:44Цветовой диапазон : LimitedОсновные цвета : BT.709Характеристики трансфера : BT.709Коэффициенты матрицы : BT.709

АудиоИдентификатор : 2Формат : AACФормат/Информация : Advanced Audio CodecПрофиль формата : LCИдентификатор кодека : mp4a-40-2Продолжительность : 2 ч. 15 м.Вид битрейта : ПеременныйБитрейт : 192 Кбит/секМаксимальный битрейт : 202 Кбит/секКаналы : 2 каналаРасположение каналов : Front: L RЧастота : 44,1 КГцЧастота кадров : 43,066 кадра/сек (1024 SPF)Метод сжатия : С потерямиРазмер потока : 186 Мбайт (12%)Язык : RussianДата кодирования : UTC 2017-10-03 16:56:18Дата пометки : UTC 2017-10-03 16:56:44


Трекер:  [ 30-Окт-2017 05:42 ]

  

Скачать .torrent

Размер .torrent файла 2 KB


Размер: 1.47 GB
Хэш (hash) релиза: 3ad769847eb00ce0303a15b88e9bdb554f175dc5

Еще никто не оставлял запись к записи скачать торрент [VIDEO] Стражи Галактики. Часть 2 Guardians of the Galaxy Vol. 2 . Будь первым!

!Обратная связь