I.Origins.2014.720p.WEB-DL.DD5.1.H264-RARBG | Another Period | Birth of a Rich Man (aka. Becoming a Billionaire)

Скачать через торрент [SERIAL] Флэш The Flash бесплатно русская версия torrent активатор

Статистика раздачи
Размер:  4.99 GB   |    Зарегистрирован:  8 месяцев   |    .torrent скачан:  21 раз   |   
Раздают:  1  
   
загрузка...
 
Автор Сообщение

Galfimbul

avatar Galfimbul


<div class="post-box" style="border-color: blue; background: #CCD4FA;">
Флэш / The Flash

Сезон 3, эпизоды с 1 по 23 (из 23)Информация о сериале:
❖ Страна: США
❖ Производство: Berlanti Productions, DC Entertainment, Warner Bros. Television
❖ Год выпуска: 2016
❖ Жанр: фантастика, фэнтези, боевик, драма, приключения
❖ Режиссер: Дэвид Наттер
❖ В ролях: Грант Гастин, Кэндис Паттон, Рик Коснетт, Даниэль Панабэйкер, Карлос Вальдес, Томас Кэвэна, Джесси Л. Мартин, Джон Уэсли Шипп, Стивен Амелл, Ёсиэ Бэнкрофт и др.

❖ Перевод: Профессиональный (многоголосый закадровый) [LostFilm]

❖ Релиз от:
❖ Автор рипа: ProT1gR

Описание сериала:
Из-за несчастного случая судмедэксперт Барри Аллен приобретает способность передвигаться с невероятной скоростью. Этот случай делает из него супергероя, которым он всегда мечтал стать. Защищая город, как ангел-хранитель, делая невозможное, спасая жизни со скоростью вспышки, по подсказке Оливера Куина (Стрела), он берёт себе и соответствующее имя - Флэш.



❖ Качество: WEB-DLRip (Исходник: WEB-DL 720p)
❖ Продолжительность: по ~ 00:43:00
Эпизод 1. Флэшпойнт / Flashpoint
Эпизод 2. Парадокс / Paradox
Эпизод 3. Маджента / Magenta
Эпизод 4. Новые злодеи / The New Rogues
Эпизод 5. Монстр / Monster
Эпизод 6. Мрак / Shade
Эпизод 7. Убийца Мороз / Killer Frost
Эпизод 8. Вторжение! / Invasion!
Эпизод 9. Настоящее / The Present
Эпизод 10. Одолжить проблем у будущего / Borrowing Problems from the Future
Эпизод 11. Живым или мёртвым / Dead or Alive
Эпизод 12. Неприкасаемый / Untouchable
Эпизод 13. Нападение на Горилла-Сити / Attack on Gorilla City (1)
Эпизод 14. Нападение на Централ-Сити / Attack on Central City (2)
Эпизод 15. Ярость Савитара / The Wrath of Savitar
Эпизод 16. В силу скорости / Into the Speed Force
Эпизод 17. Дуэт / Duet (2)
Эпизод 18. Абракадабра / Abra Kadabra
Эпизод 19. Бывший и будущий Флэш / The Once and Future Flash
Эпизод 20. Я знаю, кто ты / I Know Who You Are
Эпизод 21. Причина и следствие / Cause and Effect
Эпизод 22. Инфантино-стрит / Infantino Street
Эпизод 23. Финишная черта / Finish Line
raw [info]: 640x360p 1:1 @ 24000/1001 fps (cfr)
x264 [info]: using SAR=1/1
x264 [info]: using cpu capabilities: MMX2 SSE2Fast SSSE3 SSE4.2 AVX
x264 [info]: profile High, level 4.1
x264 [info]: frame I:873 Avg QP:16.54 size: 22483
x264 [info]: frame P:15581 Avg QP:20.24 size: 6092
x264 [info]: frame B:44707 Avg QP:22.21 size: 1716
x264 [info]: consecutive B-frames: 2.9% 4.5% 4.8% 65.9% 6.3% 11.4% 1.4% 1.5% 0.4% 0.9%
x264 [info]: mb I I16..4: 7.9% 64.0% 28.2%
x264 [info]: mb P I16..4: 0.9% 5.7% 1.4% P16..4: 34.9% 38.8% 10.8% 0.0% 0.0% skip: 7.5%
x264 [info]: mb B I16..4: 0.1% 0.5% 0.1% B16..8: 36.2% 16.1% 2.1% direct: 2.7% skip:42.2% L0:39.3% L1:49.5% BI:11.2%
x264 [info]: 8x8 transform intra:68.9% inter:64.0%
x264 [info]: direct mvs spatial:91.6% temporal:8.4%
x264 [info]: coded y,uvDC,uvAC intra: 78.0% 75.1% 40.9% inter: 10.2% 8.3% 0.5%
x264 [info]: i16 v,h,dc,p: 23% 16% 7% 54%
x264 [info]: i8 v,h,dc,ddl,ddr,vr,hd,vl,hu: 16% 9% 6% 9% 11% 13% 12% 12% 12%
x264 [info]: i4 v,h,dc,ddl,ddr,vr,hd,vl,hu: 18% 10% 5% 9% 12% 12% 11% 10% 11%
x264 [info]: i8c dc,h,v,p: 31% 28% 23% 18%
x264 [info]: Weighted P-Frames: Y:1.8% UV:1.0%
x264 [info]: ref P L0: 54.8% 9.6% 16.8% 5.7% 4.2% 3.2% 2.6% 1.5% 1.4% 0.1% 0.0%
x264 [info]: ref B L0: 81.4% 9.7% 4.2% 1.7% 1.2% 0.9% 0.6% 0.2%
x264 [info]: ref B L1: 94.7% 5.3%
x264 [info]: kb/s:599.79Общее
Полное имя :The.Flash.[S03E01].LostFilm.[Kaztorrents].mp4
Формат : MPEG-4
Профиль формата : Base Media
Идентификатор кодека : isom
Размер файла : 223 Мбайт
Продолжительность : 42 м.
Режим общего битрейта : Переменный
Общий поток : 732 Кбит/сек
Дата кодирования : UTC 2016-10-06 17:38:45
Дата пометки : UTC 2016-10-06 17:38:45

Видео
Идентификатор : 1
Формат : AVC
Формат/Информация : Advanced Video Codec
Профиль формата : [email protected]
Параметр CABAC формата : Да
Параметр ReFrames формата : 9 кадров
Идентификатор кодека : avc1
Идентификатор кодека/Информация : Advanced Video Coding
Продолжительность : 42 м.
Битрейт : 600 Кбит/сек
Максимальный битрейт : 2151 Кбит/сек
Ширина : 640 пикселей
Высота : 360 пикселей
Соотношение сторон : 16:9
Режим частоты кадров : Постоянный
Частота кадров : 23,976 кадра/сек
Цветовое пространство : YUV
Субдискретизация насыщенности : 4:2:0
Битовая глубина : 8 бит
Тип развёртки : Прогрессивная
Бит/(Пиксели*Кадры) : 0.109
Размер потока : 183 Мбайт (82%)
Заголовок : [email protected]-DEV-rev248-g39d5978-master
Библиотека кодирования : x264 core 146 r2538 121396c
Настройки программы : cabac=1 / ref=9 / deblock=1:-3:-3 / analyse=0x3:0x113 / me=umh / subme=11 / psy=1 / psy_rd=1.00:0.00 / mixed_ref=1 / me_range=32 / chroma_me=1 / trellis=2 / 8x8dct=1 / cqm=0 / deadzone=21,11 / fast_pskip=0 / chroma_qp_offset=-2 / threads=6 / lookahead_threads=1 / sliced_threads=0 / nr=0 / decimate=1 / interlaced=0 / bluray_compat=0 / constrained_intra=0 / bframes=9 / b_pyramid=2 / b_adapt=2 / b_bias=0 / direct=3 / weightb=1 / open_gop=0 / weightp=2 / keyint=240 / keyint_min=23 / scenecut=40 / intra_refresh=0 / rc_lookahead=40 / rc=2pass / mbtree=0 / bitrate=600 / ratetol=1.0 / qcomp=0.60 / qpmin=0 / qpmax=69 / qpstep=4 / cplxblur=20.0 / qblur=0.5 / vbv_maxrate=14000 / vbv_bufsize=14000 / nal_hrd=none / filler=0 / ip_ratio=1.40 / pb_ratio=1.30 / aq=1:1.00
Дата кодирования : UTC 2016-10-06 17:38:45
Дата пометки : UTC 2016-10-06 17:38:58

Аудио
Идентификатор : 2
Формат : AAC
Формат/Информация : Advanced Audio Codec
Профиль формата : LC
Идентификатор кодека : 40
Продолжительность : 42 м.
Вид битрейта : Переменный
Битрейт : 128 Кбит/сек
Максимальный битрейт : 146 Кбит/сек
Каналы : 2 канала
Расположение каналов : Front: L R
Частота : 48,0 КГц
Метод сжатия : С потерями
Размер потока : 38,9 Мбайт (17%)
Дата кодирования : UTC 2016-10-06 16:08:22
Дата пометки : UTC 2016-10-06 17:38:58
Технические данные файла:
❖ Формат: MP4
❖ Видео кодек: H.264
❖ Аудио кодек: AAC-LC
❖ Видео: 640x360 (16:9), 23.976 fps, 600 kbps (0.109 bit/pixel)
❖ Аудио: 48.0 KHz, 2 ch, 128 kbps
Внимание! Раздача ведётся путём добавления новых серий; при каждом добавлении создаётся новый торрент. Чтобы начать докачку новой серии, пользователям необходимо сделать следующее:
(1) остановить скачивание,
(2) удалить старый торрент-файл у себя из клиента (старые серии удалять не надо),
(3) скачать новый торрент-файл из раздачи и запустить его у себя в клиенте вместо старого, при этом указать клиенту путь в старую папку, куда и должно происходить скачивание новых серий.
Ваш клиент при этом должен произвести хеширование (проверку) старой папки (если не производит сам - помогите ему сделать это), и будет докачивать только те серии, которых у вас ещё нет. Старые серии при этом не удаляются, а продолжают раздаваться!
Eсли вы уже удалили старые серии, то предотвратить повторную закачку старых серий можно, отжав галочку в соответсвующих местах при запуске нового торрента. По возможности, желательно не удалять старые серии как можно дольше, чтобы релизёр не столько продолжал раздавать старые серии, а смог сконцентрироваться на новых.
</div>

Трекер:  [ 24-Окт-2017 18:42 ]

  

Скачать .torrent

Размер .torrent файла 14 KB


Размер: 4.99 GB
Хэш (hash) релиза: 5f4871ffa0c773c35ae0ac5b41dae9ddf5bbb28f

Еще никто не оставлял запись к записи скачать торрент [SERIAL] Флэш The Flash . Будь первым!

!Обратная связь