Jeanne, die Kamikaze-Diebin | Lucy Hale | http://datator.info/smf/index.php?topic=1816.0

Скачать порно через торрент [Pantyamateur.com Pantymaniacs.com] Megapack 1 x163 UnionPeer.org бесплатно онлайн HD качество

Скачать новое порно 2015, 2014 новинки через торрент UnionPeer.org

Порно торрент бесплатно ЮнионПир.орг

Статистика раздачи
Размер:  36.45 GB   |    Зарегистрирован:  8 месяцев   |    .torrent скачан:  279 раз   |   
Раздают:  1  
   
загрузка...
 
Автор Сообщение

Galfimbul

avatar Galfimbul


[Pantyamateur.com Pantymaniacs.com] Megapack 1 x163 960,1080p,4k Год производства: 2017 г.
Жанр: Solo Fetish
Описание: http://pantymaniacs.com/

Тип HD видео: 1080p
Качество видео: WEB-DL
Формат видео: WMV
Видео: Windows Media Video 9 1920x1080 25.00fps 8085Kbps
Аудио: Windows Media Audio Stereo 440 kbps, 44 kHz
Cindy Read (1).wmv
Format : Windows Media
File size : 60.8 MiB
Duration : 3mn 31s
Overall bit rate mode : Variable
Overall bit rate : 2 408 Kbps
Maximum Overall bit rate : 4 437 Kbps
Encoded date : UTC 2013-04-16 15:29:56.917

Video
ID : 2
Format : VC-1
Format profile : [email protected]
Codec ID : WMV3
Codec ID/Info : Windows Media Video 9
Codec ID/Hint : WMV3
Description of the codec : Windows Media Video 9 - Professional
Bit rate mode : Variable
Bit rate : 2 000 Kbps
Width : 960 pixels
Height : 540 pixels
Display aspect ratio : 16:9
Frame rate mode : Variable
Nominal frame rate : 25.000 fps
Color space : YUV
Chroma subsampling : 4:2:0
Bit depth : 8 bits
Scan type : Progressive
Compression mode : Lossy
NumberOfFrames : 5283

Audio
ID : 1
Format : WMA
Format profile : Pro
Codec ID : 162
Codec ID/Info : Windows Media Audio
Description of the codec : Windows Media Audio 10 Professional - 440 kbps, 44 kHz, 2 channel 24 bit 2-pass VBR
Duration : 3mn 31s
Bit rate mode : Variable
Bit rate : 401 Kbps
Channel(s) : 2 channels
Sampling rate : 44.1 KHz
Bit depth : 24 bits
Stream size : 10.1 MiB (17%)
NumberOfFrames : 519
081016 PM Holly Kiss.wmv
Format : Windows Media
File size : 303 MiB
Duration : 5mn 6s
Overall bit rate mode : Variable
Overall bit rate : 8 306 Kbps
Maximum Overall bit rate : 10.5 Mbps
Encoded date : UTC 2016-09-08 12:43:09.607

Video
ID : 2
Format : VC-1
Format profile : [email protected]
Codec ID : WMV3
Codec ID/Info : Windows Media Video 9
Codec ID/Hint : WMV3
Description of the codec : Windows Media Video 9 - Professional
Duration : 5mn 6s
Bit rate mode : Variable
Bit rate : 8 000 Kbps
Width : 1 920 pixels
Height : 1 080 pixels
Display aspect ratio : 16:9
Frame rate : 25.000 fps
Bit depth : 8 bits
Compression mode : Lossy
Bits/(Pixel*Frame) : 0.154
Stream size : 292 MiB (96%)
Language : English (GB)
NumberOfFrames : 7650

Audio
ID : 1
Format : WMA
Format profile : Pro
Codec ID : 162
Codec ID/Info : Windows Media Audio
Description of the codec : Windows Media Audio 10 Professional - 440 kbps, 44 kHz, 2 channel 24 bit 2-pass VBR
Duration : 5mn 6s
Bit rate mode : Variable
Bit rate : 409 Kbps
Channel(s) : 2 channels
Sampling rate : 44.1 KHz
Bit depth : 24 bits
Stream size : 14.9 MiB (5%)
Language : English (GB)
NumberOfFrames : 760
pantymaniacs 1/230317_PM_Poppy.hd.mp4
Format : MPEG-4
Format profile : Base Media / Version 2
Codec ID : mp42 (mp42/mp41)
File size : 516 MiB
Duration : 5mn 1s
Overall bit rate mode : Variable
Overall bit rate : 14.3 Mbps
Encoded date : UTC 2017-02-07 15:29:59
Tagged date : UTC 2017-02-07 15:30:12
©TIM : 00:00:00:00
©TSC : 25
©TSZ : 1

Video
ID : 1
Format : AVC
Format/Info : Advanced Video Codec
Format profile : [email protected]
Format settings, CABAC : Yes
Format settings, ReFrames : 3 frames
Codec ID : avc1
Codec ID/Info : Advanced Video Coding
Duration : 5mn 1s
Bit rate mode : Variable
Bit rate : 14.0 Mbps
Maximum bit rate : 20.0 Mbps
Width : 3 840 pixels
Height : 2 160 pixels
Display aspect ratio : 16:9
Frame rate mode : Constant
Frame rate : 25.000 fps
Standard : PAL
Color space : YUV
Chroma subsampling : 4:2:0
Bit depth : 8 bits
Scan type : Progressive
Bits/(Pixel*Frame) : 0.068
Stream size : 505 MiB (98%)
Language : English
Encoded date : UTC 2017-02-07 15:29:59
Tagged date : UTC 2017-02-07 15:29:59
Color range : Limited
Color primaries : BT.709
Transfer characteristics : BT.709
Matrix coefficients : BT.709

Audio
ID : 2
Format : AAC
Format/Info : Advanced Audio Codec
Format profile : LC
Codec ID : 40
Duration : 5mn 1s
Source duration : 5mn 1s
Bit rate mode : Variable
Bit rate : 317 Kbps
Maximum bit rate : 403 Kbps
Channel(s) : 2 channels
Channel positions : Front: L R
Sampling rate : 48.0 KHz
Frame rate : 46.875 fps (1024 spf)
Compression mode : Lossy
Stream size : 11.4 MiB (2%)
Source stream size : 11.4 MiB (2%)
Language : English
Encoded date : UTC 2017-02-07 15:29:59
Tagged date : UTC 2017-02-07 15:29:59


Трекер:  [ 19-Окт-2017 13:40 ]

  

Скачать .torrent

Размер .torrent файла 192 KB


Размер: 36.45 GB
Хэш (hash) релиза: 6e2e2bd23d0e6f87789032f4fac5ab2ce59bed67

Еще никто не оставлял запись к записи скачать торрент [Pantyamateur.com Pantymaniacs.com] Megapack 1 x163 . Будь первым!

!Обратная связь