Party Bus to Hell 2017 1080p WEB-DL DD5 1 H264-FGT
Thinkbox Krakatoa MY 2.7.1 for Maya 2017 to 2018 Win64

Скачать через торрент [VIDEO] Пираты Карибского моря: Мертвецы не рассказывают сказки Pirates of the Caribbean: Dead Men Tell No Tales бесплатно русская версия torrent активатор

Статистика раздачи
Размер:  1.63 GB   |    Зарегистрирован:  6 месяцев   |    .torrent скачан:  40 раз   |   
Раздают:  1  
   
загрузка...
 
Автор Сообщение

Galfimbul

avatar Galfimbul


Пираты Карибского моря: Мертвецы не рассказывают сказки / Pirates of the Caribbean: Dead Men Tell No Tales

Год выпуска: 2017

Страна: США
Жанр: фэнтези, комедия, приключения
Продолжительность: 02:09:07
Перевод: Профессиональный (дублированный) Лицензия BD EUR
Субтитры: нет
Оригинальная аудиодорожка: нет

Режиссер: Хоаким Роннинг, Эспен Сандберг / Joachim Rønning, Espen Sandberg
В ролях: Джонни Депп, Кира Найтли, Кая Скоделарио, Дэвид Уэнэм, Орландо Блум, Джеффри Раш, Брентон Туэйтс, Хавьер Бардем, Голшифте Фарахани, Стивен Грэм
Описание: Исчерпавший свою удачу капитан Джек Воробей обнаруживает, что за ним охотится его старый неприятель, ужасный капитан Салазар и его призрачные пираты. Они только что сбежали из Дьявольского треугольника и намерены уничтожить всех пиратов, включая Джека. Поможет спастись лишь могущественный артефакт — трезубец Посейдона, который дарует своему обладателю полный контроль над морями.
Качество: HDRip (с BDRip 1080p)
Формат: MP4
Видео: AVC/H.264, 1280x534 (2,40:1), 1879 Kbps, 23,976 fps
Аудио: Русский, 2 ch, 44.1 kHz, 128 Kbps

Время раздачи: с 11:00 до 23:00
ОбщееПолное имя : E:\Download\Pirates of the Caribbean Dead Men Tell No Tales 2017 720р.mp4Формат : MPEG-4Профиль формата : Base MediaИдентификатор кодека : isom (isom/avc1)Размер файла : 1,63 ГбайтПродолжительность : 2 ч. 9 м.Режим общего битрейта : ПеременныйОбщий поток : 1813 Кбит/секДата кодирования : UTC 2017-10-14 12:12:23Дата пометки : UTC 2017-10-14 12:12:23

ВидеоИдентификатор : 1Формат : AVCФормат/Информация : Advanced Video CodecПрофиль формата : [email protected]Настройки формата : CABAC / 1 Ref FramesПараметр CABAC формата : ДаПараметр RefFrames формата : 1 кадрИдентификатор кодека : avc1Идентификатор кодека/Информация : Advanced Video CodingПродолжительность : 2 ч. 9 м.Битрейт : 1685 Кбит/секМаксимальный битрейт : 6959 Кбит/секШирина : 1280 пикселейВысота : 534 пикселяСоотношение сторон : 2,40:1Режим частоты кадров : ПостоянныйЧастота кадров : 23,976 (24000/1001) кадра/секЦветовое пространство : YUVСубдискретизация насыщенности : 4:2:0Битовая глубина : 8 битТип развёртки : ПрогрессивнаяБит/(Пиксели*Кадры) : 0.103Размер потока : 1,52 Гбайт (93%)Дата кодирования : UTC 2017-10-14 12:12:23Дата пометки : UTC 2017-10-14 12:14:54Цветовой диапазон : LimitedОсновные цвета : BT.709Характеристики трансфера : BT.709Коэффициенты матрицы : BT.709

АудиоИдентификатор : 2Формат : AACФормат/Информация : Advanced Audio CodecПрофиль формата : LCИдентификатор кодека : mp4a-40-2Продолжительность : 2 ч. 9 м.Вид битрейта : ПеременныйБитрейт : 126 Кбит/секМаксимальный битрейт : 134 Кбит/секКаналы : 2 каналаРасположение каналов : Front: L RЧастота : 44,1 КГцЧастота кадров : 43,066 кадра/сек (1024 SPF)Метод сжатия : С потерямиРазмер потока : 116 Мбайт (7%)Дата кодирования : UTC 2017-10-14 12:14:27Дата пометки : UTC 2017-10-14 12:14:54


Трекер:  [ 18-Окт-2017 05:42 ]

  

Скачать .torrent

Размер .torrent файла 2 KB


Размер: 1.63 GB
Хэш (hash) релиза: a8aa3cb8f58cdf9fef382d8d6b32003f7e77bdbd

Еще никто не оставлял запись к записи скачать торрент [VIDEO] Пираты Карибского моря: Мертвецы не рассказывают сказки Pirates of the Caribbean: Dead Men Tell No Tales . Будь первым!

!Обратная связь