OpenLoad | Ver Paddington 2 film | Michelle Summers

Скачать порно через торрент [Pantyamateur.com Hotpantyfun.com] Megapack x200 UnionPeer.org бесплатно онлайн HD качество

Скачать новое порно 2015, 2014 новинки через торрент UnionPeer.org

Порно торрент бесплатно ЮнионПир.орг

Статистика раздачи
Размер:  35.7 GB   |    Зарегистрирован:  9 месяцев   |    .torrent скачан:  360 раз   |   
Раздают:  1  
   
загрузка...
 
Автор Сообщение

Galfimbul

avatar Galfimbul


[Pantyamateur.com Hotpantyfun.com] Megapack x200 960,1080p,4k / [Pantyamateur.com Hotpantyfun.com] Megapack



Год производства: 2017 г.
Жанр: Solo Fetish
Описание: http://hotpantyfun.com/models.html

Тип HD видео: 1080p
Видео: Windows Media Video 9 1920x1080 25.00fps 8085Kbps
Аудио: Windows Media Audio Stereo 440 kbps, 44 kHz
HPF807_Lucy_Lume.hd.mp4
Format : MPEG-4
Format profile : Base Media / Version 2
Codec ID : mp42 (mp42/mp41)
File size : 455 MiB
Duration : 4mn 13s
Overall bit rate mode : Variable
Overall bit rate : 15.0 Mbps
Encoded date : UTC 2017-01-19 14:18:51
Tagged date : UTC 2017-01-19 14:18:56
©TIM : 00:00:00:00
©TSC : 25
©TSZ : 1

Video
ID : 1
Format : AVC
Format/Info : Advanced Video Codec
Format profile : [email protected]
Format settings, CABAC : Yes
Format settings, ReFrames : 3 frames
Format settings, GOP : M=3, N=25
Codec ID : avc1
Codec ID/Info : Advanced Video Coding
Duration : 4mn 13s
Bit rate mode : Variable
Bit rate : 14.7 Mbps
Maximum bit rate : 18.0 Mbps
Width : 3 840 pixels
Height : 2 160 pixels
Display aspect ratio : 16:9
Frame rate mode : Constant
Frame rate : 25.000 fps
Standard : PAL
Color space : YUV
Chroma subsampling : 4:2:0
Bit depth : 8 bits
Scan type : Progressive
Bits/(Pixel*Frame) : 0.071
Stream size : 445 MiB (98%)
Language : English
Encoded date : UTC 2017-01-19 14:18:51
Tagged date : UTC 2017-01-19 14:18:51
Color range : Limited
Color primaries : BT.709
Transfer characteristics : BT.709
Matrix coefficients : BT.709

Audio
ID : 2
Format : AAC
Format/Info : Advanced Audio Codec
Format profile : LC
Codec ID : 40
Duration : 4mn 13s
Source duration : 4mn 13s
Bit rate mode : Variable
Bit rate : 317 Kbps
Maximum bit rate : 394 Kbps
Channel(s) : 2 channels
Channel positions : Front: L R
Sampling rate : 48.0 KHz
Frame rate : 46.875 fps (1024 spf)
Compression mode : Lossy
Stream size : 9.61 MiB (2%)
Source stream size : 9.61 MiB (2%)
Language : English
Encoded date : UTC 2017-01-19 14:18:51
Tagged date : UTC 2017-01-19 14:18:51
HPF784 Anna Belle.wmv
Format : Windows Media
File size : 258 MiB
Duration : 4mn 17s
Overall bit rate mode : Variable
Overall bit rate : 8 407 Kbps
Maximum Overall bit rate : 10.5 Mbps
Encoded date : UTC 2016-09-08 14:19:00.589

Video
ID : 2
Format : VC-1
Format profile : [email protected]
Codec ID : WMV3
Codec ID/Info : Windows Media Video 9
Codec ID/Hint : WMV3
Description of the codec : Windows Media Video 9 - Professional
Duration : 4mn 17s
Bit rate mode : Variable
Bit rate : 8 000 Kbps
Width : 1 920 pixels
Height : 1 080 pixels
Display aspect ratio : 16:9
Frame rate : 25.000 fps
Bit depth : 8 bits
Compression mode : Lossy
Bits/(Pixel*Frame) : 0.154
Stream size : 246 MiB (95%)
Language : English (GB)
NumberOfFrames : 6426

Audio
ID : 1
Format : WMA
Format profile : Pro
Codec ID : 162
Codec ID/Info : Windows Media Audio
Description of the codec : Windows Media Audio 10 Professional - 440 kbps, 44 kHz, 2 channel 24 bit 2-pass VBR
Duration : 4mn 17s
Bit rate mode : Variable
Bit rate : 406 Kbps
Channel(s) : 2 channels
Sampling rate : 44.1 KHz
Bit depth : 24 bits
Stream size : 12.4 MiB (5%)
Language : English (GB)
NumberOfFrames : 633
HPF566_Tammie_Lee.wmv
Format : Windows Media
File size : 68.5 MiB
Duration : 3mn 58s
Overall bit rate mode : Variable
Overall bit rate : 2 406 Kbps
Maximum Overall bit rate : 4 433 Kbps
Encoded date : UTC 2013-11-25 16:30:58.202

Video
ID : 2
Format : VC-1
Format profile : [email protected]
Codec ID : WMV3
Codec ID/Info : Windows Media Video 9
Codec ID/Hint : WMV3
Description of the codec : Windows Media Video 9 - Professional
Bit rate mode : Variable
Bit rate : 2 000 Kbps
Width : 960 pixels
Height : 540 pixels
Display aspect ratio : 16:9
Frame rate mode : Variable
Nominal frame rate : 25.000 fps
Color space : YUV
Chroma subsampling : 4:2:0
Bit depth : 8 bits
Scan type : Progressive
Compression mode : Lossy
NumberOfFrames : 5957

Audio
ID : 1
Format : WMA
Format profile : Pro
Codec ID : 162
Codec ID/Info : Windows Media Audio
Description of the codec : Windows Media Audio 10 Professional - 440 kbps, 44 kHz, 2 channel 24 bit 2-pass VBR
Duration : 3mn 58s
Bit rate mode : Variable
Bit rate : 405 Kbps
Channel(s) : 2 channels
Sampling rate : 44.1 KHz
Bit depth : 24 bits
Stream size : 11.5 MiB (17%)
NumberOfFrames : 588
HPF483_Sammantha_Bentley.wmv
HPF505_Cindy_Read.wmv
HPF510_Cindy_Read.wmv
HPF531_Samantha_Bentley.wmv
HPF533_Cindy_Read.wmv
HPF534_Tammie_Lee.wmv
HPF537_Holly_Kiss.wmv
HPF538_Casey_B.wmv
HPF539_Taylor_Morgan.wmv
HPF540_Frankie_Babe.wmv
HPF543_Holly_Kiss.wmv
HPF544_Chloe_Lovette.wmv
HPF545_Ashleigh_McKenzie.wmv
HPF546_Frankie_Babe.wmv
HPF547_Elle_Brook.wmv
HPF548_Jessica_Jensen.wmv
HPF549_Chloe_Lovatt.wmv
HPF550_April_Paisley.wmv
HPF551_Tina_Kay.wmv
HPF552_Frankie_Babe.wmv
HPF553_Ashleigh_McKenzie.wmv
HPF554_Chloe_Lovette.wmv
HPF556_Jessica_Jensen.wmv
HPF558_Chloe_Lovette.wmv
HPF559_Amber_West.wmv
HPF560_April_Paisley.wmv
HPF561_Jessica_Jensen.wmv
HPF562_Tina_Kay.wmv
HPF563_Jess_West.wmv
HPF564_Tiffany_Naylor.wmv
HPF566_Tammie_Lee.wmv
HPF567_Cindy_Read.wmv
HPF568_Frankie_Babe.wmv
HPF569_Taylor_Morgan.wmv
HPF570_Karen_Wood.wmv
HPF571_Chessie_Kay.wmv
HPF573_Tiffany_Naylor.wmv
HPF574_Tammie_Lee.wmv
HPF575_Frankie_babe.wmv
HPF577_Hannah_Shaw.wmv
HPF578_Chessie_Kay.wmv
HPF579_Holly_Kiss.wmv
HPF580_Tiffany_Naylor.wmv
HPF581_Saphire_Blue.wmv
HPF582_Frankie_Babe.wmv
HPF583_Cherry_Blush.wmv
HPF584_Hannah_Shaw.wmv
HPF585_Tina_Kay.wmv
HPF587_Holly_Kiss.wmv
HPF588_Sophie_Parker.wmv
HPF589_Evey_Kristal.wmv
HPF590_Sophia_Delane.wmv
HPF591_Cherry_Blush.wmv
HPF592_Jess_West.wmv
HPF593_Danielle_Maye.wmv
HPF594_Chessie_Kay.wmv
HPF599_Danielle_Maye.wmv
HPF600_Chessie_Kay.wmv
HPF601_Tammie_Lee.wmv
HPF602_Chloe_Lovette.wmv
HPF603_Cindy_Read.wmv
HPF604_Frankie_Babe.wmv
HPF606_Tammie_Lee.wmv
HPF607_Lucy_Zara_2.wmv
HPF608_Chloe_Lovette.wmv
HPF609_Karen_Wood.wmv
HPF610_Holly_Kiss.wmv
HPF611_Cindy_Read.wmv
HPF612_Sophia_Delane.wmv
HPF613_Karen_Wood.wmv
HPF614_Hannah_Shaw.wmv
HPF615_Holly_Kiss.wmv
HPF616_Danielle_Maye.wmv
HPF617_Chessie_Kay.wmv
HPF618_Casey_B.wmv
HPF619_Evey_Krystal.wmv
HPF620_Sophia_Delane.wmv
HPF621_Tammie_Lee.wmv
HPF622_Danielle_Maye.wmv
HPF623_Sophia_Delane.wmv
HPF624_Holly_Kiss.wmv
HPF625_Casey_B.wmv
HPF626_Evey_Krystal.wmv
HPF628_Tammie_Lee.wmv
HPF629_Tasha_Holz.wmv
HPF630_Holly_Kiss.wmv
HPF631_Casey_B.wmv
HPF633_Chloe_Lovette.wmv
HPF634_Sophia_Delane.wmv
HPF635_Tasha_Holz.wmv
HPF637_Cherry_Blush.wmv
HPF638_Casey_B.wmv
HPF640_Tiffany_Naylor.wmv
HPF642_Hannah_Shaw.wmv
HPF643_Danielle_Maye.wmv
HPF644_Jazmine_Jones.wmv
HPF645_Cherry_Blush.wmv
HPF646_April_Paisley.wmv
HPF647_Cindy_Read.wmv
HPF648_Hannah_Shaw.wmv
HPF649_Chessie_Kay.wmv
HPF650_Holly_Kiss.wmv
HPF651_Danielle_Maye.wmv
HPF652_Jazmine_Jones.wmv
HPF653_April_Paisley.wmv
HPF654_Cindy_Read.wmv
HPF655_Holly_Kiss.wmv
HPF656_Tasha_Holz.wmv
HPF657_Karen_Wood.wmv
HPF658_Sophia_Delane.wmv
HPF659_Hannah_Shaw.wmv
HPF661_Chloe_Lovette.wmv
HPF662_Hannah_Shaw.wmv
HPF663_Tina_Kay.wmv
HPF665_Chloe_Lovette.wmv
HPF668_Victoria_Summers.wmv
HPF669_Chloe_Lovette.wmv
HPF670_Cherry_Blush.wmv
HPF671_Frankie_Babe.wmv
HPF672_Chloe_Lovette.wmv
HPF673_Cherry_Blush.wmv
HPF675_Cindy_Read.wmv
HPF676_Taylor_Morgan.wmv
HPF677_Chloe_Lovette.wmv
HPF678_Natalia_Forest.wmv
HPF679_Hannah_Shaw.wmv
HPF680_Cindy_Read.wmv
HPF680_Taylor_Morgan.wmv
HPF681_Taylor_Morgan.wmv
HPF682_Kerry_Eliza.wmv
HPF683_Chloe_Lovette.wmv
HPF684_Ashley_Rider.wmv
HPF685_Hannah_Shaw.wmv
HPF686_Chloe_Lovette.wmv
HPF687_Kerry_Eliza.wmv
HPF688_Holly_Kiss.wmv
HPF695_Cindy_Read.wmv
HPF730 Cindy Read.wmv
HPF735 Samantha Bentley.wmv
HPF738 Samantha Bentley.wmv
HPF740 Amber Jayne.wmv
HPF741 Sophia Delane.wmv
HPF742 Jess West.wmv
HPF743 Taylor Morgan.wmv
HPF744 Samantha Bentley.wmv
HPF745 Natalia Forrest.wmv
HPF746 Sophia Delane.wmv
HPF747 Holly Kiss.wmv
HPF748 Chloe Lovette.wmv
HPF749 Olga Cabaeva.wmv
HPF750 Cherry Blush.wmv
HPF751 Chloe Lovette.wmv
HPF752 Natalia Forrest.wmv
HPF753 Holly.wmv
HPF754 Cherry Blush.wmv
HPF755 Anna Belle.wmv
HPF756 Chloe Lovette.wmv
HPF757 Roxy Mendez.wmv
HPF758 Anna Belle.wmv
HPF759 Olga Cabaeva.wmv
HPF760 Cherry Blush.wmv
HPF761 Roxy Mendez.wmv
HPF762 Chloe Lovette.wmv
HPF763 Amber Jayne.wmv
HPF764 Cherry Blush.wmv
HPF765 Tracy Rose.wmv
HPF766 Chloe Lovette.wmv
HPF767 Amber Jayne.wmv
HPF768 Jess West.wmv
HPF769 Tracy Rose.wmv
HPF770 Tina Kay.wmv
HPF772 Jess West.wmv
HPF773 Ashley Rider.wmv
HPF774_Hannah_Shaw.wmv
HPF776 Jess West.wmv
HPF778 Frankie Babe.wmv
HPF779_Sophia_Delane.wmv
HPF780 Anna Belle .wmv
HPF781 Holly Kiss.wmv
HPF782_Axa_Jay.wmv
HPF783_Frankie_Babe.wmv
HPF784 Anna Belle.wmv
HPF785 Holly Kiss.wmv
HPF786_Hannah_Shaw.wmv
HPF787_Axa_Jay.wmv
HPF788_Chloe_lovette.wmv
HPF_789_Sophia_Delane.wmv
HPF791_Frankie_Babe.wmv
HPF792_Chloe_Lovette.wmv
HPF794_Danielle_Maye.hd.mp4
HPF795_Lucy_Lume.hd.mp4
HPF799_Holly_Kiss.hd.mp4
HPF800_Danielle_Maye.hd.mp4
HPF801_Cindy_Read.hd.mp4
HPF802_Lucy_Lume.hd.mp4
HPF804_Holly_Kiss.hd.mp4
HPF805_Tiffany_Naylor.hd.mp4
HPF806_Tina_Kay.hd.mp4
HPF807_Lucy_Lume.hd.mp4
HPF808_Cindy Read.hd.mp4


Трекер:  [ 06-Окт-2017 13:00 ]

  

Скачать .torrent

Размер .torrent файла 191 KB


Размер: 35.7 GB
Хэш (hash) релиза: c811b984e79c5c3bf41a2ef0ea50b983a5b441b4

Еще никто не оставлял запись к записи скачать торрент [Pantyamateur.com Hotpantyfun.com] Megapack x200 . Будь первым!

!Обратная связь