In-Ear-Kopfhörer: Überblick über die kleinen Soundwunder | VoodooSerano - Blood Is Pumpin 05 | L'Empereur FRENCH DVDRIP 2017

Скачать через торрент музыку Йома: Посланцы царства тьмы Blood Reign: Curse of the Yoma бесплатно без регистрации torrent

Статистика раздачи
Размер:  219 MB   |    Зарегистрирован:  9 месяцев   |    .torrent скачан:  13 раз   |   
Раздают:  1  
   
загрузка...
 
Автор Сообщение

Galfimbul

avatar Galfimbul


Йома: Посланцы царства тьмы / Blood Reign: Curse of the Yoma

Название альбома: Youma ~Jaou Kourin Densetsu~ Original Soundtrack
Композитор: Hiroya Watanabe
Год выпуска: 1989
Страна: Япония
Аудио кодек: FLAC (*.flac)
Тип рипа: image+.cue
Битрейт аудио: lossless
Продолжительность: 00:36:35
Наличие сканов в содержимом раздачи: да

Треклист:

01 Chi no Daichi 3:06
02 Sasurai 1:11
03 Shinobi 3:27
04 Ayumiyoru Kyouchou 2:52
05 Ayakashi no Mura 3:09
06 Mahoroba 0:57
07 Youma - Kazoeuta 2:35
08 Youma - Kazoeuta (inst) 0:56
09 Semaru Magun 3:55
10 Chouryou 1:42
11 Makutsu 0:47
12 Yousen 2:43
13 Maou - Kikuganomiko 3:21
14 Ashita e no Prologue 3:22
15 Yasuragi no Toki 2:33
Exact Audio Copy V0.99 prebeta 4 from 23. January 2008

EAC ЧҐИЎИХЦѕОДјюґУ5. Т»ФВ 2013, 3:43

ОґЦЄТХКхјТ / ОґЦЄ±кМв

К№УГЗэ¶ЇЖч ЈєTSSTcorpCDDVDW TS-H652H Adapter: 5 ID: 0

¶БИЎДЈКЅ : ±Ј»¤К№УГѕ«И·Бч : КЗ·ПіэТфЖµ»єіе : КЗК№УГ C2 ЦёХл : ·с

¶БИЎЖ«ТЖРЈХэ : 6¶БИЎ Lead-In єН Lead-Out : ·сУГѕІТфМоідЧҐИЎЦР¶ЄК§Ж«ТЖµДІЙСщ : КЗИҐіэКЧОІѕІТфїй : ·сФЪ CRC јЖЛгЦРК№УГБЛїХСщ±ѕ : КЗТСУГЅУїЪ : Win NT ј° 2000 ±ѕµШ Win32 ЅУїЪ

ЛщУГКдіцёсКЅ : ДЪІї WAV єЇКэСщ±ѕёсКЅ : 44.100 Hz;16 Bit;БўМеЙщ

±»ЧҐ№м CD µД TOC

Тф№м | їЄКј | і¤¶И | ЖрКјЙИЗш | ЅбОІЙИЗш -------------------------------------------------- 1 | 0:00.37 | 3:06.10 | 37 | 13996 2 | 3:06.47 | 1:10.60 | 13997 | 19306 3 | 4:17.32 | 3:26.53 | 19307 | 34809 4 | 7:44.10 | 2:51.57 | 34810 | 47691 5 | 10:35.67 | 3:09.18 | 47692 | 61884 6 | 13:45.10 | 0:56.67 | 61885 | 66151 7 | 14:42.02 | 2:35.40 | 66152 | 77816 8 | 17:17.42 | 0:55.68 | 77817 | 82009 9 | 18:13.35 | 3:55.17 | 82010 | 99651 10 | 22:08.52 | 1:41.63 | 99652 | 107289 11 | 23:50.40 | 0:46.50 | 107290 | 110789 12 | 24:37.15 | 2:43.00 | 110790 | 123014 13 | 27:20.15 | 3:20.60 | 123015 | 138074 14 | 30:41.00 | 3:21.72 | 138075 | 153221 15 | 34:02.72 | 2:32.60 | 153222 | 164681

·¶О§ЧґМ¬ј°ґнОу

ТССЎФс·¶О§

ОДјюГы D:\ТфАЦ\ОЮЛр\ЧФЧҐ\K30X-7149.wav

·еЦµµзЖЅ 98.5 % ·¶О§ЦКБї 100.0 % ёґЦЖ CRC 604062A2 ёґЦЖіЙ№¦

Г»УРґнОу·ўЙъ

ЧґМ¬±ЁёжЅбОІ
AUDIOCHECKER v2.0 beta (build 457) - by Dester - [email protected]~~~~~~~~~~~~~~~~~~~~~~~~~~~~~~~~~~

Started at: пятница, 29. 09. 2017. - 22:12.501 file found

1 -===- D:\9\K30X-7149\K30X-7149\K30X-7149.flac Extracted successfully Conclusion: this track is CDDA with probability 100% Tempfile successfully deleted.

Finished at: пятница, 29. 09. 2017. - 22:20.35 (operation time: 0:07.44)
-
Доп. информация: -

Трекер:  [ 29-Сен-2017 19:42 ]

  

Скачать .torrent

Размер .torrent файла 18 KB


Размер: 219 MB
Хэш (hash) релиза: 245e9f63cff46283ca3a3beeb3d3591306b94b6e

Еще никто не оставлял запись к записи скачать торрент Йома: Посланцы царства тьмы Blood Reign: Curse of the Yoma . Будь первым!

!Обратная связь