The Tonight Show Jimmy Fallon 2015 06 01 Melissa McCarthy Ed Sheeran x264 720p WEBRIP
My Neighbor Seki

Скачать через торрент музыку John Zorn Filmworks 2,5,6,7,8,10,11,12,17,18,19, lossless бесплатно без регистрации torrent

Статистика раздачи
Размер:  3.12 GB   |    Зарегистрирован:  6 месяцев   |    .torrent скачан:  12 раз   |   
Раздают:  1  
   
загрузка...
 
Автор Сообщение

Galfimbul

avatar Galfimbul


John Zorn Filmworks 2,5,6,7,8,10,11,12,17,18,19

Torrent обновлен 01.07.08
Жанр: Soundtrack
Производитель диска: USA
Битрейт аудио: lossless
Продолжительность: 8:49:17
Personnel:
Cyro Baptista: Brazilian Percussion
Anthony Coleman: Prepared Piano, Keyboards
Carol Emanuel: Harp
Andy Haas: Didjeridu
Jim Pugliese: Percussion
Marc Ribot: Guitar, Banjo
David Shea: Turntables, Sampler
----------------------------------------------------------------
1. Intro
2. I Stole From Jesus Christ
3. Gold
4. Main Title
5. The Building
6. Meatlocker
7. Pigeons
8. Scuffle
9. Exploring
10. Rattlesnakes for Sergio Leone
11. Two Interiors
12. Stealth
13. Action
14. Dumping The Body
15. The Trunk
16. Escape Attempt
17. Arrival
18. Prying At The Windows
19. Arsenal
20. King James
21. Powerline
22. The Magic of Gold
23. Dilemma
24. Conspiracy
25. The Plot part 1
26. The Plot part 2
27. Heroin Fix
28. Lucky Run
29. Vengence Is Mine
30. Escape
31. Kill Fever
32. Outside
33. Ending
34. Alternate Ending/End Title
35. Arsenal Dance mix
<div class="sp-wrap">
<div class="sp-head folded">audiochecker</div>
<div class="sp-body">AUDIOCHECKER v2.0 beta (build 457) - by Dester - [email protected]
~~~~~~~~~~~~~~~~~~~~~~~~~~~~~~~~~~
-=== DO NOT EDIT THIS FILE! ===-

Path: ...\02 (1995)

01 -=- 01-John_Zorn-Intro-APE_INT.ape -=- CDDA (54%)
02 -=- 02-John_Zorn-I_Stole_From_Jesus_Christ-APE_INT.ape -=- CDDA (100%)
03 -=- 03-John_Zorn-Gold-APE_INT.ape -=- CDDA (42%)
04 -=- 04-John_Zorn-Main_Title-APE_INT.ape -=- CDDA (100%)
05 -=- 05-John_Zorn-The_Building-APE_INT.ape -=- CDDA (100%)
06 -=- 06-John_Zorn-Meatlocker-APE_INT.ape -=- CDDA (99%)
07 -=- 07-John_Zorn-Pigeons-APE_INT.ape -=- CDDA (100%)
08 -=- 08-John_Zorn-Scuffle-APE_INT.ape -=- CDDA (99%)
09 -=- 09-John_Zorn-Exploring-APE_INT.ape -=- CDDA (100%)
10 -=- 10-John_Zorn-Rattlesnakes_For_Sergio_Leone-APE_INT.ape -=- CDDA (100%)
11 -=- 11-John_Zorn-Two_Interiors-APE_INT.ape -=- CDDA (100%)
12 -=- 12-John_Zorn-Stealth-APE_INT.ape -=- CDDA (100%)
13 -=- 13-John_Zorn-Action-APE_INT.ape -=- CDDA (100%)
14 -=- 14-John_Zorn-Dumping_The_Body1-APE_INT.ape -=- CDDA (100%)
15 -=- 15-John_Zorn-The_Trunk-APE_INT.ape -=- CDDA (100%)
16 -=- 16-John_Zorn-Escape_Attempt-APE_INT.ape -=- CDDA (100%)
17 -=- 17-John_Zorn-Arrival-APE_INT.ape -=- CDDA (100%)
18 -=- 18-John_Zorn-Prying_At_The_Windows-APE_INT.ape -=- CDDA (100%)
19 -=- 19-John_Zorn-Arsenal-APE_INT.ape -=- CDDA (94%)
20 -=- 20-John_Zorn-King_James-APE_INT.ape -=- CDDA (99%)
21 -=- 21-John_Zorn-Powerline-APE_INT.ape -=- CDDA (100%)
22 -=- 22-John_Zorn-The_Magic_Of_Gold-APE_INT.ape -=- CDDA (85%)
23 -=- 23-John_Zorn-Chimney-APE_INT.ape -=- CDDA (49%)
24 -=- 24-John_Zorn-Dilemma-APE_INT.ape -=- CDDA (92%)
25 -=- 25-John_Zorn-Conspiracy-APE_INT.ape -=- CDDA (100%)
26 -=- 26-John_Zorn-The_Plot-Part_1-APE_INT.ape -=- CDDA (100%)
27 -=- 27-John_Zorn-The_Plot-Part_2-APE_INT.ape -=- CDDA (87%)
28 -=- 28-John_Zorn-Heroin_Fix-APE_INT.ape -=- CDDA (99%)
29 -=- 29-John_Zorn-Lucky_Run-APE_INT.ape -=- CDDA (54%)
30 -=- 30-John_Zorn-Vengance_Is_Mine-APE_INT.ape -=- CDDA (100%)
31 -=- 31-John_Zorn-Escape-APE_INT.ape -=- CDDA (100%)
32 -=- 32-John_Zorn-Kill_Fever-APE_INT.ape -=- CDDA (100%)
33 -=- 33-John_Zorn-Outside-APE_INT.ape -=- CDDA (100%)
34 -=- 34-John_Zorn-Ending-APE_INT.ape -=- CDDA (62%)
35 -=- 35-John_Zorn-Alternate_Ending-End_Title-APE_INT.ape -=- CDDA (100%)
36 -=- 36-John_Zorn-Arsenal_Dance_Mix-APE_INT.ape -=- CDDA (85%)

Summary 91,67% CDDA

249888308
</div>
</div>
Personnel:
Cyro Baptista
Joey Baron
Anthony Coleman
Carol Emanuel
Erik Friedlander
Jill Jaffe
Kurodo Kyoko
Jim Pugliese
Robert Quine
Marc Ribot
Chris Wood
John Zorn: Keyboards, Sound-design
--------------------------------------------------
1. Pueblo
2. Elegant Spanking
3. Credits Included
4. Maogai
5. A Lot Of Fun For The Evil One
<div class="sp-wrap">
<div class="sp-head folded">log</div>
<div class="sp-body">EAC Auslese-Logdatei vom 4. Mдrz 2005, 14:42 fьr CD
John Zorn / Filmworks IV: S/M + More

Benutztes Laufwerk : _NEC DVD_RW ND-2500A Adapter: 1 ID: 0
Lesemodus : Sicher mit KEINEM C2, Accurate Stream, Puffer abgeschaltet
Leseoffset Korrektur : 48
Ьberlesen in das Lead-In und Lead-Out : Nein

Benutztes Ausgabeformat : C:\Programme\eac095pb5\wapet.exe (Benutzerdefinierter Komprimierer)
192 kBit/s
Zusдtzliche Kommandozeilenoptionen : %d -t "Artist=%a" -t "Title=%t" -t "Album=%g" -t "Year=%y" -t "Track=%n" -t "Genre=%m" -t "Comment=EAC Mac3.97f -ehlc" C:\Programme\eac095pb5\mac.exe %s %d -c4000

Andere Einstellungen :
Fьlle fehlende Offsetsample mit Stille auf : Nein
Lцsche fьhrende und nachfolgende stille Blцcke : Nein
Natьrliche Win32 Schnittstelle fьr Win NT/2000/XP

Track 1
Dateiname C:\Dokumente und Einstellungen\funz\Eigene Dateien\Chris\John Zorn--Filmworks IV- S,M + More\01-John_Zorn-Pueblo.wav

Spitzenpegel 94.8 %
Track Qualitдt 100.0 %
Kopie CRC 07B2E047
Kopie OK

Track 2
Dateiname C:\Dokumente und Einstellungen\funz\Eigene Dateien\Chris\John Zorn--Filmworks IV- S,M + More\02-John_Zorn-Elegant_Spanking_(Suite).wav

Spitzenpegel 90.7 %
Track Qualitдt 100.0 %
Kopie CRC B0CB81F0
Kopie OK

Track 3
Dateiname C:\Dokumente und Einstellungen\funz\Eigene Dateien\Chris\John Zorn--Filmworks IV- S,M + More\03-John_Zorn-Credits_Included_(a._politics,_b._asylum).wav

Spitzenpegel 98.8 %
Track Qualitдt 100.0 %
Kopie CRC 49E1F628
Kopie OK

Track 4
Dateiname C:\Dokumente und Einstellungen\funz\Eigene Dateien\Chris\John Zorn--Filmworks IV- S,M + More\04-John_Zorn-Maogai_(a._suite,_b._variations).wav

Spitzenpegel 40.0 %
Track Qualitдt 99.9 %
Kopie CRC 4FFCEC5C
Kopie OK

Track 5
Dateiname C:\Dokumente und Einstellungen\funz\Eigene Dateien\Chris\John Zorn--Filmworks IV- S,M + More\05-John_Zorn-A_Lot_of_Fun_for_the_Evil_One.wav

Spitzenpegel 98.8 %
Track Qualitдt 99.9 %
Kopie CRC 49B7E7A3
Kopie OK

Keine Fehler aufgetreten

Ende des Statusreports
</div>
</div>
Personnel:
Cyro Baptista: Percussion
Robert Quine: Guitar
Marc Ribot: Guitar
John Zorn: Alto Saxophone, Prepared Piano, Samples
--------------------------------------------------------------------
1. Factor
2. Intercept
3. Lemma Root
4. Net
5. Lie Group
6. Reduction
7. Trisectrix of Maclaurin
8. Interpolation
9. Gradients
10. Random Walk
11. Cusp
12. Region
13. Block
14. Prediction
15. Concordance
16. Modulus
17. Addition
18. Ergodicity
19. Prism
20. Mean Difference
21. Likelihood
22. Deviation
23. Curl
24. Probably Error
25. Limit
26. Youden Square
27. Tensor
28. Mantingale
29. Tantochrone
30. Witch of Agnesi
31. Rank
32. Quadrature
33. Discriminant
34. Rose Curve
35. Lituus
36. Involute
37. Catearies
38. Folium
39. Edge Train
40. Ruled Surface
41. Slope
42. Cluster
43. Spiral
44. Octal
45. Cissoid Of Dicoles
46. Arc
47. Pole
Personnel:
Cyro Baptista: Percussion
Greg Cohen: Bass
Mark Feldman: Violin
Erik Friedlander: Cello
Ikue Mori: Drum Machines
Marc Ribot: Guitar
John Zorn: Alto Saxophone, Sound Effects
-----------------------------------------------------
1. Opening Credits/Hawaiian Postcard
2. Work-a-day World (Anton's Theme)
3. Seductress End Titles
4. Fireworks
5. Surgery Montage
6. Brain Scan
7. Witches' Cauldron
8. Houdini
9. Subliminal Perceptions
10. Measuring
11. Macbeth
12. Pendulum
13. Mechanics of the Brain
14. Part One (Hot)
15. Part Two (Cool)
Personnel:
John Zorn: Arranger, Composer
Cyro Baptista: Brazilian Percussion
Kermit Driscoll: Acoustic And Electric Bass
Carol Emanuel: Harp
Bill Frisell: Banjo, Electric Guitar
David Hofstra: Acoustic And Electric Bass
Wayne Horvitz: Keyboards
Jill Jaffe: Viola, Violin
Kiriko Kubo: Vocal
Arto Lindsay: Electric Guitar
Christian Marclay: Turntables
Ikue Mori: Drum Machine
Maxine Neuman: Cello
Bobby Previte: Percussion, Drums
Robert Quine: Electric Guitar
Marc Ribot: Banjo, Electric Guitar
Peter Scherer: Keyboards
---------------------------------------------------
1. Hysteric Logo
2. Walk to Park
3. Coaster 2
4. Fighting Pirates
5. Yakisoba
6. Coaster Trip
7. 1st Hit/2nd Hit
8. Punk Rock Hero
9. Abacus Waltz
10. Punk Rebel
11. Tsunta's Theme
12. End Title
13. Through The Night
14. Home Sweet Home
15. Making Ramen at Midnight
16. Scary Moonlight
17. My Favorite Things
18. Omelet Punk
19. Classical
20. Stink of an Onion
21. Onion Samba
22. Omelet Punk
23. Me and My Hamburger/Final Samba
24. Surfing Samba
Personnel:
John Zorn: Composer, Arranger
Cyro Baptista: Percussion
Greg Cohen: Bass
Anthony Coleman: Piano
Mark Feldman: Violin
Erik Friedlander: Cello
Marc Ribot: Guitars
Kenny Wollesen: Drums, Vibraphone, Percussion
Min Xiao-Fen: Pipa
----------------------------------------------------------------
1. Teqiah
2. Shanghai
3. Emunim
4. Ruan (guitar version)
5. Ebionim
6. Ahavah
7. Ruan (pipa version)
8. Livant
9. Or Ne'erav
10. Shanim
11. Ruan (solo piano)
12. Deseo
13. Mentiras
14. Ansiedad
15. Locura
16. Sangre
17. Olvido
18. Engaño
19. Ilusion
20. Lagrimas
Personnel:
Cyro Baptista: Percussion
Erik Friedlander: Cello
Jamie Saft: Piano, Organ, Wurlitzer
John Zorn: Piano, Percussion
------------------------------------------------
1. Drifting 1
2. Dancing
3. Kiev 1
4. Teiji’s Time
5. Nostalgia 1
6. Filming
7. Mirror Worlds
8. Nightscape
9. Nostalgia 2
10. Haiti
11. Kiev 2
12. Voudoun
13. Drifting 2
14. Kiev 3
15. Drifting 3
Personnel:
Greg Cohen: Bass
Mark Feldman: Violin
Erik Friedlander: Cello
Jamie Saft: Piano
Vanessa Saft: Voice
--------------------------------
1. Yesoma (vocal)
2. Shabbes Noir (pizz, arco)
3. Tension
4. Hatzalah
5. Brachas (edit)
6. Chazal
7. Ba’adinot (pizz)
8. Drama
9. Yesoma (vibe)
10. Darkly
11. Kavana
12. The Trap
13. Ba’adinot (arco)
14. Armistice Swing
15. Shabbes Noir
16. Motzee
17. Interlude
18. Yesoma (pizz)
19. Ba’adinot (solo)
20. Shabbes Noir (fast)
21. Yesoma (cello)
Personnel:
Cyro Baptista: Percussion
Jennifer Charles: Voice
Trevor Dunn: Bass
Mark Feldman: Violin
Erik Friedlander: Cello
Marc Ribot: Guitar
Roberto Rodriguez: Percussion
Jamie Saft: Wurlitzer Piano
Min Xiao-Fen: Pipa
John Zorn: Organ, Glass Harmonica, Wurlitzer Piano
-------------------------------------------------------------------
1. Vocal Phase
2. The Lips at Sway
3. The Well Tuned Harmonica
4. Dance Piece
5. Midnight Flight
6. Chippy Charm
7. Shaolin Spirit
8. Bamboo Forest
9. Shaolin Ulysses
10. Shaolin Bossa
11. Travelling West
12. Temple Song
13. Shaolin Family
14. Nostalgia
15. Shaolin Mambo
16. Transition
17. Shaolin Bossa (fast)
18. Vegas
19. Kung Fu Percussion
20. Shaolin Spirit (duo)
21. Shaolin Bossa Vibe
22. Shaolin Dream
23. Shaolin Ulysses (end titles)
24. Family Found (vocal)
25. Family Found (solo arco)
26. Family Found (solo pizz)
27. Family Found (cello)
Personnel:
Cyro Baptista: Percussion
Shanir Ezra Blumenkranz: Bass, Oud
John Zorn: Electric Pianos
---------------------------------------
1. Protocols of Zion
2. Searching for a Past
3. Jew Watcher
4. Mystery of the Jew
5. History Repeats Itself
6. Arab and Jew
7. Fighting Time
8. Hollywood/Rikers
9. Elders of Zion
10. A Dark Future
11. Transition 1
12. Transition 2
13. Transition 3
14. Transition 4
15. Coda - the metaphysics of anti-semitism
Personnel:
Cyro Baptista: Percussion
Shanir Ezra Blumenkranz: Bass
Jon Madof: Guitar
Kenny Wollesen: Drums, Percussion
John Zorn: Wurlitzer Piano, African Thumb Pianos
--------------------------------------------------------------
1. Menken
2. Skull I
3. Glimpses
4. Mood Mondrian
5. Skull II
6. Gogogo
7. Moonplay
8. Skull III
9. Tango Exotique
10. Zenscapes
11. Skull IV
12. Arabesque
13. Skull V
14. Bolex Dancing
Personnel:
Shanir Ezra Blumenkranz: Bass
Rob Burger: Accordion
Mark Feldman: Violin
Kenny Wollesen: Vibraphone
Special Guest
Marc Ribot: Guitar
----------------------------------------
1. The Treatment
2. Romance
3. Why Me?
4. Family
5. Marking Time
6. Anxieties
7. Freud's Rondo
8. Totem and Taboo
9. Rush Hour
10. Bad Dreams
11. Uncertainty
12. Happy Ending
Personnel:
Greg Cohen: Bass
Erik Friedlander: Cello
Rob Burger: Piano
----------------------------------
1. Tears of Morning
2. The Stallion
3. Tree of Life
4. Wedding of Wild Horses
5. Forests in the Mist
6. Dance Exotique
7. Bird in the Mist
8. Parable of Job
9. Encounter
10. The Rain Horse
11. End Credits
EAC Auslese-Logdatei vom 4. Mдrz 2005, 1:59 fьr CD
John Zorn / Film Works V - Tears of Ecstasy

Benutztes Laufwerk : _NEC DVD_RW ND-2500A Adapter: 1 ID: 0
Lesemodus : Sicher mit KEINEM C2, Accurate Stream, Puffer abgeschaltet
Leseoffset Korrektur : 48
Ьberlesen in das Lead-In und Lead-Out : Nein

Benutztes Ausgabeformat : C:\Programme\eac095pb5\wapet.exe (Benutzerdefinierter Komprimierer)
192 kBit/s
Zusдtzliche Kommandozeilenoptionen : %d -t "Artist=%a" -t "Title=%t" -t "Album=%g" -t "Year=%y" -t "Track=%n" -t "Genre=%m" -t "Comment=EAC Mac3.97f -ehlc" C:\Programme\eac095pb5\mac.exe %s %d -c4000

Andere Einstellungen :
Fьlle fehlende Offsetsample mit Stille auf : Nein
Lцsche fьhrende und nachfolgende stille Blцcke : Nein
Natьrliche Win32 Schnittstelle fьr Win NT/2000/XP

Track 1
Dateiname C:\Dokumente und Einstellungen\funz\Eigene Dateien\Chris\John Zorn--Film Works V - Tears of Ecstasy\01-John_Zorn-Factor.wav

Spitzenpegel 98.8 %
Track Qualitдt 100.0 %
Test CRC 2AEBD8D7
Kopie CRC 2AEBD8D7
Kopie OK

Track 2
Dateiname C:\Dokumente und Einstellungen\funz\Eigene Dateien\Chris\John Zorn--Film Works V - Tears of Ecstasy\02-John_Zorn-Intercept.wav

Spitzenpegel 98.8 %
Track Qualitдt 99.8 %
Test CRC 1E80271F
Kopie CRC 1E80271F
Kopie OK

Track 3
Dateiname C:\Dokumente und Einstellungen\funz\Eigene Dateien\Chris\John Zorn--Film Works V - Tears of Ecstasy\03-John_Zorn-Lemma.wav

Spitzenpegel 98.8 %
Track Qualitдt 100.0 %
Test CRC C0D13D87
Kopie CRC C0D13D87
Kopie OK

Track 4
Dateiname C:\Dokumente und Einstellungen\funz\Eigene Dateien\Chris\John Zorn--Film Works V - Tears of Ecstasy\04-John_Zorn-Root.wav

Spitzenpegel 98.8 %
Track Qualitдt 100.0 %
Test CRC CD434E2F
Kopie CRC CD434E2F
Kopie OK

Track 5
Dateiname C:\Dokumente und Einstellungen\funz\Eigene Dateien\Chris\John Zorn--Film Works V - Tears of Ecstasy\05-John_Zorn-Net.wav

Spitzenpegel 98.8 %
Track Qualitдt 100.0 %
Test CRC F61135F7
Kopie CRC F61135F7
Kopie OK

Track 6
Dateiname C:\Dokumente und Einstellungen\funz\Eigene Dateien\Chris\John Zorn--Film Works V - Tears of Ecstasy\06-John_Zorn-Lie_Group.wav

Spitzenpegel 88.0 %
Track Qualitдt 99.8 %
Test CRC ACF54467
Kopie CRC ACF54467
Kopie OK

Track 7
Dateiname C:\Dokumente und Einstellungen\funz\Eigene Dateien\Chris\John Zorn--Film Works V - Tears of Ecstasy\07-John_Zorn-Reduction.wav

Spitzenpegel 98.8 %
Track Qualitдt 100.0 %
Test CRC 124E82A8
Kopie CRC 124E82A8
Kopie OK

Track 8
Dateiname C:\Dokumente und Einstellungen\funz\Eigene Dateien\Chris\John Zorn--Film Works V - Tears of Ecstasy\08-John_Zorn-Trisectrix_of_Maclaurin.wav

Spitzenpegel 98.8 %
Track Qualitдt 100.0 %
Test CRC 34899D4C
Kopie CRC 34899D4C
Kopie OK

Track 9
Dateiname C:\Dokumente und Einstellungen\funz\Eigene Dateien\Chris\John Zorn--Film Works V - Tears of Ecstasy\09-John_Zorn-Interpolation.wav

Spitzenpegel 98.8 %
Track Qualitдt 100.0 %
Test CRC F1C5CD70
Kopie CRC F1C5CD70
Kopie OK

Track 10
Dateiname C:\Dokumente und Einstellungen\funz\Eigene Dateien\Chris\John Zorn--Film Works V - Tears of Ecstasy\10-John_Zorn-Gradients.wav

Spitzenpegel 98.8 %
Track Qualitдt 100.0 %
Test CRC 87D58D05
Kopie CRC 87D58D05
Kopie OK

Track 11
Dateiname C:\Dokumente und Einstellungen\funz\Eigene Dateien\Chris\John Zorn--Film Works V - Tears of Ecstasy\11-John_Zorn-Random_Walk.wav

Spitzenpegel 98.8 %
Track Qualitдt 100.0 %
Test CRC 0DCC2685
Kopie CRC 0DCC2685
Kopie OK

Track 12
Dateiname C:\Dokumente und Einstellungen\funz\Eigene Dateien\Chris\John Zorn--Film Works V - Tears of Ecstasy\12-John_Zorn-Cusp.wav

Spitzenpegel 98.8 %
Track Qualitдt 99.8 %
Test CRC 66387092
Kopie CRC 66387092
Kopie OK

Track 13
Dateiname C:\Dokumente und Einstellungen\funz\Eigene Dateien\Chris\John Zorn--Film Works V - Tears of Ecstasy\13-John_Zorn-Region.wav

Spitzenpegel 78.9 %
Track Qualitдt 100.0 %
Test CRC 4479979E
Kopie CRC 4479979E
Kopie OK

Track 14
Dateiname C:\Dokumente und Einstellungen\funz\Eigene Dateien\Chris\John Zorn--Film Works V - Tears of Ecstasy\14-John_Zorn-Block.wav

Spitzenpegel 98.8 %
Track Qualitдt 100.0 %
Test CRC A40AE2FB
Kopie CRC A40AE2FB
Kopie OK

Track 15
Dateiname C:\Dokumente und Einstellungen\funz\Eigene Dateien\Chris\John Zorn--Film Works V - Tears of Ecstasy\15-John_Zorn-Prediction.wav

Spitzenpegel 98.8 %
Track Qualitдt 100.0 %
Test CRC 0315C588
Kopie CRC 0315C588
Kopie OK

Track 16
Dateiname C:\Dokumente und Einstellungen\funz\Eigene Dateien\Chris\John Zorn--Film Works V - Tears of Ecstasy\16-John_Zorn-Concordance.wav

Spitzenpegel 98.8 %
Track Qualitдt 100.0 %
Test CRC 13C86E91
Kopie CRC 13C86E91
Kopie OK

Track 17
Dateiname C:\Dokumente und Einstellungen\funz\Eigene Dateien\Chris\John Zorn--Film Works V - Tears of Ecstasy\17-John_Zorn-Modulus.wav

Spitzenpegel 98.8 %
Track Qualitдt 100.0 %
Test CRC BC92000E
Kopie CRC BC92000E
Kopie OK

Track 18
Dateiname C:\Dokumente und Einstellungen\funz\Eigene Dateien\Chris\John Zorn--Film Works V - Tears of Ecstasy\18-John_Zorn-Addition.wav

Spitzenpegel 98.8 %
Track Qualitдt 99.8 %
Test CRC A04DB983
Kopie CRC A04DB983
Kopie OK

Track 19
Dateiname C:\Dokumente und Einstellungen\funz\Eigene Dateien\Chris\John Zorn--Film Works V - Tears of Ecstasy\19-John_Zorn-Ergodicity.wav

Spitzenpegel 58.4 %
Track Qualitдt 100.0 %
Test CRC CF94FDCF
Kopie CRC CF94FDCF
Kopie OK

Track 20
Dateiname C:\Dokumente und Einstellungen\funz\Eigene Dateien\Chris\John Zorn--Film Works V - Tears of Ecstasy\20-John_Zorn-Prism.wav

Spitzenpegel 98.8 %
Track Qualitдt 100.0 %
Test CRC AC08FEB1
Kopie CRC AC08FEB1
Kopie OK

Track 21
Dateiname C:\Dokumente und Einstellungen\funz\Eigene Dateien\Chris\John Zorn--Film Works V - Tears of Ecstasy\21-John_Zorn-Mean_Difference.wav

Spitzenpegel 98.8 %
Track Qualitдt 100.0 %
Test CRC 10D7BB9E
Kopie CRC 10D7BB9E
Kopie OK

Track 22
Dateiname C:\Dokumente und Einstellungen\funz\Eigene Dateien\Chris\John Zorn--Film Works V - Tears of Ecstasy\22-John_Zorn-Likelihood.wav

Spitzenpegel 98.8 %
Track Qualitдt 100.0 %
Test CRC 939D63CF
Kopie CRC 939D63CF
Kopie OK

Track 23
Dateiname C:\Dokumente und Einstellungen\funz\Eigene Dateien\Chris\John Zorn--Film Works V - Tears of Ecstasy\23-John_Zorn-Deviation.wav

Spitzenpegel 15.7 %
Track Qualitдt 100.0 %
Test CRC 6FB67CC1
Kopie CRC 6FB67CC1
Kopie OK

Track 24
Dateiname C:\Dokumente und Einstellungen\funz\Eigene Dateien\Chris\John Zorn--Film Works V - Tears of Ecstasy\24-John_Zorn-Curl.wav

Spitzenpegel 98.8 %
Track Qualitдt 99.8 %
Test CRC 8F0E3752
Kopie CRC 8F0E3752
Kopie OK

Track 25
Dateiname C:\Dokumente und Einstellungen\funz\Eigene Dateien\Chris\John Zorn--Film Works V - Tears of Ecstasy\25-John_Zorn-Probable_Error.wav

Spitzenpegel 98.8 %
Track Qualitдt 99.8 %
Test CRC C7565A8B
Kopie CRC C7565A8B
Kopie OK

Track 26
Dateiname C:\Dokumente und Einstellungen\funz\Eigene Dateien\Chris\John Zorn--Film Works V - Tears of Ecstasy\26-John_Zorn-Limit.wav

Spitzenpegel 98.8 %
Track Qualitдt 100.0 %
Test CRC 90FC5D9C
Kopie CRC 90FC5D9C
Kopie OK

Track 27
Dateiname C:\Dokumente und Einstellungen\funz\Eigene Dateien\Chris\John Zorn--Film Works V - Tears of Ecstasy\27-John_Zorn-Youden_Square.wav

Spitzenpegel 93.7 %
Track Qualitдt 100.0 %
Test CRC C640C053
Kopie CRC C640C053
Kopie OK

Track 28
Dateiname C:\Dokumente und Einstellungen\funz\Eigene Dateien\Chris\John Zorn--Film Works V - Tears of Ecstasy\28-John_Zorn-Tensor.wav

Spitzenpegel 75.8 %
Track Qualitдt 100.0 %
Test CRC 3AA055FF
Kopie CRC 3AA055FF
Kopie OK

Track 29
Dateiname C:\Dokumente und Einstellungen\funz\Eigene Dateien\Chris\John Zorn--Film Works V - Tears of Ecstasy\29-John_Zorn-Martingale.wav

Spitzenpegel 88.5 %
Track Qualitдt 100.0 %
Test CRC 32B57CA3
Kopie CRC 3C506E8D
Kopie OK

Track 30
Dateiname C:\Dokumente und Einstellungen\funz\Eigene Dateien\Chris\John Zorn--Film Works V - Tears of Ecstasy\30-John_Zorn-Tantochrone.wav

Spitzenpegel 98.8 %
Track Qualitдt 99.8 %
Test CRC A13A8BE4
Kopie CRC 48B4E082
Kopie OK

Track 31
Dateiname C:\Dokumente und Einstellungen\funz\Eigene Dateien\Chris\John Zorn--Film Works V - Tears of Ecstasy\31-John_Zorn-Witch_of_Agnesi.wav

Spitzenpegel 98.8 %
Track Qualitдt 100.0 %
Test CRC CD918451
Kopie CRC CD918451
Kopie OK

Track 32
Dateiname C:\Dokumente und Einstellungen\funz\Eigene Dateien\Chris\John Zorn--Film Works V - Tears of Ecstasy\32-John_Zorn-Rank.wav

Spitzenpegel 98.8 %
Track Qualitдt 100.0 %
Test CRC E4AD7D19
Kopie CRC E4AD7D19
Kopie OK

Track 33
Dateiname C:\Dokumente und Einstellungen\funz\Eigene Dateien\Chris\John Zorn--Film Works V - Tears of Ecstasy\33-John_Zorn-Quadrature.wav

Spitzenpegel 72.4 %
Track Qualitдt 100.0 %
Test CRC 6C284D2A
Kopie CRC 6C284D2A
Kopie OK

Track 34
Dateiname C:\Dokumente und Einstellungen\funz\Eigene Dateien\Chris\John Zorn--Film Works V - Tears of Ecstasy\34-John_Zorn-Discriminant.wav

Spitzenpegel 98.8 %
Track Qualitдt 100.0 %
Test CRC 8CA9C4FF
Kopie CRC 8CA9C4FF
Kopie OK

Track 35
Dateiname C:\Dokumente und Einstellungen\funz\Eigene Dateien\Chris\John Zorn--Film Works V - Tears of Ecstasy\35-John_Zorn-Rose_Curve.wav

Spitzenpegel 98.8 %
Track Qualitдt 99.8 %
Test CRC F3F32784
Kopie CRC F3F32784
Kopie OK

Track 36
Dateiname C:\Dokumente und Einstellungen\funz\Eigene Dateien\Chris\John Zorn--Film Works V - Tears of Ecstasy\36-John_Zorn-Lituus.wav

Spitzenpegel 98.8 %
Track Qualitдt 100.0 %
Test CRC 9C7C017F
Kopie CRC 9C7C017F
Kopie OK

Track 37
Dateiname C:\Dokumente und Einstellungen\funz\Eigene Dateien\Chris\John Zorn--Film Works V - Tears of Ecstasy\37-John_Zorn-Involute.wav

Spitzenpegel 90.2 %
Track Qualitдt 99.8 %
Test CRC 1B059E7B
Kopie CRC 1B059E7B
Kopie OK

Track 38
Dateiname C:\Dokumente und Einstellungen\funz\Eigene Dateien\Chris\John Zorn--Film Works V - Tears of Ecstasy\38-John_Zorn-Catearies.wav

Spitzenpegel 97.2 %
Track Qualitдt 100.0 %
Test CRC 0BE8A13D
Kopie CRC 0BE8A13D
Kopie OK

Track 39
Dateiname C:\Dokumente und Einstellungen\funz\Eigene Dateien\Chris\John Zorn--Film Works V - Tears of Ecstasy\39-John_Zorn-Folium.wav

Spitzenpegel 98.8 %
Track Qualitдt 100.0 %
Test CRC 10ACF31F
Kopie CRC 10ACF31F
Kopie OK

Track 40
Dateiname C:\Dokumente und Einstellungen\funz\Eigene Dateien\Chris\John Zorn--Film Works V - Tears of Ecstasy\40-John_Zorn-Edge_Train.wav

Spitzenpegel 98.8 %
Track Qualitдt 100.0 %
Test CRC DEC7BD1E
Kopie CRC DEC7BD1E
Kopie OK

Track 41
Dateiname C:\Dokumente und Einstellungen\funz\Eigene Dateien\Chris\John Zorn--Film Works V - Tears of Ecstasy\41-John_Zorn-Ruled_Surface.wav

Spitzenpegel 98.8 %
Track Qualitдt 100.0 %
Test CRC 635C017F
Kopie CRC 635C017F
Kopie OK

Track 42
Dateiname C:\Dokumente und Einstellungen\funz\Eigene Dateien\Chris\John Zorn--Film Works V - Tears of Ecstasy\42-John_Zorn-Slope.wav

Spitzenpegel 98.8 %
Track Qualitдt 100.0 %
Test CRC 4FBB9B2C
Kopie CRC 4FBB9B2C
Kopie OK

Track 43
Dateiname C:\Dokumente und Einstellungen\funz\Eigene Dateien\Chris\John Zorn--Film Works V - Tears of Ecstasy\43-John_Zorn-Cluster.wav

Spitzenpegel 44.1 %
Track Qualitдt 100.0 %
Test CRC 5A1ED45A
Kopie CRC 5A1ED45A
Kopie OK

Track 44
Dateiname C:\Dokumente und Einstellungen\funz\Eigene Dateien\Chris\John Zorn--Film Works V - Tears of Ecstasy\44-John_Zorn-Spiral.wav

Spitzenpegel 98.8 %
Track Qualitдt 99.7 %
Test CRC 5D08DDFD
Kopie CRC 5D08DDFD
Kopie OK

Track 45
Dateiname C:\Dokumente und Einstellungen\funz\Eigene Dateien\Chris\John Zorn--Film Works V - Tears of Ecstasy\45-John_Zorn-Octal.wav

Spitzenpegel 84.2 %
Track Qualitдt 100.0 %
Test CRC 0866B88E
Kopie CRC 0866B88E
Kopie OK

Track 46
Dateiname C:\Dokumente und Einstellungen\funz\Eigene Dateien\Chris\John Zorn--Film Works V - Tears of Ecstasy\46-John_Zorn-Cissoid_of_Diocles.wav

Spitzenpegel 97.6 %
Track Qualitдt 100.0 %
Test CRC 0EDCF0A7
Kopie CRC 0EDCF0A7
Kopie OK

Track 47
Dateiname C:\Dokumente und Einstellungen\funz\Eigene Dateien\Chris\John Zorn--Film Works V - Tears of Ecstasy\47-John_Zorn-Arc.wav

Spitzenpegel 98.8 %
Track Qualitдt 100.0 %
Test CRC A1423D24
Kopie CRC A1423D24
Kopie OK

Track 48
Dateiname C:\Dokumente und Einstellungen\funz\Eigene Dateien\Chris\John Zorn--Film Works V - Tears of Ecstasy\48-John_Zorn-Pole.wav

Spitzenpegel 98.8 %
Track Qualitдt 100.0 %
Test CRC F01C4B4D
Kopie CRC F01C4B4D
Kopie OK

Keine Fehler aufgetreten

Ende des Statusreports
------------------------------------------------------------------
EAC Auslese-Logdatei vom 4. Mдrz 2005, 0:53 fьr CD
John Zorn / Filmworks VI

Benutztes Laufwerk : _NEC DVD_RW ND-2500A Adapter: 1 ID: 0
Lesemodus : Sicher mit KEINEM C2, Accurate Stream, Puffer abgeschaltet
Leseoffset Korrektur : 48
Ьberlesen in das Lead-In und Lead-Out : Nein

Benutztes Ausgabeformat : C:\Programme\eac095pb5\wapet.exe (Benutzerdefinierter Komprimierer)
192 kBit/s
Zusдtzliche Kommandozeilenoptionen : %d -t "Artist=%a" -t "Title=%t" -t "Album=%g" -t "Year=%y" -t "Track=%n" -t "Genre=%m" -t "Comment=EAC Mac3.97f -ehlc" C:\Programme\eac095pb5\mac.exe %s %d -c4000

Andere Einstellungen :
Fьlle fehlende Offsetsample mit Stille auf : Nein
Lцsche fьhrende und nachfolgende stille Blцcke : Nein
Natьrliche Win32 Schnittstelle fьr Win NT/2000/XP

Track 1
Dateiname C:\Dokumente und Einstellungen\funz\Eigene Dateien\Chris\John Zorn--Filmworks VI\01-John_Zorn-Opening_Credits_,_Hawaiian_Postcard.wav

Spitzenpegel 98.8 %
Track Qualitдt 100.0 %
Test CRC E70C039C
Kopie CRC E70C039C
Kopie OK

Track 2
Dateiname C:\Dokumente und Einstellungen\funz\Eigene Dateien\Chris\John Zorn--Filmworks VI\02-John_Zorn-Work-a-Day_World_(Anton's_Theme).wav

Spitzenpegel 98.8 %
Track Qualitдt 100.0 %
Test CRC E8665280
Kopie CRC E8665280
Kopie OK

Track 3
Dateiname C:\Dokumente und Einstellungen\funz\Eigene Dateien\Chris\John Zorn--Filmworks VI\03-John_Zorn-Seductress.wav

Spitzenpegel 98.8 %
Track Qualitдt 100.0 %
Test CRC 697BA6D0
Kopie CRC 697BA6D0
Kopie OK

Track 4
Dateiname C:\Dokumente und Einstellungen\funz\Eigene Dateien\Chris\John Zorn--Filmworks VI\04-John_Zorn-End_Titles.wav

Spitzenpegel 98.8 %
Track Qualitдt 100.0 %
Test CRC F46689D9
Kopie CRC F46689D9
Kopie OK

Track 5
Dateiname C:\Dokumente und Einstellungen\funz\Eigene Dateien\Chris\John Zorn--Filmworks VI\05-John_Zorn-Fireworks.wav

Spitzenpegel 98.8 %
Track Qualitдt 100.0 %
Test CRC A726CEE8
Kopie CRC A726CEE8
Kopie OK

Track 6
Dateiname C:\Dokumente und Einstellungen\funz\Eigene Dateien\Chris\John Zorn--Filmworks VI\06-John_Zorn-Surgery_Montage.wav

Spitzenpegel 78.5 %
Track Qualitдt 100.0 %
Test CRC D670635E
Kopie CRC D670635E
Kopie OK

Track 7
Dateiname C:\Dokumente und Einstellungen\funz\Eigene Dateien\Chris\John Zorn--Filmworks VI\07-John_Zorn-Brain-Scan.wav

Spitzenpegel 74.9 %
Track Qualitдt 100.0 %
Test CRC D18B2CDD
Kopie CRC D18B2CDD
Kopie OK

Track 8
Dateiname C:\Dokumente und Einstellungen\funz\Eigene Dateien\Chris\John Zorn--Filmworks VI\08-John_Zorn-Witches'_Cauldron.wav

Spitzenpegel 58.8 %
Track Qualitдt 100.0 %
Test CRC 299C0901
Kopie CRC 299C0901
Kopie OK

Track 9
Dateiname C:\Dokumente und Einstellungen\funz\Eigene Dateien\Chris\John Zorn--Filmworks VI\09-John_Zorn-Houdini.wav

Spitzenpegel 98.8 %
Track Qualitдt 100.0 %
Test CRC DD40FB2B
Kopie CRC DD40FB2B
Kopie OK

Track 10
Dateiname C:\Dokumente und Einstellungen\funz\Eigene Dateien\Chris\John Zorn--Filmworks VI\10-John_Zorn-Subliminal_Perceptions.wav

Spitzenpegel 98.8 %
Track Qualitдt 100.0 %
Test CRC FD329119
Kopie CRC FD329119
Kopie OK

Track 11
Dateiname C:\Dokumente und Einstellungen\funz\Eigene Dateien\Chris\John Zorn--Filmworks VI\11-John_Zorn-Measuring.wav

Spitzenpegel 98.8 %
Track Qualitдt 100.0 %
Test CRC 300E8291
Kopie CRC 300E8291
Kopie OK

Track 12
Dateiname C:\Dokumente und Einstellungen\funz\Eigene Dateien\Chris\John Zorn--Filmworks VI\12-John_Zorn-Macbeth.wav

Spitzenpegel 77.1 %
Track Qualitдt 99.9 %
Test CRC DE641BC1
Kopie CRC DE641BC1
Kopie OK

Track 13
Dateiname C:\Dokumente und Einstellungen\funz\Eigene Dateien\Chris\John Zorn--Filmworks VI\13-John_Zorn-Pendulum.wav

Spitzenpegel 97.7 %
Track Qualitдt 99.9 %
Test CRC BA8E36ED
Kopie CRC BA8E36ED
Kopie OK

Track 14
Dateiname C:\Dokumente und Einstellungen\funz\Eigene Dateien\Chris\John Zorn--Filmworks VI\14-John_Zorn-Mechanics_of_the_Brain.wav

Spitzenpegel 97.7 %
Track Qualitдt 100.0 %
Test CRC 696B62F6
Kopie CRC 696B62F6
Kopie OK

Track 15
Dateiname C:\Dokumente und Einstellungen\funz\Eigene Dateien\Chris\John Zorn--Filmworks VI\15-John_Zorn-Part_One_(Hot).wav

Spitzenpegel 98.8 %
Track Qualitдt 100.0 %
Test CRC 7B61D5E7
Kopie CRC 7B61D5E7
Kopie OK

Track 16
Dateiname C:\Dokumente und Einstellungen\funz\Eigene Dateien\Chris\John Zorn--Filmworks VI\16-John_Zorn-Part_Two_(Cool).wav

Spitzenpegel 48.8 %
Track Qualitдt 100.0 %
Test CRC 9D4808E6
Kopie CRC 9D4808E6
Kopie OK

Keine Fehler aufgetreten

Ende des Statusreports
---------------------------------------------------------
EAC extraction logfile from 13. January 2007, 19:09 for CD
John Zorn / Filmworks 07 Cynical Hysterie Hour

Used drive : HL-DT-STDVD-ROM GDR8163B Adapter: 1 ID: 1
Read mode : Secure with NO C2, accurate stream, disable cache
Read offset correction : 0
Overread into Lead-In and Lead-Out : Yes

Used output format : Internal WAV Routines
44.100 Hz; 16 Bit; Stereo

Other options :
Fill up missing offset samples with silence : Yes
Delete leading and trailing silent blocks : No
Installed external ASPI interface

Track 1
Filename G:\123\John Zorn - Filmworks 07 Cynical Hysterie Hour (1997)\01 - Hysteric Logo.wav

Peak level 97.7 %
Track quality 99.5 %
Copy CRC B83C7318
Copy OK

Track 2
Filename G:\123\John Zorn - Filmworks 07 Cynical Hysterie Hour (1997)\02 - Walk To Park.wav

Peak level 98.8 %
Track quality 99.9 %
Copy CRC 1E6680EE
Copy OK

Track 3
Filename G:\123\John Zorn - Filmworks 07 Cynical Hysterie Hour (1997)\03 - Coaster 2.wav

Peak level 98.8 %
Track quality 99.7 %
Copy CRC F091823B
Copy OK

Track 4
Filename G:\123\John Zorn - Filmworks 07 Cynical Hysterie Hour (1997)\04 - Fighting Pirates.wav

Peak level 97.7 %
Track quality 100.0 %
Copy CRC F63B4382
Copy OK

Track 5
Filename G:\123\John Zorn - Filmworks 07 Cynical Hysterie Hour (1997)\05 - Yakisoba.wav

Peak level 98.8 %
Track quality 100.0 %
Copy CRC 793F8873
Copy OK

Track 6
Filename G:\123\John Zorn - Filmworks 07 Cynical Hysterie Hour (1997)\06 - Coaster Trip.wav

Peak level 97.7 %
Track quality 100.0 %
Copy CRC 40281A19
Copy OK

Track 7
Filename G:\123\John Zorn - Filmworks 07 Cynical Hysterie Hour (1997)\07 - 1st Hit , 2nd Hit.wav

Peak level 98.8 %
Track quality 100.0 %
Copy CRC 82AB51E3
Copy OK

Track 8
Filename G:\123\John Zorn - Filmworks 07 Cynical Hysterie Hour (1997)\08 - Punk Rock Hero.wav

Peak level 98.8 %
Track quality 100.0 %
Copy CRC A16E708D
Copy OK

Track 9
Filename G:\123\John Zorn - Filmworks 07 Cynical Hysterie Hour (1997)\09 - Abacus Waltz.wav

Peak level 64.5 %
Track quality 100.0 %
Copy CRC 3ADCE916
Copy OK

Track 10
Filename G:\123\John Zorn - Filmworks 07 Cynical Hysterie Hour (1997)\10 - Punk Rebel , Tsunta's Theme.wav

Peak level 97.7 %
Track quality 100.0 %
Copy CRC FB398D11
Copy OK

Track 11
Filename G:\123\John Zorn - Filmworks 07 Cynical Hysterie Hour (1997)\11 - End Title.wav

Peak level 71.1 %
Track quality 100.0 %
Copy CRC 416EED7C
Copy OK

Track 12
Filename G:\123\John Zorn - Filmworks 07 Cynical Hysterie Hour (1997)\12 - Through The Night.wav

Peak level 98.8 %
Track quality 100.0 %
Copy CRC 5C378E28
Copy OK

Track 13
Filename G:\123\John Zorn - Filmworks 07 Cynical Hysterie Hour (1997)\13 - Home Sweet Home.wav

Peak level 89.1 %
Track quality 100.0 %
Copy CRC 5FBC568C
Copy OK

Track 14
Filename G:\123\John Zorn - Filmworks 07 Cynical Hysterie Hour (1997)\14 - Making Ramen At Midnight.wav

Peak level 97.7 %
Track quality 100.0 %
Copy CRC DF8BC058
Copy OK

Track 15
Filename G:\123\John Zorn - Filmworks 07 Cynical Hysterie Hour (1997)\15 - Scary Moonlight.wav

Peak level 91.6 %
Track quality 99.9 %
Copy CRC 1ED49DE7
Copy OK

Track 16
Filename G:\123\John Zorn - Filmworks 07 Cynical Hysterie Hour (1997)\16 - My Favorite Things.wav

Peak level 98.8 %
Track quality 100.0 %
Copy CRC 638B3620
Copy OK

Track 17
Filename G:\123\John Zorn - Filmworks 07 Cynical Hysterie Hour (1997)\17 - Omelet Punk.wav

Peak level 98.8 %
Track quality 99.4 %
Copy CRC 08CB85DD
Copy OK

Track 18
Filename G:\123\John Zorn - Filmworks 07 Cynical Hysterie Hour (1997)\18 - Classical.wav

Peak level 95.5 %
Track quality 100.0 %
Copy CRC 14ABF187
Copy OK

Track 19
Filename G:\123\John Zorn - Filmworks 07 Cynical Hysterie Hour (1997)\19 - Stink Of An Onion.wav

Peak level 95.5 %
Track quality 100.0 %
Copy CRC C18A6BDC
Copy OK

Track 20
Filename G:\123\John Zorn - Filmworks 07 Cynical Hysterie Hour (1997)\20 - Onion Samba.wav

Peak level 98.8 %
Track quality 99.8 %
Copy CRC E442561C
Copy OK

Track 21
Filename G:\123\John Zorn - Filmworks 07 Cynical Hysterie Hour (1997)\21 - Omelet Punk 2.wav

Peak level 95.5 %
Track quality 100.0 %
Copy CRC 34629FEA
Copy OK

Track 22
Filename G:\123\John Zorn - Filmworks 07 Cynical Hysterie Hour (1997)\22 - Me And My Hamburger , Final Samba.wav

Peak level 98.8 %
Track quality 100.0 %
Copy CRC 352FAC3C
Copy OK

Track 23
Filename G:\123\John Zorn - Filmworks 07 Cynical Hysterie Hour (1997)\23 - Surfing Samba.wav

Peak level 97.7 %
Track quality 99.8 %
Copy CRC B379F360
Copy OK

No errors occured

End of status report
--------------------------------------------------------------
EAC extraction logfile from 15. February 2006, 18:07 for CD
John Zorn / Filmworks VIII 1997

Used drive : TSSTcorpCD-R/RW TS-H292A Adapter: 3 ID: 0
Read mode : Secure with NO C2, accurate stream, disable cache
Read offset correction : 0
Overread into Lead-In and Lead-Out : No

Used output format : C:\Program Files\Monkey's Audio\MAC.exe (Monkey's Audio Lossless Encoder)
High Lossless Compression

Other options :
Fill up missing offset samples with silence : Yes
Delete leading and trailing silent blocks : No
Installed external ASPI interface

Track 1
Filename D:\slsk\John Zorn - Filmworks VIII 1997 (1998)\John Zorn - 01 - Teqiah.wav

Peak level 93.4 %
Track quality 99.9 %
Test CRC C21199F9
Copy CRC C21199F9
Copy OK

Track 2
Filename D:\slsk\John Zorn - Filmworks VIII 1997 (1998)\John Zorn - 02 - Shanghai.wav

Peak level 93.4 %
Track quality 100.0 %
Test CRC CB47EF2D
Copy CRC CB47EF2D
Copy OK

Track 3
Filename D:\slsk\John Zorn - Filmworks VIII 1997 (1998)\John Zorn - 03 - Emunim.wav

Peak level 94.1 %
Track quality 100.0 %
Test CRC 695F8A34
Copy CRC 695F8A34
Copy OK

Track 4
Filename D:\slsk\John Zorn - Filmworks VIII 1997 (1998)\John Zorn - 04 - Ruan - guitar version.wav

Peak level 93.2 %
Track quality 100.0 %
Test CRC D2BF1B6C
Copy CRC D2BF1B6C
Copy OK

Track 5
Filename D:\slsk\John Zorn - Filmworks VIII 1997 (1998)\John Zorn - 05 - Ebionim.wav

Peak level 93.7 %
Track quality 100.0 %
Test CRC DB32DB87
Copy CRC DB32DB87
Copy OK

Track 6
Filename D:\slsk\John Zorn - Filmworks VIII 1997 (1998)\John Zorn - 06 - Ahavah.wav

Peak level 66.4 %
Track quality 100.0 %
Test CRC 05FEA6C9
Copy CRC 05FEA6C9
Copy OK

Track 7
Filename D:\slsk\John Zorn - Filmworks VIII 1997 (1998)\John Zorn - 07 - Ruan - pipa version.wav

Peak level 99.7 %
Track quality 100.0 %
Test CRC E35E42E7
Copy CRC E35E42E7
Copy OK

Track 8
Filename D:\slsk\John Zorn - Filmworks VIII 1997 (1998)\John Zorn - 08 - Livant.wav

Peak level 93.3 %
Track quality 100.0 %
Test CRC 77280D7E
Copy CRC 77280D7E
Copy OK

Track 9
Filename D:\slsk\John Zorn - Filmworks VIII 1997 (1998)\John Zorn - 09 - Or Ne'erav.wav

Peak level 93.8 %
Track quality 100.0 %
Test CRC F6267B8A
Copy CRC F6267B8A
Copy OK

Track 10
Filename D:\slsk\John Zorn - Filmworks VIII 1997 (1998)\John Zorn - 10 - Shanim.wav

Peak level 91.0 %
Track quality 100.0 %
Test CRC C02A19D8
Copy CRC C02A19D8
Copy OK

Track 11
Filename D:\slsk\John Zorn - Filmworks VIII 1997 (1998)\John Zorn - 11 - Ruan - solo piano.wav

Peak level 93.7 %
Track quality 99.9 %
Test CRC E3B94E0B
Copy CRC E3B94E0B
Copy OK

Track 12
Filename D:\slsk\John Zorn - Filmworks VIII 1997 (1998)\John Zorn - 12 - Deseo.wav

Peak level 80.4 %
Track quality 100.0 %
Test CRC F786D4BF
Copy CRC F786D4BF
Copy OK

Track 13
Filename D:\slsk\John Zorn - Filmworks VIII 1997 (1998)\John Zorn - 13 - Mentiras.wav

Peak level 96.7 %
Track quality 100.0 %
Test CRC EFBAA4A8
Copy CRC EFBAA4A8
Copy OK

Track 14
Filename D:\slsk\John Zorn - Filmworks VIII 1997 (1998)\John Zorn - 14 - Ansiedad.wav

Peak level 80.7 %
Track quality 100.0 %
Test CRC CC9520A8
Copy CRC CC9520A8
Copy OK

Track 15
Filename D:\slsk\John Zorn - Filmworks VIII 1997 (1998)\John Zorn - 15 - Locura.wav

Peak level 62.9 %
Track quality 100.0 %
Test CRC 88D6EBFC
Copy CRC 88D6EBFC
Copy OK

Track 16
Filename D:\slsk\John Zorn - Filmworks VIII 1997 (1998)\John Zorn - 16 - Sangre.wav

Peak level 83.1 %
Track quality 99.8 %
Test CRC 0025E4C6
Copy CRC 0025E4C6
Copy OK

Track 17
Filename D:\slsk\John Zorn - Filmworks VIII 1997 (1998)\John Zorn - 17 - Olvido.wav

Peak level 86.9 %
Track quality 100.0 %
Test CRC 8823A467
Copy CRC 8823A467
Copy OK

Track 18
Filename D:\slsk\John Zorn - Filmworks VIII 1997 (1998)\John Zorn - 18 - Engaсo.wav

Peak level 78.7 %
Track quality 100.0 %
Test CRC 15A81897
Copy CRC 15A81897
Copy OK

Track 19
Filename D:\slsk\John Zorn - Filmworks VIII 1997 (1998)\John Zorn - 19 - Traiciуn.wav

Peak level 84.8 %
Track quality 99.9 %
Test CRC 7E9E09C4
Copy CRC 7E9E09C4
Copy OK

Track 20
Filename D:\slsk\John Zorn - Filmworks VIII 1997 (1998)\John Zorn - 20 - Ilusion.wav

Peak level 99.0 %
Track quality 99.9 %
Test CRC 8E939010
Copy CRC 8E939010
Copy OK

Track 21
Filename D:\slsk\John Zorn - Filmworks VIII 1997 (1998)\John Zorn - 21 - Lagrimas.wav

Peak level 46.9 %
Track quality 100.0 %
Test CRC 955FC069
Copy CRC 955FC069
Copy OK

No errors occured

End of status report
-------------------------------------------------------------------------
EAC extraction logfile from 19. February 2008, 19:31 for CD
John Zorn / Filmworks X

Used drive : TSSTcorpCD/DVDW SH-S183L Adapter: 3 ID: 1
Read mode : Secure with NO C2, accurate stream, disable cache
Read offset correction : 6
Overread into Lead-In and Lead-Out : No

Used output format : C:\Program Files\FLAC\flac.exe (User Defined Encoder)
128 kBit/s
Additional command line options : -V -8 -T "artist=%a" -T "title=%t" -T "album=%g" -T "date=%y" -T "tracknumber=%n" -T "genre=%m" %s

Other options :
Fill up missing offset samples with silence : Yes
Delete leading and trailing silent blocks : No
Installed external ASPI interface

Track 1
Filename D:\Torrents\up\John Zorn - Filmworks X (2001) [FLAC]\01 - Drifting 1.wav

Pre-gap length 0:00:02.00

Peak level 91.2 %
Track quality 100.0 %
Test CRC E196A64C
Copy CRC E196A64C
Copy OK

Track 2
Filename D:\Torrents\up\John Zorn - Filmworks X (2001) [FLAC]\02 - Dancing.wav

Peak level 69.7 %
Track quality 100.0 %
Test CRC C48A3E92
Copy CRC C48A3E92
Copy OK

Track 3
Filename D:\Torrents\up\John Zorn - Filmworks X (2001) [FLAC]\03 - Kiev 1 (piano).wav

Peak level 61.0 %
Track quality 100.0 %
Test CRC A7535ACA
Copy CRC A7535ACA
Copy OK

Track 4
Filename D:\Torrents\up\John Zorn - Filmworks X (2001) [FLAC]\04 - Teiji's Time.wav

Peak level 99.7 %
Track quality 100.0 %
Test CRC 7B5119CB
Copy CRC 7B5119CB
Copy OK

Track 5
Filename D:\Torrents\up\John Zorn - Filmworks X (2001) [FLAC]\05 - Nostalgia 1 (duo).wav

Peak level 84.3 %
Track quality 100.0 %
Test CRC F10D71BC
Copy CRC F10D71BC
Copy OK

Track 6
Filename D:\Torrents\up\John Zorn - Filmworks X (2001) [FLAC]\06 - Filming.wav

Peak level 53.0 %
Track quality 100.0 %
Test CRC 89EE4AD1
Copy CRC 89EE4AD1
Copy OK

Track 7
Filename D:\Torrents\up\John Zorn - Filmworks X (2001) [FLAC]\07 - Mirror Worlds.wav

Peak level 96.1 %
Track quality 100.0 %
Test CRC E0038553
Copy CRC E0038553
Copy OK

Track 8
Filename D:\Torrents\up\John Zorn - Filmworks X (2001) [FLAC]\08 - Nightscape.wav

Peak level 55.9 %
Track quality 100.0 %
Test CRC D7CED259
Copy CRC D7CED259
Copy OK

Track 9
Filename D:\Torrents\up\John Zorn - Filmworks X (2001) [FLAC]\09 - Nostalgia 2 (cello).wav

Peak level 75.8 %
Track quality 100.0 %
Test CRC 1AB847A9
Copy CRC 1AB847A9
Copy OK

Track 10
Filename D:\Torrents\up\John Zorn - Filmworks X (2001) [FLAC]\10 - Haiiti.wav

Peak level 99.1 %
Track quality 99.9 %
Test CRC 067B339F
Copy CRC 067B339F
Copy OK

Track 11
Filename D:\Torrents\up\John Zorn - Filmworks X (2001) [FLAC]\11 - Kiev 2 (cello,bass,drum).wav

Peak level 64.0 %
Track quality 100.0 %
Test CRC 1FCD344C
Copy CRC 1FCD344C
Copy OK

Track 12
Filename D:\Torrents\up\John Zorn - Filmworks X (2001) [FLAC]\12 - Voudoun.wav

Peak level 99.3 %
Track quality 99.9 %
Test CRC 8FC85D68
Copy CRC 8FC85D68
Copy OK

Track 13
Filename D:\Torrents\up\John Zorn - Filmworks X (2001) [FLAC]\13 - Drifting 2.wav

Peak level 77.2 %
Track quality 100.0 %
Test CRC C3398400
Copy CRC C3398400
Copy OK

Track 14
Filename D:\Torrents\up\John Zorn - Filmworks X (2001) [FLAC]\14 - Kiev 3 (cello).wav

Pre-gap length 0:00:11.41

Peak level 66.3 %
Track quality 100.0 %
Test CRC 0CCC7200
Copy CRC 0CCC7200
Copy OK

Track 15
Filename D:\Torrents\up\John Zorn - Filmworks X (2001) [FLAC]\15 - Drifting 3.wav

Pre-gap length 0:00:07.26

Peak level 98.0 %
Track quality 100.0 %
Test CRC 034E0D40
Copy CRC 034E0D40
Copy OK

No errors occured

End of status report
-----------------------------------------------------------
EAC extraction logfile from 4. February 2008, 16:04 for CD
John Zorn / Filmworks XI - Secret Lives

Used drive : TSSTcorpCD/DVDW SH-S183L Adapter: 3 ID: 1
Read mode : Secure with NO C2, accurate stream, disable cache
Read offset correction : 6
Overread into Lead-In and Lead-Out : No

Used output format : C:\Program Files\FLAC\flac.exe (User Defined Encoder)
128 kBit/s
Additional command line options : -V -8 -T "artist=%a" -T "title=%t" -T "album=%g" -T "date=%y" -T "tracknumber=%n" -T "genre=%m" %s

Other options :
Fill up missing offset samples with silence : Yes
Delete leading and trailing silent blocks : No
Installed external ASPI interface

Track 1
Filename D:\Torrents\up\John Zorn - Filmworks XI - Secret Lives (2002) [FLAC]\01 - Yesoma (vocal).wav

Pre-gap length 0:00:02.00

Peak level 96.5 %
Track quality 100.0 %
Test CRC 3B13C385
Copy CRC 3B13C385
Copy OK

Track 2
Filename D:\Torrents\up\John Zorn - Filmworks XI - Secret Lives (2002) [FLAC]\02 - Shabbos Noir (pizz,arco).wav

Pre-gap length 0:00:00.02

Peak level 98.8 %
Track quality 100.0 %
Test CRC E2BDB122
Copy CRC E2BDB122
Copy OK

Track 3
Filename D:\Torrents\up\John Zorn - Filmworks XI - Secret Lives (2002) [FLAC]\03 - Tension.wav

Peak level 98.8 %
Track quality 100.0 %
Test CRC DBD210AE
Copy CRC DBD210AE
Copy OK

Track 4
Filename D:\Torrents\up\John Zorn - Filmworks XI - Secret Lives (2002) [FLAC]\04 - Hatzalah.wav

Peak level 89.1 %
Track quality 99.9 %
Test CRC FD86751B
Copy CRC FD86751B
Copy OK

Track 5
Filename D:\Torrents\up\John Zorn - Filmworks XI - Secret Lives (2002) [FLAC]\05 - B'rachos.wav

Peak level 98.8 %
Track quality 99.9 %
Test CRC AA9F6599
Copy CRC AA9F6599
Copy OK

Track 6
Filename D:\Torrents\up\John Zorn - Filmworks XI - Secret Lives (2002) [FLAC]\06 - Chazal.wav

Peak level 68.5 %
Track quality 100.0 %
Test CRC E3602830
Copy CRC E3602830
Copy OK

Track 7
Filename D:\Torrents\up\John Zorn - Filmworks XI - Secret Lives (2002) [FLAC]\07 - Ba'adinot (pizz).wav

Peak level 86.2 %
Track quality 100.0 %
Test CRC 61FDB99E
Copy CRC 61FDB99E
Copy OK

Track 8
Filename D:\Torrents\up\John Zorn - Filmworks XI - Secret Lives (2002) [FLAC]\08 - Drama.wav

Peak level 98.8 %
Track quality 100.0 %
Test CRC 0AA774E8
Copy CRC 0AA774E8
Copy OK

Track 9
Filename D:\Torrents\up\John Zorn - Filmworks XI - Secret Lives (2002) [FLAC]\09 - Yesoma (vibe).wav

Peak level 90.7 %
Track quality 100.0 %
Test CRC 94139B52
Copy CRC 94139B52
Copy OK

Track 10
Filename D:\Torrents\up\John Zorn - Filmworks XI - Secret Lives (2002) [FLAC]\10 - Darkly.wav

Pre-gap length 0:00:01.13

Peak level 62.7 %
Track quality 100.0 %
Test CRC 427EDE76
Copy CRC 427EDE76
Copy OK

Track 11
Filename D:\Torrents\up\John Zorn - Filmworks XI - Secret Lives (2002) [FLAC]\11 - Kavana.wav

Peak level 98.8 %
Track quality 99.9 %
Test CRC 4FEDBB8C
Copy CRC 4FEDBB8C
Copy OK

Track 12
Filename D:\Torrents\up\John Zorn - Filmworks XI - Secret Lives (2002) [FLAC]\12 - The Trap.wav

Peak level 53.5 %
Track quality 100.0 %
Test CRC C940BA04
Copy CRC C940BA04
Copy OK

Track 13
Filename D:\Torrents\up\John Zorn - Filmworks XI - Secret Lives (2002) [FLAC]\13 - Ba'adinot (arco).wav

Peak level 73.9 %
Track quality 100.0 %
Test CRC A7F07784
Copy CRC A7F07784
Copy OK

Track 14
Filename D:\Torrents\up\John Zorn - Filmworks XI - Secret Lives (2002) [FLAC]\14 - Armistice Swing.wav

Peak level 98.8 %
Track quality 100.0 %
Test CRC 37377EF1
Copy CRC 37377EF1
Copy OK

Track 15
Filename D:\Torrents\up\John Zorn - Filmworks XI - Secret Lives (2002) [FLAC]\15 - Shabbos Noir.wav

Peak level 98.8 %
Track quality 100.0 %
Test CRC 15E82709
Copy CRC 15E82709
Copy OK

Track 16
Filename D:\Torrents\up\John Zorn - Filmworks XI - Secret Lives (2002) [FLAC]\16 - Motzee.wav

Pre-gap length 0:00:01.41

Peak level 98.8 %
Track quality 100.0 %
Test CRC 45CC321A
Copy CRC 45CC321A
Copy OK

Track 17
Filename D:\Torrents\up\John Zorn - Filmworks XI - Secret Lives (2002) [FLAC]\17 - Interlude.wav

Peak level 73.5 %
Track quality 99.9 %
Test CRC B8FD4022
Copy CRC B8FD4022
Copy OK

Track 18
Filename D:\Torrents\up\John Zorn - Filmworks XI - Secret Lives (2002) [FLAC]\18 - Yesoma (pizz).wav

Peak level 52.7 %
Track quality 100.0 %
Test CRC 4B5E71A5
Copy CRC 4B5E71A5
Copy OK

Track 19
Filename D:\Torrents\up\John Zorn - Filmworks XI - Secret Lives (2002) [FLAC]\19 - Ba'adinot (solo).wav

Peak level 87.3 %
Track quality 100.0 %
Test CRC A60CB762
Copy CRC A60CB762
Copy OK

Track 20
Filename D:\Torrents\up\John Zorn - Filmworks XI - Secret Lives (2002) [FLAC]\20 - Shabbos Noir (fast).wav

Peak level 98.8 %
Track quality 100.0 %
Test CRC D38B2DDC
Copy CRC D38B2DDC
Copy OK

Track 21
Filename D:\Torrents\up\John Zorn - Filmworks XI - Secret Lives (2002) [FLAC]\21 - Yesoma (cello).wav

Peak level 96.1 %
Track quality 100.0 %
Test CRC 9D4DDE6A
Copy CRC 9D4DDE6A
Copy OK

No errors occured

End of status report
--------------------------------------------------------------------------
EAC Auslese-Logdatei vom 4. Mдrz 2005, 15:13 fьr CD
John Zorn / Filmworks XII: 2002 Volume Two - Three Documentaries

Benutztes Laufwerk : _NEC DVD_RW ND-2500A Adapter: 1 ID: 0
Lesemodus : Sicher mit KEINEM C2, Accurate Stream, Puffer abgeschaltet
Leseoffset Korrektur : 48
Ьberlesen in das Lead-In und Lead-Out : Nein

Benutztes Ausgabeformat : C:\Programme\eac095pb5\wapet.exe (Benutzerdefinierter Komprimierer)
192 kBit/s
Zusдtzliche Kommandozeilenoptionen : %d -t "Artist=%a" -t "Title=%t" -t "Album=%g" -t "Year=%y" -t "Track=%n" -t "Genre=%m" -t "Comment=EAC Mac3.97f -ehlc" C:\Programme\eac095pb5\mac.exe %s %d -c4000

Andere Einstellungen :
Fьlle fehlende Offsetsample mit Stille auf : Nein
Lцsche fьhrende und nachfolgende stille Blцcke : Nein
Natьrliche Win32 Schnittstelle fьr Win NT/2000/XP

Track 1
Dateiname C:\Dokumente und Einstellungen\funz\Eigene Dateien\Chris\John Zorn--Filmworks XII- 2002 Volume Two - Three Documentaries\01-John_Zorn-Vocal_Phase_(Homecoming).wav

Spitzenpegel 56.7 %
Track Qualitдt 100.0 %
Kopie CRC 76671724
Kopie OK

Track 2
Dateiname C:\Dokumente und Einstellungen\funz\Eigene Dateien\Chris\John Zorn--Filmworks XII- 2002 Volume Two - Three Documentaries\02-John_Zorn-The_Lips_at_Sway.wav

Spitzenpegel 98.8 %
Track Qualitдt 100.0 %
Kopie CRC 2F1997A4
Kopie OK

Track 3
Dateiname C:\Dokumente und Einstellungen\funz\Eigene Dateien\Chris\John Zorn--Filmworks XII- 2002 Volume Two - Three Documentaries\03-John_Zorn-The_Well_Tuned_Harmonica.wav

Spitzenpegel 98.8 %
Track Qualitдt 99.8 %
Kopie CRC 8E0B1EA4
Kopie OK

Track 4
Dateiname C:\Dokumente und Einstellungen\funz\Eigene Dateien\Chris\John Zorn--Filmworks XII- 2002 Volume Two - Three Documentaries\04-John_Zorn-Dance_Piece.wav

Spitzenpegel 93.3 %
Track Qualitдt 100.0 %
Kopie CRC 3AF0920C
Kopie OK

Track 5
Dateiname C:\Dokumente und Einstellungen\funz\Eigene Dateien\Chris\John Zorn--Filmworks XII- 2002 Volume Two - Three Documentaries\05-John_Zorn-Midnight_Flight.wav

Spitzenpegel 98.8 %
Track Qualitдt 100.0 %
Kopie CRC 53E5D4E0
Kopie OK

Track 6
Dateiname C:\Dokumente und Einstellungen\funz\Eigene Dateien\Chris\John Zorn--Filmworks XII- 2002 Volume Two - Three Documentaries\06-John_Zorn-Chippy_Charm.wav

Spitzenpegel 98.8 %
Track Qualitдt 100.0 %
Kopie CRC 31363209
Kopie OK

Track 7
Dateiname C:\Dokumente und Einstellungen\funz\Eigene Dateien\Chris\John Zorn--Filmworks XII- 2002 Volume Two - Three Documentaries\07-John_Zorn-Shaolin_Spirit_(Shaolin_Ulysses).wav

Spitzenpegel 98.8 %
Track Qualitдt 99.9 %
Kopie CRC 96E9370E
Kopie OK

Track 8
Dateiname C:\Dokumente und Einstellungen\funz\Eigene Dateien\Chris\John Zorn--Filmworks XII- 2002 Volume Two - Three Documentaries\08-John_Zorn-Bamboo_Forest.wav

Spitzenpegel 98.8 %
Track Qualitдt 100.0 %
Kopie CRC E47F3185
Kopie OK

Track 9
Dateiname C:\Dokumente und Einstellungen\funz\Eigene Dateien\Chris\John Zorn--Filmworks XII- 2002 Volume Two - Three Documentaries\09-John_Zorn-Shaolin_Ulysses.wav

Spitzenpegel 98.8 %
Track Qualitдt 100.0 %
Kopie CRC 93C33F89
Kopie OK

Track 10
Dateiname C:\Dokumente und Einstellungen\funz\Eigene Dateien\Chris\John Zorn--Filmworks XII- 2002 Volume Two - Three Documentaries\10-John_Zorn-Shaolin_Bossa.wav

Spitzenpegel 98.8 %
Track Qualitдt 100.0 %
Kopie CRC A5EC807A
Kopie OK

Track 11
Dateiname C:\Dokumente und Einstellungen\funz\Eigene Dateien\Chris\John Zorn--Filmworks XII- 2002 Volume Two - Three Documentaries\11-John_Zorn-Travelling_West.wav

Spitzenpegel 98.8 %
Track Qualitдt 100.0 %
Kopie CRC 19F3AD4A
Kopie OK

Track 12
Dateiname C:\Dokumente und Einstellungen\funz\Eigene Dateien\Chris\John Zorn--Filmworks XII- 2002 Volume Two - Three Documentaries\12-John_Zorn-Temple_Song.wav

Spitzenpegel 98.8 %
Track Qualitдt 99.9 %
Kopie CRC 45BAAB91
Kopie OK

Track 13
Dateiname C:\Dokumente und Einstellungen\funz\Eigene Dateien\Chris\John Zorn--Filmworks XII- 2002 Volume Two - Three Documentaries\13-John_Zorn-Shaolin_Family.wav

Spitzenpegel 98.8 %
Track Qualitдt 100.0 %
Kopie CRC A8254968
Kopie OK

Track 14
Dateiname C:\Dokumente und Einstellungen\funz\Eigene Dateien\Chris\John Zorn--Filmworks XII- 2002 Volume Two - Three Documentaries\14-John_Zorn-Nostalgia.wav

Spitzenpegel 91.5 %
Track Qualitдt 100.0 %
Kopie CRC CB4289CC
Kopie OK

Track 15
Dateiname C:\Dokumente und Einstellungen\funz\Eigene Dateien\Chris\John Zorn--Filmworks XII- 2002 Volume Two - Three Documentaries\15-John_Zorn-Shaolin_Mambo.wav

Spitzenpegel 98.8 %
Track Qualitдt 100.0 %
Kopie CRC 16B619ED
Kopie OK

Track 16
Dateiname C:\Dokumente und Einstellungen\funz\Eigene Dateien\Chris\John Zorn--Filmworks XII- 2002 Volume Two - Three Documentaries\16-John_Zorn-Transition.wav

Spitzenpegel 98.8 %
Track Qualitдt 100.0 %
Kopie CRC F34B4203
Kopie OK

Track 17
Dateiname C:\Dokumente und Einstellungen\funz\Eigene Dateien\Chris\John Zorn--Filmworks XII- 2002 Volume Two - Three Documentaries\17-John_Zorn-Shaolin_Bossa_(fast).wav

Spitzenpegel 98.8 %
Track Qualitдt 100.0 %
Kopie CRC 189A74F2
Kopie OK

Track 18
Dateiname C:\Dokumente und Einstellungen\funz\Eigene Dateien\Chris\John Zorn--Filmworks XII- 2002 Volume Two - Three Documentaries\18-John_Zorn-Vegas.wav

Spitzenpegel 98.8 %
Track Qualitдt 100.0 %
Kopie CRC C0E0C178
Kopie OK

Track 19
Dateiname C:\Dokumente und Einstellungen\funz\Eigene Dateien\Chris\John Zorn--Filmworks XII- 2002 Volume Two - Three Documentaries\19-John_Zorn-Kung_Fu_Percussion.wav

Spitzenpegel 98.8 %
Track Qualitдt 100.0 %
Kopie CRC F68C8C0E
Kopie OK

Track 20
Dateiname C:\Dokumente und Einstellungen\funz\Eigene Dateien\Chris\John Zorn--Filmworks XII- 2002 Volume Two - Three Documentaries\20-John_Zorn-Shaolin_Spirit_(duo).wav

Spitzenpegel 72.5 %
Track Qualitдt 100.0 %
Kopie CRC 843CFA7B
Kopie OK

Track 21
Dateiname C:\Dokumente und Einstellungen\funz\Eigene Dateien\Chris\John Zorn--Filmworks XII- 2002 Volume Two - Three Documentaries\21-John_Zorn-Shaolin_Bossa_Vibe.wav

Spitzenpegel 98.8 %
Track Qualitдt 100.0 %
Kopie CRC 662A5FDB
Kopie OK

Track 22
Dateiname C:\Dokumente und Einstellungen\funz\Eigene Dateien\Chris\John Zorn--Filmworks XII- 2002 Volume Two - Three Documentaries\22-John_Zorn-Shaolin_Dream.wav

Spitzenpegel 98.8 %
Track Qualitдt 100.0 %
Kopie CRC 99F53D0A
Kopie OK

Track 23
Dateiname C:\Dokumente und Einstellungen\funz\Eigene Dateien\Chris\John Zorn--Filmworks XII- 2002 Volume Two - Three Documentaries\23-John_Zorn-Shaolin_Ulysses_(end_titles).wav

Spitzenpegel 98.8 %
Track Qualitдt 100.0 %
Kopie CRC EADF7C92
Kopie OK

Track 24
Dateiname C:\Dokumente und Einstellungen\funz\Eigene Dateien\Chris\John Zorn--Filmworks XII- 2002 Volume Two - Three Documentaries\24-John_Zorn-Family_Found_(vocal)_(Family_Found).wav

Spitzenpegel 52.8 %
Track Qualitдt 100.0 %
Kopie CRC 3188884E
Kopie OK

Track 25
Dateiname C:\Dokumente und Einstellungen\funz\Eigene Dateien\Chris\John Zorn--Filmworks XII- 2002 Volume Two - Three Documentaries\25-John_Zorn-Family_Found_(solo_arco).wav

Spitzenpegel 63.6 %
Track Qualitдt 99.8 %
Kopie CRC 9A3062A2
Kopie OK

Track 26
Dateiname C:\Dokumente und Einstellungen\funz\Eigene Dateien\Chris\John Zorn--Filmworks XII- 2002 Volume Two - Three Documentaries\26-John_Zorn-Family_Found_(solo_pizz).wav

Spitzenpegel 31.7 %
Track Qualitдt 99.7 %
Kopie CRC A233B673
Kopie OK

Track 27
Dateiname C:\Dokumente und Einstellungen\funz\Eigene Dateien\Chris\John Zorn--Filmworks XII- 2002 Volume Two - Three Documentaries\27-John_Zorn-Family_Found_(cello).wav

Spitzenpegel 50.8 %
Track Qualitдt 100.0 %
Kopie CRC B08A9D44
Kopie OK

Keine Fehler aufgetreten

Ende des Statusreports
-------------------------------------------------------------------
EAC extraction logfile from 19. August 2006, 21:54 for CD
John Zorn / Filmworks XVII

Used drive : CDWRITERIDE5232 Adapter: 1 ID: 0
Read mode : Secure with NO C2, accurate stream, disable cache
Read offset correction : 97
Overread into Lead-In and Lead-Out : No

Used output format : C:\Program Files\FLAC\flac.exe (User Defined Encoder)
256 kBit/s
Additional command line options : -V -8 -T "artist=%a" -T "title=%t" -T "album=%g" -T "date=%y" -T "tracknumber=%n" -T "genre=%m" %s

Other options :
Fill up missing offset samples with silence : Yes
Delete leading and trailing silent blocks : No
Native Win32 interface for Win NT & 2000

Track 1
Filename C:\SCSI_CARD\Temp\John Zorn - Filmworks XVII - Notes on Marie Menken & A Life with Skulls (FLAC)\01 - Menken.wav

Pre-gap length 0:00:02.00

Peak level 97.7 %
Track quality 100.0 %
Test CRC FA4C6163
Copy CRC FA4C6163
Copy OK

Track 2
Filename C:\SCSI_CARD\Temp\John Zorn - Filmworks XVII - Notes on Marie Menken & A Life with Skulls (FLAC)\02 - Skull I.wav

Peak level 98.8 %
Track quality 100.0 %
Test CRC F9718BD5
Copy CRC F9718BD5
Copy OK

Track 3
Filename C:\SCSI_CARD\Temp\John Zorn - Filmworks XVII - Notes on Marie Menken & A Life with Skulls (FLAC)\03 - Glimpses.wav

Pre-gap length 0:00:01.09

Peak level 97.7 %
Track quality 100.0 %
Test CRC FF10971A
Copy CRC FF10971A
Copy OK

Track 4
Filename C:\SCSI_CARD\Temp\John Zorn - Filmworks XVII - Notes on Marie Menken & A Life with Skulls (FLAC)\04 - Mood Mondrian.wav

Peak level 95.5 %
Track quality 100.0 %
Test CRC BD825058
Copy CRC BD825058
Copy OK

Track 5
Filename C:\SCSI_CARD\Temp\John Zorn - Filmworks XVII - Notes on Marie Menken & A Life with Skulls (FLAC)\05 - Skull II.wav

Peak level 98.8 %
Track quality 100.0 %
Test CRC BD3C0F41
Copy CRC BD3C0F41
Copy OK

Track 6
Filename C:\SCSI_CARD\Temp\John Zorn - Filmworks XVII - Notes on Marie Menken & A Life with Skulls (FLAC)\06 - Gogogo.wav

Pre-gap length 0:00:01.34

Peak level 97.7 %
Track quality 100.0 %
Test CRC 8EF4D427
Copy CRC 8EF4D427
Copy OK

Track 7
Filename C:\SCSI_CARD\Temp\John Zorn - Filmworks XVII - Notes on Marie Menken & A Life with Skulls (FLAC)\07 - Moonplay.wav

Peak level 92.6 %
Track quality 100.0 %
Test CRC AA7FCD32
Copy CRC AA7FCD32
Copy OK

Track 8
Filename C:\SCSI_CARD\Temp\John Zorn - Filmworks XVII - Notes on Marie Menken & A Life with Skulls (FLAC)\08 - Skull III.wav

Peak level 97.7 %
Track quality 100.0 %
Test CRC 0C3DDD5C
Copy CRC 0C3DDD5C
Copy OK

Track 9
Filename C:\SCSI_CARD\Temp\John Zorn - Filmworks XVII - Notes on Marie Menken & A Life with Skulls (FLAC)\09 - Tango Exotique.wav

Pre-gap length 0:00:03.51

Peak level 97.7 %
Track quality 100.0 %
Test CRC DF22D730
Copy CRC DF22D730
Copy OK

Track 10
Filename C:\SCSI_CARD\Temp\John Zorn - Filmworks XVII - Notes on Marie Menken & A Life with Skulls (FLAC)\10 - Zenscapes.wav

Peak level 97.7 %
Track quality 100.0 %
Test CRC A71E7D4F
Copy CRC A71E7D4F
Copy OK

Track 11
Filename C:\SCSI_CARD\Temp\John Zorn - Filmworks XVII - Notes on Marie Menken & A Life with Skulls (FLAC)\11 - Skull IV.wav

Pre-gap length 0:00:02.50

Peak level 97.7 %
Track quality 99.8 %
Test CRC 8E7F29B3
Copy CRC 8E7F29B3
Copy OK

Track 12
Filename C:\SCSI_CARD\Temp\John Zorn - Filmworks XVII - Notes on Marie Menken & A Life with Skulls (FLAC)\12 - Arabesque.wav

Pre-gap length 0:00:01.17

Peak level 97.7 %
Track quality 100.0 %
Test CRC A1EF6853
Copy CRC A1EF6853
Copy OK

Track 13
Filename C:\SCSI_CARD\Temp\John Zorn - Filmworks XVII - Notes on Marie Menken & A Life with Skulls (FLAC)\13 - Skull V.wav

Pre-gap length 0:00:01.30

Peak level 97.7 %
Track quality 100.0 %
Test CRC C927285C
Copy CRC C927285C
Copy OK

Track 14
Filename C:\SCSI_CARD\Temp\John Zorn - Filmworks XVII - Notes on Marie Menken & A Life with Skulls (FLAC)\14 - Bolex Dancing.wav

Pre-gap length 0:00:14.44

Peak level 97.7 %
Track quality 100.0 %
Test CRC E7B71630
Copy CRC E7B71630
Copy OK

No errors occured

End of status report
---------------------------------------------------
EAC extraction logfile from 19. August 2006, 22:22 for CD
John Zorn / Filmworks XVIII - The Treatment

Used drive : CDWRITERIDE5232 Adapter: 1 ID: 0
Read mode : Secure with NO C2, accurate stream, disable cache
Read offset correction : 97
Overread into Lead-In and Lead-Out : No

Used output format : C:\Program Files\FLAC\flac.exe (User Defined Encoder)
256 kBit/s
Additional command line options : -V -8 -T "artist=%a" -T "title=%t" -T "album=%g" -T "date=%y" -T "tracknumber=%n" -T "genre=%m" %s

Other options :
Fill up missing offset samples with silence : Yes
Delete leading and trailing silent blocks : No
Native Win32 interface for Win NT & 2000

Track 1
Filename C:\SCSI_CARD\Temp\John Zorn - Filmworks XVIII - The Treatment (FLAC)\01 - The Treatment.wav

Pre-gap length 0:00:02.00

Peak level 96.6 %
Track quality 100.0 %
Test CRC 7AE14098
Copy CRC 7AE14098
Copy OK

Track 2
Filename C:\SCSI_CARD\Temp\John Zorn - Filmworks XVIII - The Treatment (FLAC)\02 - Romance.wav

Peak level 96.6 %
Track quality 100.0 %
Test CRC 217054E1
Copy CRC 217054E1
Copy OK

Track 3
Filename C:\SCSI_CARD\Temp\John Zorn - Filmworks XVIII - The Treatment (FLAC)\03 - Why me .wav

Pre-gap length 0:00:01.14

Peak level 96.6 %
Track quality 99.9 %
Test CRC 2D7997F3
Copy CRC 2D7997F3
Copy OK

Track 4
Filename C:\SCSI_CARD\Temp\John Zorn - Filmworks XVIII - The Treatment (FLAC)\04 - Family.wav

Peak level 96.6 %
Track quality 99.9 %
Test CRC 8F6DCEE4
Copy CRC 8F6DCEE4
Copy OK

Track 5
Filename C:\SCSI_CARD\Temp\John Zorn - Filmworks XVIII - The Treatment (FLAC)\05 - Marking Time.wav

Pre-gap length 0:00:01.73

Peak level 96.6 %
Track quality 100.0 %
Test CRC C3878452
Copy CRC C3878452
Copy OK

Track 6
Filename C:\SCSI_CARD\Temp\John Zorn - Filmworks XVIII - The Treatment (FLAC)\06 - Anxieties.wav

Pre-gap length 0:00:01.06

Peak level 97.7 %
Track quality 100.0 %
Test CRC 21A6BCFC
Copy CRC 21A6BCFC
Copy OK

Track 7
Filename C:\SCSI_CARD\Temp\John Zorn - Filmworks XVIII - The Treatment (FLAC)\07 - Freud's Rondo.wav

Pre-gap length 0:00:01.24

Peak level 96.6 %
Track quality 100.0 %
Test CRC C594B7C0
Copy CRC C594B7C0
Copy OK

Track 8
Filename C:\SCSI_CARD\Temp\John Zorn - Filmworks XVIII - The Treatment (FLAC)\08 - Totem and Taboo.wav

Pre-gap length 0:00:02.02

Peak level 100.0 %
Track quality 100.0 %
Test CRC 0B40D17E
Copy CRC 0B40D17E
Copy OK

Track 9
Filename C:\SCSI_CARD\Temp\John Zorn - Filmworks XVIII - The Treatment (FLAC)\09 - Rush Hour.wav

Pre-gap length 0:00:01.30

Peak level 97.7 %
Track quality 100.0 %
Test CRC B03FDE60
Copy CRC B03FDE60
Copy OK

Track 10
Filename C:\SCSI_CARD\Temp\John Zorn - Filmworks XVIII - The Treatment (FLAC)\10 - Bad Dreams.wav

Peak level 67.0 %
Track quality 100.0 %
Test CRC AFFF0089
Copy CRC AFFF0089
Copy OK

Track 11
Filename C:\SCSI_CARD\Temp\John Zorn - Filmworks XVIII - The Treatment (FLAC)\11 - Uncertainty.wav

Pre-gap length 0:00:01.49

Peak level 97.7 %
Track quality 99.9 %
Test CRC 6DFD94DA
Copy CRC 6DFD94DA
Copy OK

Track 12
Filename C:\SCSI_CARD\Temp\John Zorn - Filmworks XVIII - The Treatment (FLAC)\12 - Happy Ending.wav

Pre-gap length 0:00:01.45

Peak level 97.7 %
Track quality 100.0 %
Test CRC A4667357
Copy CRC A4667357
Copy OK

No errors occured

End of status report
------------------------------------------------
EAC extraction logfile from 29. March 2008, 15:06 for CD
John Zorn / Filmworks XIX - The Rain Horse

Used drive : HL-DT-STDVDRAM GSA-E40L Adapter: 2 ID: 0
Read mode : Secure with NO C2, accurate stream, disable cache
Read offset correction : 667
Overread into Lead-In and Lead-Out : No

Used output format : C:\Program Files\FLAC\flac.exe (User Defined Encoder)
128 kBit/s
Additional command line options : -V -8 -T "artist=%a" -T "title=%t" -T "album=%g" -T "date=%y" -T "tracknumber=%n" -T "genre=%m" %s

Other options :
Fill up missing offset samples with silence : Yes
Delete leading and trailing silent blocks : No
Installed external ASPI interface

Track 1
Filename C:\Musique\John Zorn - Filmworks XIX - The Rain Horse (2008) [FLAC]\01 - Tears of Morning.wav

Pre-gap length 0:00:02.00

Peak level 98.4 %
Track quality 100.0 %
Test CRC C49D0C59
Copy CRC C49D0C59
Copy OK

Track 2
Filename C:\Musique\John Zorn - Filmworks XIX - The Rain Horse (2008) [FLAC]\02 - Tha Stallion.wav

Peak level 97.7 %
Track quality 100.0 %
Test CRC 62F5F0EC
Copy CRC 62F5F0EC
Copy OK

Track 3
Filename C:\Musique\John Zorn - Filmworks XIX - The Rain Horse (2008) [FLAC]\03 - Tree of Life.wav

Peak level 97.7 %
Track quality 99.9 %
Test CRC 0BE12B97
Copy CRC 0BE12B97
Copy OK

Track 4
Filename C:\Musique\John Zorn - Filmworks XIX - The Rain Horse (2008) [FLAC]\04 - Wedding of Wild Horses.wav

Peak level 97.7 %
Track quality 100.0 %
Test CRC 97A215F7
Copy CRC 97A215F7
Copy OK

Track 5
Filename C:\Musique\John Zorn - Filmworks XIX - The Rain Horse (2008) [FLAC]\05 - Forests in the Mist.wav

Pre-gap length 0:00:00.02

Peak level 97.7 %
Track quality 100.0 %
Test CRC 6B84D927
Copy CRC 6B84D927
Copy OK

Track 6
Filename C:\Musique\John Zorn - Filmworks XIX - The Rain Horse (2008) [FLAC]\06 - Dance Exotique.wav

Peak level 97.7 %
Track quality 99.9 %
Test CRC FDCD2FA8
Copy CRC FDCD2FA8
Copy OK

Track 7
Filename C:\Musique\John Zorn - Filmworks XIX - The Rain Horse (2008) [FLAC]\07 - Bird in the Mist.wav

Pre-gap length 0:00:00.02

Peak level 97.7 %
Track quality 99.9 %
Test CRC BAE6FB4F
Copy CRC BAE6FB4F
Copy OK

Track 8
Filename C:\Musique\John Zorn - Filmworks XIX - The Rain Horse (2008) [FLAC]\08 - Parable of Job.wav

Pre-gap length 0:00:00.02

Peak level 97.7 %
Track quality 99.9 %
Test CRC EB2182FE
Copy CRC EB2182FE
Copy OK

Track 9
Filename C:\Musique\John Zorn - Filmworks XIX - The Rain Horse (2008) [FLAC]\09 - Encounter.wav

Pre-gap length 0:00:00.04

Peak level 97.7 %
Track quality 100.0 %
Test CRC DDB9B028
Copy CRC DDB9B028
Copy OK

Track 10
Filename C:\Musique\John Zorn - Filmworks XIX - The Rain Horse (2008) [FLAC]\10 - The Rain Horse.wav

Peak level 97.7 %
Track quality 100.0 %
Test CRC AA385025
Copy CRC AA385025
Copy OK

Track 11
Filename C:\Musique\John Zorn - Filmworks XIX - The Rain Horse (2008) [FLAC]\11 - End Credits.wav

Pre-gap length 0:00:00.04

Peak level 97.7 %
Track quality 100.0 %
Test CRC 5710E995
Copy CRC 5710E995
Copy OK

No errors occured

End of status report
--------------------------------------------------Отчёт EAC об извлечении, выполненном 9. января 2008, 19:19 для диска:
John Zorn / Film Works XV - Protocols of Zion

Дисковод: Optiarc DVD RW AD-7173A Adapter: 1 ID: 1
Режим чтения: Достоверный (C2: нет, Точный поток: да, Отключение кэша: да)
Коррекция смещения при чтении: 0
Способность читать области Lead-in и Lead-out : Нет

Выходной формат: Внутренние WAV-операции
44.100 Гц; 16 бит; стерео

Другие параметры:
Заполнение пропущенных сэмплов тишиной : Да
Удаление блоков с тишиной в начале и конце : Нет
Установленный внешний ASPI-интерфейс

Трек 1
Имя файла F:\music\szhato\01-Protocols of Zion.wav

Пиковый уровень 98.8 %
Качество трека 100.0 %
CRC копии 85A606FF
Копирование... OK

Трек 2
Имя файла F:\music\szhato\02-Searching for a Past.wav

Пиковый уровень 98.8 %
Качество трека 100.0 %
CRC копии 82A771E6
Копирование... OK

Трек 3
Имя файла F:\music\szhato\03-Jew Watcher.wav

Пиковый уровень 98.8 %
Качество трека 100.0 %
CRC копии 1642E69E
Копирование... OK

Трек 4
Имя файла F:\music\szhato\04-Mystery of the Jew.wav

Пиковый уровень 98.8 %
Качество трека 100.0 %
CRC копии 97F578CC
Копирование... OK

Трек 5
Имя файла F:\music\szhato\05-History Repeats Itself.wav

Пиковый уровень 93.2 %
Качество трека 100.0 %
CRC копии 56D0C3B5
Копирование... OK

Трек 6
Имя файла F:\music\szhato\06-Arab and Jew.wav

Пиковый уровень 98.8 %
Качество трека 100.0 %
CRC копии 2B6777D3
Копирование... OK

Трек 7
Имя файла F:\music\szhato\07-Fighting Time.wav

Пиковый уровень 98.8 %
Качество трека 100.0 %
CRC копии 1C4636AB
Копирование... OK

Трек 8
Имя файла F:\music\szhato\08-Hollywood,Rikers.wav

Пиковый уровень 98.8 %
Качество трека 100.0 %
CRC копии 421D85F0
Копирование... OK

Трек 9
Имя файла F:\music\szhato\09-Elders of Zion.wav

Пиковый уровень 98.8 %
Качество трека 99.9 %
CRC копии ED39BDF5
Копирование... OK

Трек 10
Имя файла F:\music\szhato\10-A Dark Future.wav

Пиковый уровень 98.8 %
Качество трека 100.0 %
CRC копии 635C57BE
Копирование... OK

Трек 11
Имя файла F:\music\szhato\11-Transition 1.wav

Пиковый уровень 40.4 %
Качество трека 99.6 %
CRC копии 52BDA178
Копирование... OK

Трек 12
Имя файла F:\music\szhato\12-Transition 2.wav

Пиковый уровень 38.8 %
Качество трека 100.0 %
CRC копии 2519FED6
Копирование... OK

Трек 13
Имя файла F:\music\szhato\13-Transition 3.wav

Пиковый уровень 57.3 %
Качество трека 100.0 %
CRC копии 0FACEC92
Копирование... OK

Трек 14
Имя файла F:\music\szhato\14-Transition 4.wav

Пиковый уровень 59.2 %
Качество трека 99.5 %
CRC копии 978485E9
Копирование... OK

Трек 15
Имя файла F:\music\szhato\15-Coda - The Metaphysics of Anti-Semitism.wav

Пиковый уровень 85.7 %
Качество трека 100.0 %
CRC копии BC353010
Копирование... OK

Ошибок не произошло

Конец отчёта


Трекер:  [ 26-Сен-2017 23:12 ]

  

Скачать .torrent

Размер .torrent файла 48 KB


Размер: 3.12 GB
Хэш (hash) релиза: 80cecbc059a32b1244af0a9c6805cad52ec53041

Еще никто не оставлял запись к записи скачать торрент John Zorn Filmworks 2,5,6,7,8,10,11,12,17,18,19, lossless . Будь первым!

!Обратная связь