the handmaid s tale | Hooktheory I | 8x22 Hawai 5.0

Скачать через торрент музыку Asatte no Houkou Living for the Day After Tomorrow бесплатно без регистрации torrent

Статистика раздачи
Размер:  506 MB   |    Зарегистрирован:  9 месяцев   |    .torrent скачан:  10 раз   |   
Раздают:  1  
   
загрузка...
 
Автор Сообщение

Galfimbul

avatar Galfimbul


Asatte no Houkou Living for the Day After Tomorrow В другую сторону Жанр: OST
Год выпуска: 2006
Производитель: Япония
Аудио кодек: TTA, APE (image+.cue)
Продолжительность: 01:20:59
<div class="sp-wrap">
<div class="sp-head folded">OP Single - Hikari no Kisetsu | by Suara</div>
<div class="sp-body"> OP Single - Hikari no Kisetsu Список треков: 01 - Hikari no Kisetsu [光の季節] [4:37]02 - Umbrella [傘] [4:17]03 - Hikari no Kisetsu [光の季節] (instrumental) [4:37]04 - Umbrella [傘] (instrumental) [4:17]
<div class="sp-wrap">
<div class="sp-head folded">EAC log</div>
<div class="sp-body">

EAC extraction logfile from 25. October 2006, 23:15 for CDSuara / あさっての方向。 アニメオープニングテーマ 光の季節

Used drive : PLEXTOR CD-R PREMIUM Adapter: 0 ID: 0Read mode : Secure with C2, accurate stream, disable cacheRead offset correction : 30Overread into Lead-In and Lead-Out : Yes

Used output format : Internal WAV Routines 44.100 Hz; 16 Bit; Stereo

Other options : Fill up missing offset samples with silence : Yes Delete leading and trailing silent blocks : No Installed external ASPI interface

Range status and errorsSelected range Filename F:\EAC\CDImage.wav

Peak level 100.0 % Range quality 100.0 % CRC 544CC7BD Copy OK

No errors occured

End of status report
-----------------------

DON'T MODIFY THIS FILE

-----------------------

PERFORMER: auCDtect Task Manager, ver. 1.5.1RC3 build 1.5.1.4Copyright (c) 2008-2010 y-soft. All rights reservedhttp://y-soft.org

ANALYZER: auCDtect: CD records authenticity detector, version 0.8.2Copyright (c) 2004 Oleg Berngardt. All rights reserved.Copyright (c) 2004 Alexander Djourik. All rights reserved.

FILE: CDImage.tta Size: 116782510 Hash: DDE356AFC8C7A6F66AE93A9A0A9DDE64 Accuracy: -m0 Conclusion: CDDA 100% Signature: 2E5E13C2EF64322768E337C734ABF8E512737A19
<div class="sp-wrap">
<div class="sp-head folded">CUE JAP</div>
<div class="sp-body">

REM DATE 2006/10/25REM DISCID 2D042904REM COMMENT "ExactAudioCopy v0.95b4"CATALOG 4540774403066PERFORMER "Suara"TITLE "光の季節"FILE "CDImage.tta" WAVE TRACK 01 AUDIO TITLE "光の季節" PERFORMER "Suara" ISRC JPI100602022 INDEX 01 00:00:00 TRACK 02 AUDIO TITLE "傘" PERFORMER "Suara" ISRC JPI100602023 INDEX 00 04:33:62 INDEX 01 04:36:74 TRACK 03 AUDIO TITLE "光の季節 (instrumental)" ISRC JPI100602024 INDEX 00 08:51:18 INDEX 01 08:54:31 TRACK 04 AUDIO TITLE "傘 (instrumental)" ISRC JPI100602025 INDEX 00 13:28:18 INDEX 01 13:31:30
REM DATE 2006/10/25REM DISCID 2D042904REM COMMENT "ExactAudioCopy v0.95b4"CATALOG 4540774403066PERFORMER "Suara"TITLE "Hikari no Kisetsu"FILE "CDImage.tta" WAVE TRACK 01 AUDIO TITLE "Hikari no Kisetsu" PERFORMER "Suara" ISRC JPI100602022 INDEX 01 00:00:00 TRACK 02 AUDIO TITLE "Umbrella" PERFORMER "Suara" ISRC JPI100602023 INDEX 00 04:33:62 INDEX 01 04:36:74 TRACK 03 AUDIO TITLE "Hikari no Kisetsu (instrumental)" ISRC JPI100602024 INDEX 00 08:51:18 INDEX 01 08:54:31 TRACK 04 AUDIO TITLE "Umbrella (instrumental)" ISRC JPI100602025 INDEX 00 13:28:18 INDEX 01 13:31:30
</div>
</div> </div>
</div>
ED Single - Sweet Home Список треков: 01 - Sweet Home [スイートホームソング] [4:25]02 - Mr.Ronrigaru [Mr.ロンリーガール] [3:49]03 - Sweet Home [スイートホームソング] (instrumental) [4:25]04 - Mr.Ronrigaru [Mr.ロンリーガール] (instrumental) [3:49]
<div class="sp-wrap">
<div class="sp-head folded">EAC log</div>
<div class="sp-body">
<div class="sp-wrap">
<div class="sp-head folded">EAC log JAP</div>
<div class="sp-body">

EAC 展開 ログファイル 日付: 7. 11月 2006, 19:07 for CDゆうまお / スイートホームソング

使用ドライブ : PLEXTOR DVDR PX-760A Adapter: 1 ID: 1読み込みモード : セキュア(C2 : YES / 正確なデータ転送力 : YES / キャッシュ無効 : YES)読み込みオフセット訂正値 : 30リードインとリードアウトをオーバーリードする : Yes

使用出力フォーマット : 内部 WAV ルーチン 44.100 Hz; 16 Bit; ステレオ

その他のオプション : 消失したオフセットサンプルを無音に置き換える : Yes 曲の先頭と末尾の無音部を削除する : No 標準 Win32 の Win NT & 2000 用

展開範囲ステータスとエラー選択された範囲 ファイル名 K:\EAC\[EAC](マキシシングル) あさっての方向。 ED - スイートホームソング/ゆうまお [061108] (tta+cue+rr3%)\CDImage.wav

ピークレベル 100.0 % 選択範囲品質 100.0 % CRC BDF07C40 コピー OK

エラーは検出されませんでした

ステータスの報告終了
Date EAC log file expansion: 7.2006 Mon 11, 19:07 for CDYumao / Sweet Home

Used drive: PLEXTOR DVDR PX-760A Adapter: 1 ID: 1Read mode: Secure (C2: YES / accurate data transfer power: YES / disable the cache: YES)Read offset correction: 30Over the lead and lead-out lead-in: Yes

Use output format: Internal WAV Routines 44.100 Hz; 16 Bit; Stereo

Other options: To replace missing offset samples with silence: Yes Remove silence at the end of the beginning of the song: No The standard Win32 Win NT & 2000

Range status and errorsSelected range Filename K: \ EAC \ [EAC] (Maxi Single) means moving forward. ED - Sweet Song / Yu Mao [061108] (tta + cue + rr3%) \ CDImage.wav

Peak level 100.0% 100.0% quality selection CRC BDF07C40 Copy OK

The error was not detected

End Status Report
</div>
</div>
-----------------------

DON'T MODIFY THIS FILE

-----------------------

PERFORMER: auCDtect Task Manager, ver. 1.5.1RC3 build 1.5.1.4Copyright (c) 2008-2010 y-soft. All rights reservedhttp://y-soft.org

ANALYZER: auCDtect: CD records authenticity detector, version 0.8.2Copyright (c) 2004 Oleg Berngardt. All rights reserved.Copyright (c) 2004 Alexander Djourik. All rights reserved.

FILE: CDImage.tta Size: 112182318 Hash: 783B4FE4DD78946BEB9339937E1BCE84 Accuracy: -m0 Conclusion: CDDA 100% Signature: BC9A52D24E4812E4E75A1DA62762397C861AA078
<div class="sp-wrap">
<div class="sp-head folded">CUE JAP</div>
<div class="sp-body">

REM DISCID 2F03D804REM COMMENT "ExactAudioCopy v0.95b4"PERFORMER "ゆうまお"TITLE "スイートホームソング"FILE "CDImage.tta" WAVE TRACK 01 AUDIO TITLE "スイートホームソング" PERFORMER "ゆうまお" INDEX 01 00:00:00 TRACK 02 AUDIO TITLE "Mr.ロンリーガール" PERFORMER "ゆうまお" INDEX 00 04:21:55 INDEX 01 04:24:67 TRACK 03 AUDIO TITLE "スイートホームソング (instrumental)" INDEX 00 08:10:61 INDEX 01 08:13:73 TRACK 04 AUDIO TITLE "Mr.ロンリーガール (instrumental)" INDEX 00 12:35:53 INDEX 01 12:38:65
REM DISCID 2F03D804REM COMMENT "ExactAudioCopy v0.95b4"PERFORMER "Yumao"TITLE "Sweet Home"FILE "CDImage.tta" WAVE TRACK 01 AUDIO TITLE "Sweet Home" PERFORMER "Yumao" INDEX 01 00:00:00 TRACK 02 AUDIO TITLE "Mr.Ronrigaru" PERFORMER "Yumao" INDEX 00 04:21:55 INDEX 01 04:24:67 TRACK 03 AUDIO TITLE "Sweet Home (instrumental)" INDEX 00 08:10:61 INDEX 01 08:13:73 TRACK 04 AUDIO TITLE "Mr.Ronrigaru (instrumental)" INDEX 00 12:35:53 INDEX 01 12:38:65
</div>
</div> </div>
</div>
</div>
</div>
<div class="sp-wrap">
<div class="sp-head folded">Character Album</div>
<div class="sp-body">
<div class="sp-wrap">
<div class="sp-head folded">Character Album vol.1 - Komorebi Diary Karada Hen | by Karada (CV. Ayumi Fujimura), Suara</div>
<div class="sp-body"> Character Album vol.1 - Komorebi Diary Karada Hen Список треков: 01 - Natural smile [ありのままの笑顔] (Monologue) [1:51]02 - It's important to baked eggs [大切だから玉子やき] [3:48]03 - Looking up to the thunderhead [入道雲を見上げながら] (Monologue) [2:02]04 - Summer Colors Suitopein [夏色スイートペイン] [4:44]05 - It's important to shine egg [大切だから玉子やき] (Instrumental Arrange Version) [1:54]06 - Summer Colors Suitopein [夏色スイートペイン] (Instrumental Arrange Version) [2:03]07 - The road ahead [この道の先] (Monologue) [1:48]08 - Namidagumo [なみだぐも] [6:05]
<div class="sp-wrap">
<div class="sp-head folded">EAC log</div>
<div class="sp-body">
<div class="sp-wrap">
<div class="sp-head folded">EAC log JAP</div>
<div class="sp-body">

EAC展開 ログファイル from 6. 12月 2006, 14:30 for CDVarious / 木漏れ日ダイアリー -からだ編-

使用ドライブ : PLEXTOR DVDR PX-755A Adapter: 1 ID: 0読み込みモード : セキュア(C2 不可, 正確なデータ転送力 可, キャッシュ無効 不可)読み込みオフセット訂正 : 0リードインとリードアウトをオーバーリードする : 可

使用アウトプットフォーマット : 内部WAVルーチン 44.100 Hz; 16 Bit; Stereo

その他のオプション : 消失したオフセットサンプルを無音で補完する : 可 先頭と末端の無音ブロックを削除 : 不可 標準Win32のWin NT & 2000用

ステータスとエラーの範囲選択された範囲 ファイル名 I:\[EAC] [061206] 五百川からだ(藤村 歩)・Suara - 木漏れ日ダイアリー -からだ編- [あさっての方向 キャラクターイメージアルバム] (tta+cue+jpg rr5)\CDImage.wav

ピークレベル 100.0 % 選択範囲品質 100.0 % CRC FA0C4E89 コピー OK

エラーは検出されませんでした

ステータスの終了報告
EAC log file expanded from 6. 2006 Mon 12, 14:30 for CDVarious / Diary Sunbeams - Body Part -

Used drive: PLEXTOR DVDR PX-755A Adapter: 1 ID: 0Read mode: Secure (C2 disabled, accurate data available power, no cache disabled)Read offset correction: 0Over the lead and lead-out lead-in: Pets

Use output format: Internal WAV Routines 44.100 Hz; 16 Bit; Stereo

Other options: Complement missing offset samples with silence: yes Remove leading and trailing silent blocks: No The standard Win32 Win NT & 2000

Status and error rangeSelected range Filename I:\[EAC] [061206] Because (Huzimura Ayumi) · Suara - Sunbeams Diary - Part body - means moving forward Kyarakutaimejiarubamu] (tta + cue + jpg rr5)\CDImage.wav

Peak level 100.0% 100.0% quality selection CRC FA0C4E89 Copy OK

The error was not detected

End of status report
</div>
</div>
-----------------------

DON'T MODIFY THIS FILE

-----------------------

PERFORMER: auCDtect Task Manager, ver. 1.5.1RC3 build 1.5.1.4Copyright (c) 2008-2010 y-soft. All rights reservedhttp://y-soft.org

ANALYZER: auCDtect: CD records authenticity detector, version 0.8.2Copyright (c) 2004 Oleg Berngardt. All rights reserved.Copyright (c) 2004 Alexander Djourik. All rights reserved.

FILE: CDImage.tta Size: 149878246 Hash: 4284CE188D6C489971587FBDB778E38F Accuracy: -m0 Conclusion: CDDA 62% Signature: DD492F5C6717A830A7B199BAEA8FFC947D85EE05
<div class="sp-wrap">
<div class="sp-head folded">CUE JAP</div>
<div class="sp-body">

PERFORMER "Lantis"TITLE "木漏れ日ダイアリー -からだ編-"FILE "CDImage.tta" WAVE TRACK 01 AUDIO TITLE "ありのままの笑顔 (Monologue)" PERFORMER "Lantis" INDEX 01 00:00:00 TRACK 02 AUDIO TITLE "大切だから玉子やき" PERFORMER "五百川からだ(藤村 歩)" INDEX 00 01:48:43 INDEX 01 01:50:56 TRACK 03 AUDIO TITLE "入道雲を見上げながら (Monologue)" PERFORMER "Lantis" INDEX 00 05:35:55 INDEX 01 05:38:67 TRACK 04 AUDIO TITLE "夏色スイートペイン" PERFORMER "五百川からだ(藤村 歩)" INDEX 00 07:38:29 INDEX 01 07:40:42 TRACK 05 AUDIO TITLE "大切だから玉子やき (Instrumental Arrange Version)" PERFORMER "Lantis" INDEX 00 12:20:32 INDEX 01 12:24:44 TRACK 06 AUDIO TITLE "夏色スイートペイン (Instrumental Arrange Version)" PERFORMER "Lantis" INDEX 00 14:15:32 INDEX 01 14:18:44 TRACK 07 AUDIO TITLE "この道の先 (Monologue)" PERFORMER "Lantis" INDEX 00 16:19:49 INDEX 01 16:21:61 TRACK 08 AUDIO TITLE "なみだぐも" PERFORMER "Suara" INDEX 00 18:06:24 INDEX 01 18:09:37
PERFORMER "Lantis"TITLE "Diary Sunbeams - Body Part -"FILE "CDImage.tta" WAVE TRACK 01 AUDIO TITLE "Natural smile (Monologue)" PERFORMER "Lantis" INDEX 01 00:00:00 TRACK 02 AUDIO TITLE "It's important to baked eggs." PERFORMER "Ayumi Fujimura" INDEX 00 01:48:43 INDEX 01 01:50:56 TRACK 03 AUDIO TITLE "Looking up to the thunderhead (Monologue)" PERFORMER "Lantis" INDEX 00 05:35:55 INDEX 01 05:38:67 TRACK 04 AUDIO TITLE "Summer Colors Suitopein" PERFORMER "Ayumi Fujimura" INDEX 00 07:38:29 INDEX 01 07:40:42 TRACK 05 AUDIO TITLE "It's important to shine egg (Instrumental Arrange Version)" PERFORMER "Lantis" INDEX 00 12:20:32 INDEX 01 12:24:44 TRACK 06 AUDIO TITLE "Summer Colors Suitopein (Instrumental Arrange Version)" PERFORMER "Lantis" INDEX 00 14:15:32 INDEX 01 14:18:44 TRACK 07 AUDIO TITLE "The road ahead (Monologue)" PERFORMER "Lantis" INDEX 00 16:19:49 INDEX 01 16:21:61 TRACK 08 AUDIO TITLE "Namidagumo" PERFORMER "Suara" INDEX 00 18:06:24 INDEX 01 18:09:37
</div>
</div> </div>
</div>
Character Album vol.2 - Diary Part pepper Sunlight through a child Список треков: 01 - Flowers that bloom [その花は咲く] (Monologue) [1:40]02 - Return evidence [戻れない証拠] [5:05]03 - Losing Kita Akira [失くしてきた光] (Monologue) [1:39]04 - Sunset and scratches [すり傷と夕焼け] [3:41]05 - Return evidence [戻れない証拠] (Instrumental Arrange Version) [1:41]06 - Sunset and abrasion [すり傷と夕焼け] (Instrumental Arrange Version) [1:39]07 - You might [あなたかも知れない] (Monologue) [1:18]08 - A direction of the day after tomorrow [5:24]
<div class="sp-wrap">
<div class="sp-head folded">EAC log</div>
<div class="sp-body">
<div class="sp-wrap">
<div class="sp-head folded">EAC log JAP</div>
<div class="sp-body">

EAC展開 ログファイル from 19. 1月 2007, 13:03 for CD野上椒子(伊藤静) / あさっての方向。 キャラクターイメージアルバム 木漏れ日ダイアリー ―椒子編―

使用ドライブ : NEC DVD+-RW ND-6500A Adapter: 1 ID: 0読み込みモード : セキュア(C2 YES, 正確なデータ転送力 YES, キャッシュ無効 YES)読み込みオフセット訂正 : 18リードインとリードアウトをオーバーリードする : YES

使用アウトプットフォーマット : 内部WAVルーチン 44.100 Hz; 16 Bit; Stereo

その他のオプション : 消失したオフセットサンプルを無音で補完する : YES 先頭と末端の無音ブロックを削除 : No 標準Win32のWin NT & 2000用

範囲ステータスとエラー選択された範囲 ファイル名 D:\Private\My Music\CDImage.wav

ピークレベル 100.0 % 選択範囲品質 100.0 % CRC 2CC82526 コピー OK

エラーは検出されませんでした

ステータスの終了報告
EAC log file expanded from 19. 2007 Mon 1, 13:03 for CDChild pepper Nogami (Itou Shizuka) / means moving forward. Sunbeams Kyarakutaimejiarubamu Diary - Part Child pepper -

Used drive: NEC DVD +-RW ND-6500A Adapter: 1 ID: 0Read mode: Secure (C2: YES, accurate stream: YES, the cache disabled: YES)Read offset correction: 18Over the lead and lead-out lead-in: YES

Use output format: Internal WAV Routines 44.100 Hz; 16 Bit; Stereo

Other options: Complement missing offset samples with silence: YES Remove leading and trailing silent blocks: No The standard Win32 Win NT & 2000

Status and error rangeSelected range Filename D:\Private\My Music\CDImage.wav

Peak level 100.0% 100.0% quality selection CRC 2CC82526 Copy OK

The error was not detected

End of status report
</div>
</div>
-----------------------

DON'T MODIFY THIS FILE

-----------------------

PERFORMER: auCDtect Task Manager, ver. 1.5.1RC3 build 1.5.1.4Copyright (c) 2008-2010 y-soft. All rights reservedhttp://y-soft.org

ANALYZER: auCDtect: CD records authenticity detector, version 0.8.2Copyright (c) 2004 Oleg Berngardt. All rights reserved.Copyright (c) 2004 Alexander Djourik. All rights reserved.

FILE: CDImage.ape Size: 126632580 Hash: 9ED1BB05C1269AAF58B378731EE3BAA9 Accuracy: -m0 Conclusion: MPEG 80% Signature: FB8C89653FD226FDE9E7D003C6B722806F14C456
<div class="sp-wrap">
<div class="sp-head folded">CUE JAP</div>
<div class="sp-body">

CATALOG 4540774505944TITLE "あさっての方向。 キャラクターイメージアルバム 木漏れ日ダイアリー ―椒子編―"PERFORMER "野上椒子(伊藤静)"FILE "CDImage.ape" WAVE TRACK 01 AUDIO TITLE "その花は咲く (Monologue)" PERFORMER "野上椒子(伊藤静)" ISRC JPI100602628 INDEX 01 00:00:00 TRACK 02 AUDIO TITLE "戻れない証拠" PERFORMER "野上椒子(伊藤静)" ISRC JPI100602629 INDEX 00 01:37:34 INDEX 01 01:39:46 TRACK 03 AUDIO TITLE "失くしてきた光 (Monologue)" PERFORMER "野上椒子(伊藤静)" ISRC JPI100602630 INDEX 00 06:41:44 INDEX 01 06:44:56 TRACK 04 AUDIO TITLE "すり傷と夕焼け" PERFORMER "野上椒子(伊藤静)" ISRC JPI100602631 INDEX 00 08:21:43 INDEX 01 08:23:56 TRACK 05 AUDIO TITLE "戻れない証拠 (Instrumental Arrange Version)" PERFORMER "instrumental" ISRC JPI100602632 INDEX 00 12:00:38 INDEX 01 12:04:50 TRACK 06 AUDIO TITLE "すり傷と夕焼け (Instrumental Arrange Version)" PERFORMER "instrumental" ISRC JPI100602633 INDEX 00 13:42:17 INDEX 01 13:45:29 TRACK 07 AUDIO TITLE "あなたかも知れない (Monologue)" PERFORMER "野上椒子(伊藤静)" ISRC JPI100602634 INDEX 00 15:22:31 INDEX 01 15:24:43 TRACK 08 AUDIO TITLE "A direction of the day after tomorrow" PERFORMER "ゆうまお" ISRC JPI100602635 INDEX 00 17:09:48 INDEX 01 17:12:61
CATALOG 4540774505944TITLE "Diary Part pepper Sunlight through a child - Part Child pepper -"PERFORMER "Child Nogami pepper (Itou Shizuka)"FILE "CDImage.ape" WAVE TRACK 01 AUDIO TITLE "Flowers that bloom (Monologue)" PERFORMER "Itou Shizuka" ISRC JPI100602628 INDEX 01 00:00:00 TRACK 02 AUDIO TITLE "Return evidence" PERFORMER "Itou Shizuka" ISRC JPI100602629 INDEX 00 01:37:34 INDEX 01 01:39:46 TRACK 03 AUDIO TITLE "Losing Kita Akira (Monologue)" PERFORMER "Itou Shizuka" ISRC JPI100602630 INDEX 00 06:41:44 INDEX 01 06:44:56 TRACK 04 AUDIO TITLE "Sunset and scratches" PERFORMER "Itou Shizuka" ISRC JPI100602631 INDEX 00 08:21:43 INDEX 01 08:23:56 TRACK 05 AUDIO TITLE "Return evidence (Instrumental Arrange Version)" PERFORMER "instrumental" ISRC JPI100602632 INDEX 00 12:00:38 INDEX 01 12:04:50 TRACK 06 AUDIO TITLE "Sunset and abrasion (Instrumental Arrange Version)" PERFORMER "instrumental" ISRC JPI100602633 INDEX 00 13:42:17 INDEX 01 13:45:29 TRACK 07 AUDIO TITLE "You might (Monologue)" PERFORMER "Itou Shizuka" ISRC JPI100602634 INDEX 00 15:22:31 INDEX 01 15:24:43 TRACK 08 AUDIO TITLE "A direction of the day after tomorrow" PERFORMER "Yu Mao" ISRC JPI100602635 INDEX 00 17:09:48 INDEX 01 17:12:61
</div>
</div> </div>
</div>
</div>
</div>
</div>
</div>
Всё взято с PD (Perfect Dark).Сканы присутствуют.
Приятного прослушивания

Трекер:  [ 25-Сен-2017 12:42 ]

  

Скачать .torrent

Размер .torrent файла 29 KB


Размер: 506 MB
Хэш (hash) релиза: 9ec515940f7a2127bcb4b21788f4db79f51960fa

Еще никто не оставлял запись к записи скачать торрент Asatte no Houkou Living for the Day After Tomorrow . Будь первым!

!Обратная связь