취재파일 K.E765.160626.중국 어선, 한강까지 넘본다 外.720p-NEXT.mp4 | ответ | Katrina Gow

Скачать через торрент музыку Scooby-Doos Snack Tracks: The Ultimate Collection - 1998, FLAC бесплатно без регистрации torrent

Статистика раздачи
Размер:  172 MB   |    Зарегистрирован:  9 месяцев   |    .torrent скачан:  18 раз   |   
Раздают:  1  
   
загрузка...
 
Автор Сообщение

Galfimbul

avatar Galfimbul


Scooby-Doo's Snack Tracks: The Ultimate Collection

Название альбома: Scooby-Doo's Snack Tracks: The Ultimate Collection
Год выпуска: 1998
Страна: США
Издатель (лейбл): Rhino Records
Номер по каталогу: R2 75505
Аудио кодек: FLAC (*.flac)
Тип рипа: tracks+.cue
Битрейт аудио: lossless
Продолжительность: 00:33:44
Наличие сканов в содержимом раздачи: да

Треклист:
1. Larry Marks – Scooby-Doo, Where Are You! (Main Title, 1969)
2. Austin Roberts – Recipe For My Love
3. Austin Roberts – Seven Days A Week
4. Austin Roberts – Daydreamin'
5. Austin Roberts – Love The World
6. Austin Roberts – Tell Me, Tell Me
7. The New Scooby-Doo
8. Jerry Reed – Pretty Mary Sunlite
9. Davy Jones – I Can Make You Happy
10. Casey Kasem & Don Messick – The Scooby-Doo Show (Main Title, 1976)
11. Casey Kasem & Don Messick – Move Over
12. Don Messick – Ruby Cool Guy
13. Don Messick – Gotta Have Time
14. The New Scooby-Doo Mysteries (Main Title, 1984)
15. Casey Kasem & Don Messick – I Could Be A Star
16. Dooby Doo
17. The 13 Ghosts Of Scooby-Doo (Main Title, 1985)
18. Me And My Shadow
19. Don Messick, Casey Kasem, Frank Welker & Heather North – Scooby's Mystery Mix
Exact Audio Copy V1.3 from 2. September 2016

EAC extraction logfile from 16. January 2017, 23:56

Various Artists / Scooby-Doo's Snack Tracks

Used drive : ATAPI iHAS124 F Adapter: 1 ID: 2

Read mode : SecureUtilize accurate stream : YesDefeat audio cache : YesMake use of C2 pointers : No

Read offset correction : 6Overread into Lead-In and Lead-Out : NoFill up missing offset samples with silence : YesDelete leading and trailing silent blocks : NoNull samples used in CRC calculations : YesUsed interface : Native Win32 interface for Win NT & 2000Gap handling : Appended to previous track

Used output format : User Defined EncoderSelected bitrate : 1024 kBit/sQuality : HighAdd ID3 tag : NoCommand line compressor : C:\Program Files (x86)\Exact Audio Copy\Flac\flac.exeAdditional command line options : -8 -e -p -V -T "ARTIST=%artist%" -T "TITLE=%title%" -T "ALBUM=%albumtitle%" -T "DATE=%year%" -T "TRACKNUMBER=%tracknr%" -T "GENRE=%genre%" -T "PERFORMER=%albuminterpret%" -T "COMPOSER=%composer%" %haslyrics%--tag-from-file=LYRICS="%lyricsfile%"%haslyrics% -T "ALBUMARTIST=%albumartist%" -T "DISCNUMBER=%cdnumber%" -T "TOTALDISCS=%totalcds%" -T "TOTALTRACKS=%numtracks%" -T "COMMENT=%comment%" %source% -o %dest%

TOC of the extracted CD

Track | Start | Length | Start sector | End sector --------------------------------------------------------- 1 | 0:00.32 | 1:12.45 | 32 | 5476 2 | 1:13.02 | 2:31.65 | 5477 | 16866 3 | 3:44.67 | 2:32.55 | 16867 | 28321 4 | 6:17.47 | 2:02.10 | 28322 | 37481 5 | 8:19.57 | 2:22.43 | 37482 | 48174 6 | 10:42.25 | 2:09.35 | 48175 | 57884 7 | 12:51.60 | 1:28.65 | 57885 | 64549 8 | 14:20.50 | 2:13.55 | 64550 | 74579 9 | 16:34.30 | 2:01.12 | 74580 | 83666 10 | 18:35.42 | 1:27.38 | 83667 | 90229 11 | 20:03.05 | 1:24.65 | 90230 | 96594 12 | 21:27.70 | 2:14.55 | 96595 | 106699 13 | 23:42.50 | 1:39.57 | 106700 | 114181 14 | 25:22.32 | 0:59.08 | 114182 | 118614 15 | 26:21.40 | 1:13.55 | 118615 | 124144 16 | 27:35.20 | 0:52.35 | 124145 | 128079 17 | 28:27.55 | 1:02.40 | 128080 | 132769 18 | 29:30.20 | 1:12.12 | 132770 | 138181 19 | 30:42.32 | 3:02.28 | 138182 | 151859

Track 1

Filename C:\Users\Sean\Music\(1998) Various Artists - Scooby-Doo's Snack Track [FLAC]\01. David Mook & Ben Raleigh - Scooby-Doo, Where Are You! (Main Title, 1969).wav

Pre-gap length 0:00:02.42

Peak level 99.7 % Extraction speed 3.7 X Track quality 100.0 % Test CRC D0B7F930 Copy CRC D0B7F930 Accurately ripped (confidence 7) [2F39E3F8] (AR v2) Copy OK

Track 2

Filename C:\Users\Sean\Music\(1998) Various Artists - Scooby-Doo's Snack Track [FLAC]\02. Danny Janssen - Recipe For My Love.wav

Pre-gap length 0:00:00.02

Peak level 100.0 % Extraction speed 4.8 X Track quality 100.0 % Test CRC FA5D15BB Copy CRC FA5D15BB Accurately ripped (confidence 19) [F3812216] (AR v2) Copy OK

Track 3

Filename C:\Users\Sean\Music\(1998) Various Artists - Scooby-Doo's Snack Track [FLAC]\03. Danny Janssen & Austin Roberts - Seven Days A Week.wav

Pre-gap length 0:00:00.40

Peak level 100.0 % Extraction speed 4.0 X Track quality 99.9 % Test CRC D9E59FBF Copy CRC D9E59FBF Accurately ripped (confidence 18) [912DD29C] (AR v2) Copy OK

Track 4

Filename C:\Users\Sean\Music\(1998) Various Artists - Scooby-Doo's Snack Track [FLAC]\04. Danny Janssen & Sue Steward - Daydreamin'.wav

Pre-gap length 0:00:00.26

Peak level 100.0 % Extraction speed 3.8 X Track quality 99.9 % Test CRC 23A1DE1D Copy CRC 23A1DE1D Accurately ripped (confidence 17) [77B46EBA] (AR v2) Copy OK

Track 5

Filename C:\Users\Sean\Music\(1998) Various Artists - Scooby-Doo's Snack Track [FLAC]\05. Danny Janssen - Love The World.wav

Pre-gap length 0:00:00.60

Peak level 100.0 % Extraction speed 5.5 X Track quality 100.0 % Test CRC A0A0555E Copy CRC A0A0555E Accurately ripped (confidence 17) [9327715E] (AR v2) Copy OK

Track 6

Filename C:\Users\Sean\Music\(1998) Various Artists - Scooby-Doo's Snack Track [FLAC]\06. Danny Janssen & Sue Steward - Tell Me, Tell Me.wav

Pre-gap length 0:00:00.26

Peak level 100.0 % Extraction speed 4.3 X Track quality 99.9 % Test CRC 1C746377 Copy CRC 1C746377 Accurately ripped (confidence 18) [813E318E] (AR v2) Copy OK

Track 7

Filename C:\Users\Sean\Music\(1998) Various Artists - Scooby-Doo's Snack Track [FLAC]\07. Joseph Barbera & Hoyt Curtin & William Hanna - The New Scooby-Doo Movies (Main Title, 1972).wav

Pre-gap length 0:00:00.77

Peak level 84.2 % Extraction speed 5.3 X Track quality 100.0 % Test CRC 07F72D91 Copy CRC 07F72D91 Accurately ripped (confidence 18) [11871203] (AR v2) Copy OK

Track 8

Filename C:\Users\Sean\Music\(1998) Various Artists - Scooby-Doo's Snack Track [FLAC]\08. Danny Janssen & Austin Roberts - Pretty Mary Sunlite - Jerry Reed.wav

Pre-gap length 0:00:00.60

Peak level 89.5 % Extraction speed 6.0 X Track quality 100.0 % Test CRC E869927F Copy CRC E869927F Accurately ripped (confidence 18) [2C812EF9] (AR v2) Copy OK

Track 9

Filename C:\Users\Sean\Music\(1998) Various Artists - Scooby-Doo's Snack Track [FLAC]\09. Danny Janssen & Sue Steward - I Can Make You Happy - Davy Jones.wav

Pre-gap length 0:00:00.04

Peak level 100.0 % Extraction speed 4.5 X Track quality 99.9 % Test CRC 34C0C088 Copy CRC 34C0C088 Accurately ripped (confidence 18) [B165298D] (AR v2) Copy OK

Track 10

Filename C:\Users\Sean\Music\(1998) Various Artists - Scooby-Doo's Snack Track [FLAC]\10. Joseph Barbera & Hoyt Curtin & William Hanna - The Scooby-Doo Show (Main Title, 1976).wav

Pre-gap length 0:00:00.86

Peak level 90.8 % Extraction speed 5.7 X Track quality 100.0 % Test CRC 80368624 Copy CRC 80368624 Accurately ripped (confidence 16) [6D7A2B86] (AR v2) Copy OK

Track 11

Filename C:\Users\Sean\Music\(1998) Various Artists - Scooby-Doo's Snack Track [FLAC]\11. Joseph Barbera & Hoyt Curtin & William Hanna - Move Over.wav

Pre-gap length 0:00:00.44

Peak level 99.4 % Extraction speed 5.8 X Track quality 100.0 % Test CRC BDD4D71E Copy CRC BDD4D71E Accurately ripped (confidence 17) [45FD22E2] (AR v2) Copy OK

Track 12

Filename C:\Users\Sean\Music\(1998) Various Artists - Scooby-Doo's Snack Track [FLAC]\12. Joseph Barbera & Hoyt Curtin & William Hanna - Ruby Cool Guy.wav

Pre-gap length 0:00:00.30

Peak level 100.0 % Extraction speed 6.7 X Track quality 100.0 % Test CRC BCC126CB Copy CRC BCC126CB Accurately ripped (confidence 15) [69F5CD0D] (AR v2) Copy OK

Track 13

Filename C:\Users\Sean\Music\(1998) Various Artists - Scooby-Doo's Snack Track [FLAC]\13. Joseph Barbera & Hoyt Curtin & William Hanna - Gotta Have Time.wav

Peak level 100.0 % Extraction speed 6.4 X Track quality 100.0 % Test CRC 5BBAE5EC Copy CRC 5BBAE5EC Accurately ripped (confidence 18) [2AC1BA76] (AR v2) Copy OK

Track 14

Filename C:\Users\Sean\Music\(1998) Various Artists - Scooby-Doo's Snack Track [FLAC]\14. Joseph Barbera & Hoyt Curtin & William Hanna - The New Scooby-Doo Mysteries (Main Title, 1984).wav

Pre-gap length 0:00:00.02

Peak level 96.6 % Extraction speed 3.5 X Track quality 99.8 % Test CRC 2CF4D39A Copy CRC 2CF4D39A Accurately ripped (confidence 17) [3C981998] (AR v2) Copy OK

Track 15

Filename C:\Users\Sean\Music\(1998) Various Artists - Scooby-Doo's Snack Track [FLAC]\15. Joseph Barbera & Hoyt Curtin & William Hanna - I Could Be A Star.wav

Pre-gap length 0:00:00.30

Peak level 73.6 % Extraction speed 6.0 X Track quality 100.0 % Test CRC A08816F0 Copy CRC A08816F0 Accurately ripped (confidence 17) [EEBB3DE6] (AR v2) Copy OK

Track 16

Filename C:\Users\Sean\Music\(1998) Various Artists - Scooby-Doo's Snack Track [FLAC]\16. Joseph Barbera & Hoyt Curtin & William Hanna - Dooby Doo.wav

Pre-gap length 0:00:00.13

Peak level 76.8 % Extraction speed 3.3 X Track quality 99.7 % Test CRC 949F4AD0 Copy CRC 949F4AD0 Accurately ripped (confidence 18) [64E08A34] (AR v2) Copy OK

Track 17

Filename C:\Users\Sean\Music\(1998) Various Artists - Scooby-Doo's Snack Track [FLAC]\17. Joseph Barbera & Hoyt Curtin & William Hanna & Ron Jones - The 13 Ghosts Of Scooby Doo (Main Title, 1985).wav

Pre-gap length 0:00:00.44

Peak level 79.8 % Extraction speed 5.7 X Track quality 100.0 % Test CRC B5367EC3 Copy CRC B5367EC3 Accurately ripped (confidence 17) [E6173DAC] (AR v2) Copy OK

Track 18

Filename C:\Users\Sean\Music\(1998) Various Artists - Scooby-Doo's Snack Track [FLAC]\18. Dave Dreyer & Al Jolson & Billy Rose - Me And My Shadow.wav

Pre-gap length 0:00:00.84

Peak level 100.0 % Extraction speed 6.2 X Track quality 100.0 % Test CRC 28B92DC3 Copy CRC 28B92DC3 Accurately ripped (confidence 17) [7977B9CB] (AR v2) Copy OK

Track 19

Filename C:\Users\Sean\Music\(1998) Various Artists - Scooby-Doo's Snack Track [FLAC]\19. Craig DeGraff & E.J. Dick - Scooby's Mystery Mix.wav

Peak level 97.1 % Extraction speed 7.8 X Track quality 100.0 % Test CRC 055363B2 Copy CRC 055363B2 Accurately ripped (confidence 17) [AABBE2B5] (AR v2) Copy OK

All tracks accurately ripped

No errors occurred

End of status report

---- CUETools DB Plugin V2.1.6

[CTDB TOCID: c2Xnlihv_1Yn324jVZWPbqaViAw-] foundSubmit result: already submittedTrack | CTDB Status 1 | (11/11) Accurately ripped 2 | (11/11) Accurately ripped 3 | (11/11) Accurately ripped 4 | (11/11) Accurately ripped 5 | (11/11) Accurately ripped 6 | (11/11) Accurately ripped 7 | (11/11) Accurately ripped 8 | (11/11) Accurately ripped 9 | (11/11) Accurately ripped 10 | (11/11) Accurately ripped 11 | (11/11) Accurately ripped 12 | (11/11) Accurately ripped 13 | (11/11) Accurately ripped 14 | (11/11) Accurately ripped 15 | (11/11) Accurately ripped 16 | (11/11) Accurately ripped 17 | (11/11) Accurately ripped 18 | (11/11) Accurately ripped 19 | (11/11) Accurately ripped

==== Log checksum 54C69DF9FED002CB3FABE5AA389E6E57C45BC1E7DEA664BD8DE9838471168F4D ====
REM GENRE SoundtrackREM DATE 1998REM DISCID 0D07E813REM COMMENT "ExactAudioCopy v1.3"CATALOG 0075677550523PERFORMER "Various Artists"TITLE "Scooby-Doo's Snack Tracks"REM COMPOSER ""FILE "01. David Mook & Ben Raleigh - Scooby-Doo, Where Are You! (Main Title, 1969).wav" WAVE TRACK 01 AUDIO TITLE "Scooby-Doo, Where Are You! (Main Title, 1969)" PERFORMER "David Mook & Ben Raleigh" REM COMPOSER "" PREGAP 00:00:32 INDEX 01 00:00:00 TRACK 02 AUDIO TITLE "Recipe For My Love" PERFORMER "Danny Janssen" REM COMPOSER "" INDEX 00 01:12:43FILE "02. Danny Janssen - Recipe For My Love.wav" WAVE INDEX 01 00:00:00 TRACK 03 AUDIO TITLE "Seven Days A Week" PERFORMER "Danny Janssen & Austin Roberts" REM COMPOSER "" INDEX 00 02:31:35FILE "03. Danny Janssen & Austin Roberts - Seven Days A Week.wav" WAVE INDEX 01 00:00:00 TRACK 04 AUDIO TITLE "Daydreamin'" PERFORMER "Danny Janssen & Sue Steward" REM COMPOSER "" INDEX 00 02:32:35FILE "04. Danny Janssen & Sue Steward - Daydreamin'.wav" WAVE INDEX 01 00:00:00 TRACK 05 AUDIO TITLE "Love The World" PERFORMER "Danny Janssen" REM COMPOSER "" INDEX 00 02:01:40FILE "05. Danny Janssen - Love The World.wav" WAVE INDEX 01 00:00:00 TRACK 06 AUDIO TITLE "Tell Me, Tell Me" PERFORMER "Danny Janssen & Sue Steward" REM COMPOSER "" INDEX 00 02:22:23FILE "06. Danny Janssen & Sue Steward - Tell Me, Tell Me.wav" WAVE INDEX 01 00:00:00 TRACK 07 AUDIO TITLE "The New Scooby-Doo Movies (Main Title, 1972)" PERFORMER "Joseph Barbera & Hoyt Curtin & William Hanna" REM COMPOSER "" INDEX 00 02:08:52FILE "07. Joseph Barbera & Hoyt Curtin & William Hanna - The New Scooby-Doo Movies (Main Title, 1972).wav" WAVE INDEX 01 00:00:00 TRACK 08 AUDIO TITLE "Pretty Mary Sunlite - Jerry Reed" PERFORMER "Danny Janssen & Austin Roberts" REM COMPOSER "" INDEX 00 01:28:20FILE "08. Danny Janssen & Austin Roberts - Pretty Mary Sunlite - Jerry Reed.wav" WAVE INDEX 01 00:00:00 TRACK 09 AUDIO TITLE "I Can Make You Happy - Davy Jones" PERFORMER "Danny Janssen & Sue Steward" REM COMPOSER "" INDEX 00 02:13:52FILE "09. Danny Janssen & Sue Steward - I Can Make You Happy - Davy Jones.wav" WAVE INDEX 01 00:00:00 TRACK 10 AUDIO TITLE "The Scooby-Doo Show (Main Title, 1976)" PERFORMER "Joseph Barbera & Hoyt Curtin & William Hanna" REM COMPOSER "" INDEX 00 02:00:22FILE "10. Joseph Barbera & Hoyt Curtin & William Hanna - The Scooby-Doo Show (Main Title, 1976).wav" WAVE INDEX 01 00:00:00 TRACK 11 AUDIO TITLE "Move Over" PERFORMER "Joseph Barbera & Hoyt Curtin & William Hanna" REM COMPOSER "" INDEX 00 01:27:05FILE "11. Joseph Barbera & Hoyt Curtin & William Hanna - Move Over.wav" WAVE INDEX 01 00:00:00 TRACK 12 AUDIO TITLE "Ruby Cool Guy" PERFORMER "Joseph Barbera & Hoyt Curtin & William Hanna" REM COMPOSER "" INDEX 00 01:24:42FILE "12. Joseph Barbera & Hoyt Curtin & William Hanna - Ruby Cool Guy.wav" WAVE INDEX 01 00:00:00FILE "13. Joseph Barbera & Hoyt Curtin & William Hanna - Gotta Have Time.wav" WAVE TRACK 13 AUDIO TITLE "Gotta Have Time" PERFORMER "Joseph Barbera & Hoyt Curtin & William Hanna" REM COMPOSER "" INDEX 01 00:00:00 TRACK 14 AUDIO TITLE "The New Scooby-Doo Mysteries (Main Title, 1984)" PERFORMER "Joseph Barbera & Hoyt Curtin & William Hanna" REM COMPOSER "" INDEX 00 01:39:55FILE "14. Joseph Barbera & Hoyt Curtin & William Hanna - The New Scooby-Doo Mysteries (Main Title, 1984).wav" WAVE INDEX 01 00:00:00 TRACK 15 AUDIO TITLE "I Could Be A Star" PERFORMER "Joseph Barbera & Hoyt Curtin & William Hanna" REM COMPOSER "" INDEX 00 00:58:60FILE "15. Joseph Barbera & Hoyt Curtin & William Hanna - I Could Be A Star.wav" WAVE INDEX 01 00:00:00 TRACK 16 AUDIO TITLE "Dooby Doo" PERFORMER "Joseph Barbera & Hoyt Curtin & William Hanna" REM COMPOSER "" INDEX 00 01:13:45FILE "16. Joseph Barbera & Hoyt Curtin & William Hanna - Dooby Doo.wav" WAVE INDEX 01 00:00:00 TRACK 17 AUDIO TITLE "The 13 Ghosts Of Scooby Doo (Main Title, 1985)" PERFORMER "Joseph Barbera & Hoyt Curtin & William Hanna & Ron Jones" REM COMPOSER "" INDEX 00 00:52:02FILE "17. Joseph Barbera & Hoyt Curtin & William Hanna & Ron Jones - The 13 Ghosts Of Scooby Doo (Main Title, 1985).wav" WAVE INDEX 01 00:00:00 TRACK 18 AUDIO TITLE "Me And My Shadow" PERFORMER "Dave Dreyer & Al Jolson & Billy Rose" REM COMPOSER "" INDEX 00 01:01:52FILE "18. Dave Dreyer & Al Jolson & Billy Rose - Me And My Shadow.wav" WAVE INDEX 01 00:00:00FILE "19. Craig DeGraff & E.J. Dick - Scooby's Mystery Mix.wav" WAVE TRACK 19 AUDIO TITLE "Scooby's Mystery Mix" PERFORMER "Craig DeGraff & E.J. Dick" REM COMPOSER "" INDEX 01 00:00:00


Трекер:  [ 24-Сен-2017 15:12 ]

  

Скачать .torrent

Размер .torrent файла 16 KB


Размер: 172 MB
Хэш (hash) релиза: 6395b6b3bc0ca2897ccd6edef5e12c1c76a607bf

Еще никто не оставлял запись к записи скачать торрент Scooby-Doos Snack Tracks: The Ultimate Collection - 1998, FLAC . Будь первым!

!Обратная связь