Pagadi Aattam (2017) Tamil Movie WeBRip 480p AVC AAC 400MB MKV | Is Genesis History? 2017 | Sue Wong

Скачать через торрент музыку Скуби-Ду! и Вторжение Инопланетян Scooby-Doo! and The Alien Invaders - 2000, FLAC бесплатно без регистрации torrent

Статистика раздачи
Размер:  241 MB   |    Зарегистрирован:  9 месяцев   |    .torrent скачан:  9 раз   |   
Раздают:  1  
   
загрузка...
 
Автор Сообщение

Galfimbul

avatar Galfimbul


Скуби-Ду! и Вторжение Инопланетян / Scooby-Doo! and The Alien Invaders

Название альбома: Scooby-Doo! and The Alien Invaders: Songs from the Animated Feature and More!
Год выпуска: 2000
Страна: США
Издатель (лейбл): Rhino Records
Номер по каталогу: R2 79870
Аудио кодек: FLAC (*.flac)
Тип рипа: tracks+.cue
Битрейт аудио: lossless
Продолжительность: 00:35:50
Наличие сканов в содержимом раздачи: нет

Треклист:
01. Kip Tabor Lennon - The Aliens Are Here (2:01)
02. Scott Innes - Purple People Eater (2:41)
03. Gary Lionelli - We Come From Space (3:11)
04. Scott Innes - The Martian Hop (2:14)
05. Scott Innes - Destination Moon (2:17)
06. Scott Innes - The Lost World (3:19)
07. Joe Pizzulo And Gary Falcone - Slime Creatures From Outer Space (4:03)
08. Gary Lionelli - Blast Off (2:30)
09. Scott Innes - Mr. Spaceman (2:26)
10. Michael Stanton - Vacuum Cleaner Hoses (3:15)
11. Scott Innes - How Groovy (2:36)
12. Louis Febre - Alien Invasion (2:51)
13. Scott Innes - Scooby-Doo, Where Are You? (Theme Song) (2:20)
Exact Audio Copy V1.2 from 12. August 2016

EAC extraction logfile from 15. June 2017, 5:06

Various Artists / Scooby Doo And The Alien Invaders

Used drive : TSSTcorpCDDVDW TS-L633Y Adapter: 1 ID: 0

Read mode : SecureUtilize accurate stream : YesDefeat audio cache : NoMake use of C2 pointers : No

Read offset correction : 6Overread into Lead-In and Lead-Out : NoFill up missing offset samples with silence : YesDelete leading and trailing silent blocks : NoNull samples used in CRC calculations : YesUsed interface : Installed external ASPI interfaceGap handling : Appended to previous track

Used output format : User Defined EncoderSelected bitrate : 320 kBit/sQuality : HighAdd ID3 tag : NoCommand line compressor : C:\Program Files\FLAC\win64\flac.exeAdditional command line options : -T "artist=%artist%" -T "title=%title%" -T "album=%albumtitle%" -T "date=%year%" -T "tracknumber=%tracknr%" -T "genre=%genre%" -8 %source%

TOC of the extracted CD

Track | Start | Length | Start sector | End sector --------------------------------------------------------- 1 | 0:00.00 | 2:01.60 | 0 | 9134 2 | 2:01.60 | 2:41.10 | 9135 | 21219 3 | 4:42.70 | 3:11.67 | 21220 | 35611 4 | 7:54.62 | 2:14.41 | 35612 | 45702 5 | 10:09.28 | 2:17.49 | 45703 | 56026 6 | 12:27.02 | 3:19.68 | 56027 | 71019 7 | 15:46.70 | 4:03.46 | 71020 | 89290 8 | 19:50.41 | 2:30.71 | 89291 | 100611 9 | 22:21.37 | 2:26.05 | 100612 | 111566 10 | 24:47.42 | 3:15.23 | 111567 | 126214 11 | 28:02.65 | 2:36.10 | 126215 | 137924 12 | 30:39.00 | 2:50.71 | 137925 | 150745 13 | 33:29.71 | 2:20.61 | 150746 | 161306

Track 1

Filename C:\Users\David\Documents\CDs\Scooby Doo\And The Alien Invaders\01 The Aliens Are Here.wav

Pre-gap length 0:00:02.00

Peak level 99.6 % Extraction speed 1.6 X Track quality 99.9 % Copy CRC 5BF938A0 Accurately ripped (confidence 2) [475B8062] (AR v1) Copy OK

Track 2

Filename C:\Users\David\Documents\CDs\Scooby Doo\And The Alien Invaders\02 Purple People Eater.wav

Pre-gap length 0:00:00.74

Peak level 99.4 % Extraction speed 1.8 X Track quality 100.0 % Copy CRC 00AF6FAA Accurately ripped (confidence 2) [87AEFAAA] (AR v1) Copy OK

Track 3

Filename C:\Users\David\Documents\CDs\Scooby Doo\And The Alien Invaders\03 We Come From Space.wav

Pre-gap length 0:00:00.73

Peak level 99.6 % Extraction speed 1.9 X Track quality 99.9 % Copy CRC C7C974EA Accurately ripped (confidence 2) [45CC50FD] (AR v1) Copy OK

Track 4

Filename C:\Users\David\Documents\CDs\Scooby Doo\And The Alien Invaders\04 The Martian Hop.wav

Pre-gap length 0:00:00.73

Peak level 99.6 % Extraction speed 1.6 X Track quality 99.7 % Copy CRC EA501B6F Accurately ripped (confidence 2) [A0D4A2F4] (AR v1) Copy OK

Track 5

Filename C:\Users\David\Documents\CDs\Scooby Doo\And The Alien Invaders\05 Destination Moon.wav

Pre-gap length 0:00:02.00

Peak level 99.6 % Extraction speed 0.1 X Track quality 98.6 % Copy CRC 94013F1E Accurately ripped (confidence 2) [FEEC5FFD] (AR v1) Copy OK

Track 6

Filename C:\Users\David\Documents\CDs\Scooby Doo\And The Alien Invaders\06 The Lost Word.wav

Pre-gap length 0:00:00.73

Peak level 88.2 % Extraction speed 2.2 X Track quality 100.0 % Copy CRC 0C7A662E Accurately ripped (confidence 2) [8391E915] (AR v1) Copy OK

Track 7

Filename C:\Users\David\Documents\CDs\Scooby Doo\And The Alien Invaders\07 Slime Creatures From Outer Space.wav

Suspicious position 0:03:36 - 0:03:37

Peak level 96.7 % Extraction speed 0.0 X Track quality 97.6 % Copy CRC 709E86B3 Cannot be verified as accurate (confidence 2) [BE6BEBA0], AccurateRip returned [DE2E7E46] (AR v2) Copy finished

Track 8

Filename C:\Users\David\Documents\CDs\Scooby Doo\And The Alien Invaders\08 Blast Off!.wav

Peak level 99.5 % Extraction speed 2.6 X Track quality 100.0 % Copy CRC 20EE1CDF Accurately ripped (confidence 1) [2D260BE0] (AR v2) Copy OK

Track 9

Filename C:\Users\David\Documents\CDs\Scooby Doo\And The Alien Invaders\09 Mr. Spaceman.wav

Pre-gap length 0:00:00.74

Peak level 97.5 % Extraction speed 2.2 X Track quality 99.7 % Copy CRC B6EBD734 Cannot be verified as accurate (confidence 1) [10152973], AccurateRip returned [7345A0D4] (AR v2) Copy OK

Track 10

Filename C:\Users\David\Documents\CDs\Scooby Doo\And The Alien Invaders\10 Vacuum Cleaner Hoses.wav

Peak level 99.6 % Extraction speed 2.8 X Track quality 100.0 % Copy CRC 8E061426 Accurately ripped (confidence 2) [9F16FE19] (AR v1) Copy OK

Track 11

Filename C:\Users\David\Documents\CDs\Scooby Doo\And The Alien Invaders\11 How Groovy.wav

Pre-gap length 0:00:01.33

Peak level 99.4 % Extraction speed 2.9 X Track quality 100.0 % Copy CRC 0EC8DC56 Accurately ripped (confidence 2) [1B3A8617] (AR v1) Copy OK

Track 12

Filename C:\Users\David\Documents\CDs\Scooby Doo\And The Alien Invaders\12 Alien Invasion.wav

Pre-gap length 0:00:02.00

Peak level 75.8 % Extraction speed 2.9 X Track quality 99.9 % Copy CRC B30B44C0 Accurately ripped (confidence 2) [3DE1CB1C] (AR v1) Copy OK

Track 13

Filename C:\Users\David\Documents\CDs\Scooby Doo\And The Alien Invaders\13 Scooby-Doo, Where Are You (Theme Song).wav

Pre-gap length 0:00:02.00

Peak level 98.2 % Extraction speed 3.0 X Track quality 100.0 % Copy CRC 5E04D5E2 Accurately ripped (confidence 2) [05E5D12A] (AR v1) Copy OK

11 track(s) accurately ripped 2 track(s) could not be verified as accurate

Some tracks could not be verified as accurate

There were errors

End of status report

---- CUETools DB Plugin V2.1.6

[CTDB TOCID: E0vq.eTPoRwSO7Nm3ryz9PE.lvU-] foundSubmit result: E0vq.eTPoRwSO7Nm3ryz9PE.lvU- has been submittedTrack | CTDB Status 1 | (3/3) Accurately ripped 2 | (3/3) Accurately ripped 3 | (3/3) Accurately ripped 4 | (3/3) Accurately ripped 5 | (3/3) Accurately ripped 6 | (3/3) Accurately ripped 7 | (0/3) No match 8 | (3/3) Accurately ripped 9 | (0/3) No match 10 | (3/3) Accurately ripped 11 | (3/3) Accurately ripped 12 | (3/3) Accurately ripped 13 | (3/3) Accurately ripped

==== Log checksum E4E3C6D880F1342B2AFDBADD36D4D0780F95D8A6282021719B6624343550CE24 ====

------------------------------------------------------------

Exact Audio Copy V1.2 from 12. August 2016

EAC extraction logfile from 15. June 2017, 5:22

Various Artists / Scooby Doo And The Alien Invaders

Used drive : TSSTcorpCDDVDW TS-L633Y Adapter: 1 ID: 0

Read mode : SecureUtilize accurate stream : YesDefeat audio cache : NoMake use of C2 pointers : No

Read offset correction : 6Overread into Lead-In and Lead-Out : NoFill up missing offset samples with silence : YesDelete leading and trailing silent blocks : NoNull samples used in CRC calculations : YesUsed interface : Installed external ASPI interfaceGap handling : Not detected, thus appended to previous track

Used output format : User Defined EncoderSelected bitrate : 320 kBit/sQuality : HighAdd ID3 tag : NoCommand line compressor : C:\Program Files\FLAC\win64\flac.exeAdditional command line options : -T "artist=%artist%" -T "title=%title%" -T "album=%albumtitle%" -T "date=%year%" -T "tracknumber=%tracknr%" -T "genre=%genre%" -8 %source%

TOC of the extracted CD

Track | Start | Length | Start sector | End sector --------------------------------------------------------- 1 | 0:00.00 | 2:01.60 | 0 | 9134 2 | 2:01.60 | 2:41.10 | 9135 | 21219 3 | 4:42.70 | 3:11.67 | 21220 | 35611 4 | 7:54.62 | 2:14.41 | 35612 | 45702 5 | 10:09.28 | 2:17.49 | 45703 | 56026 6 | 12:27.02 | 3:19.68 | 56027 | 71019 7 | 15:46.70 | 4:03.46 | 71020 | 89290 8 | 19:50.41 | 2:30.71 | 89291 | 100611 9 | 22:21.37 | 2:26.05 | 100612 | 111566 10 | 24:47.42 | 3:15.23 | 111567 | 126214 11 | 28:02.65 | 2:36.10 | 126215 | 137924 12 | 30:39.00 | 2:50.71 | 137925 | 150745 13 | 33:29.71 | 2:20.61 | 150746 | 161306

Track 7

Filename C:\Users\David\Documents\CDs\Scooby Doo\And The Alien Invaders\07 Slime Creatures From Outer Space.wav

Peak level 96.7 % Extraction speed 2.6 X Track quality 100.0 % Copy CRC 322245E4 Accurately ripped (confidence 2) [DE2E7E46] (AR v1) Copy OK

Track 9

Filename C:\Users\David\Documents\CDs\Scooby Doo\And The Alien Invaders\09 Mr. Spaceman.wav

Peak level 97.5 % Extraction speed 2.8 X Track quality 99.9 % Copy CRC 619F0BF1 Accurately ripped (confidence 1) [54B03D81] (AR v2) Copy OK

All tracks accurately ripped

No errors occurred

End of status report

==== Log checksum 1827B340043D2BE5B0BD890B4E78DA6A5A26E915BA2D0508B63CE59977F1401D ====
REM GENRE SoundtrackREM DATE 2000REM DISCID AB08660DREM COMMENT "ExactAudioCopy v1.2"PERFORMER "Various Artists"TITLE "Scooby Doo And The Alien Invaders"REM COMPOSER ""FILE "01 The Aliens Are Here.wav" WAVE TRACK 01 AUDIO TITLE "The Aliens Are Here" PERFORMER "Kip Tabor Lennon" REM COMPOSER "" FLAGS DCP INDEX 01 00:00:00 TRACK 02 AUDIO TITLE "Purple People Eater" PERFORMER "Scott Innes" REM COMPOSER "" FLAGS DCP INDEX 00 02:00:61FILE "02 Purple People Eater.wav" WAVE INDEX 01 00:00:00 TRACK 03 AUDIO TITLE "We Come From Space" PERFORMER "Gary Lionelli" REM COMPOSER "" FLAGS DCP INDEX 00 02:40:12FILE "03 We Come From Space.wav" WAVE INDEX 01 00:00:00 TRACK 04 AUDIO TITLE "The Martian Hop" PERFORMER "Scott Innes" REM COMPOSER "" FLAGS DCP INDEX 00 03:10:69FILE "04 The Martian Hop.wav" WAVE INDEX 01 00:00:00 TRACK 05 AUDIO TITLE "Destination Moon" PERFORMER "Scott Innes" REM COMPOSER "" FLAGS DCP INDEX 00 02:12:41FILE "05 Destination Moon.wav" WAVE INDEX 01 00:00:00 TRACK 06 AUDIO TITLE "The Lost Word" PERFORMER "Scott Innes" REM COMPOSER "" FLAGS DCP INDEX 00 02:16:51FILE "06 The Lost Word.wav" WAVE INDEX 01 00:00:00FILE "07 Slime Creatures From Outer Space.wav" WAVE TRACK 07 AUDIO TITLE "Slime Creatures From Outer Space" PERFORMER "Joe Pizzulo & Gary Falcone" REM COMPOSER "" FLAGS DCP INDEX 01 00:00:00FILE "08 Blast Off!.wav" WAVE TRACK 08 AUDIO TITLE "Blast Off!" PERFORMER "Gary Lionelli" REM COMPOSER "" FLAGS DCP INDEX 01 00:00:00 TRACK 09 AUDIO TITLE "Mr. Spaceman" PERFORMER "Scott Innes" REM COMPOSER "" FLAGS DCP INDEX 00 02:29:72FILE "09 Mr. Spaceman.wav" WAVE INDEX 01 00:00:00FILE "10 Vacuum Cleaner Hoses.wav" WAVE TRACK 10 AUDIO TITLE "Vacuum Cleaner Hoses" PERFORMER "Michael Stanton" REM COMPOSER "" FLAGS DCP INDEX 01 00:00:00 TRACK 11 AUDIO TITLE "How Groovy" PERFORMER "Scott Innes" REM COMPOSER "" FLAGS DCP INDEX 00 03:13:65FILE "11 How Groovy.wav" WAVE INDEX 01 00:00:00 TRACK 12 AUDIO TITLE "Alien Invasion" PERFORMER "Various Artists" REM COMPOSER "" FLAGS DCP INDEX 00 02:34:10FILE "12 Alien Invasion.wav" WAVE INDEX 01 00:00:00 TRACK 13 AUDIO TITLE "Scooby-Doo, Where Are You? (Theme Song)" PERFORMER "Scott Innes" REM COMPOSER "" FLAGS DCP INDEX 00 02:48:71FILE "13 Scooby-Doo, Where Are You (Theme Song).wav" WAVE INDEX 01 00:00:00


Трекер:  [ 24-Сен-2017 15:12 ]

  

Скачать .torrent

Размер .torrent файла 20 KB


Размер: 241 MB
Хэш (hash) релиза: b1db16b5f953f3c158bb7eb4218e639525ce23b0

Еще никто не оставлял запись к записи скачать торрент Скуби-Ду! и Вторжение Инопланетян Scooby-Doo! and The Alien Invaders - 2000, FLAC . Будь первым!

!Обратная связь