Kygo Discography 1Q 2016, [email protected] - BrTN | Play Movie | H. Du Rusquec - Dictionnaire français-breton

Скачать через торрент музыку Kaichou wa Maid-sama! Президент студсовета-горничная! - 2010, FLAC бесплатно без регистрации torrent

Статистика раздачи
Размер:  2.57 GB   |    Зарегистрирован:  10 месяцев   |    .torrent скачан:  10 раз   |   
Раздают:  1  
   
загрузка...
 
Автор Сообщение

Galfimbul

avatar Galfimbul


Kaichou wa Maid-sama!/Президент студсовета-горничная!

<div class="post-box">
Жанр: Anime OST

Год выпуска диска: 2010.

Производитель диска: Япония.

Аудио кодек: FLAC.

Тип рипа: tracs+.cue.

Битрейт аудио: lossless.

Продолжительность: 4 час 28 мин 10 сек.

Трэклист:</div>
[spoiler="2010 - OP Single — My Secret [Mizuno Saaya] [flac+scans]"]
Исполнитель: Mizuno Saaya

Трэклист:

01. My Secret [3:39]

02. Good Day [4:07]

03. Good Day (instrumental) [4:07]

04. My Secret (instrumental) [3:39]

<div class="sp-wrap">
<div class="sp-head folded">EAC log</div>
<div class="sp-body">

EAC 取り込みログファイル 日付 : 28. 5月 2010, 15:39 for CD水野佐彩 / My Secret

使用ドライブ : Optiarc DVD RW AD-7540A Adapter: 1 ID: 0読み込みモード : セキュアモード (C2エラー訂正有り, 正確なデータ転送能力有り, キャッシュ無効)読み込みサンプルオフセット訂正値 : 18リードイン・リードアウトをオーバーリードする : いいえ

使用出力モード : D:\TECH_Win\OnLineSoft 2\エンコーダー\Monkey's Audio\MAC.exe (Monkey's Audio Lossless Encoder) Fast Lossless Compression

その他のオプション : 欠落したオフセットサンプルを無音で補完する : はい 曲の先頭と末端の無音領域を削除する : いいえ Win NT & 2000用のクラスドライバ

範囲取り込みステータス & エラー選択された範囲 ファイル名 D:\TEMP\CDImage.wav

ピークレベル 100.0 % 範囲取り込み品質 100.0 % CRC AFC85D58 コピー OK

エラーは発生しませんでした

ステータス報告完了
[/spoiler]
REM DATA 26.05.2010REM GENRE AnimeTITLE "My Secret"PERFORMER "Mizuno Saaya"CATALOG GNCA-017102FILE "01 My Secret.flac" WAVE TRACK 01 AUDIO TITLE "My Secret" PERFORMER "Mizuno Saaya" ISRC JPPI01050620 INDEX 01 00:00:00FILE "02 Good Day.flac" WAVE TRACK 02 AUDIO TITLE "Good Day" PERFORMER "Mizuno Saaya" ISRC JPPI01050630 PREGAP 00:02:38 INDEX 01 00:00:00FILE "03 My Secret (instrumental).flac" WAVE TRACK 03 AUDIO TITLE "My Secret (instrumental)" PERFORMER "Mizuno Saaya" ISRC JPPI01050629 PREGAP 00:05:16 INDEX 01 00:00:00FILE "04 Good Day (instrumental).flac" WAVE TRACK 04 AUDIO TITLE "Good Day (instrumental)" PERFORMER "Mizuno Saaya" ISRC JPPI01050639 PREGAP 00:02:38 INDEX 01 00:00:00
</div>
</div>
[spoiler="2010 - ED Single - Yokan [heidi.]"]
Исполнитель: [heidi.]

Трэклист:

1. Yokan [3:16]

2. Ikkoku [3:28]

3. Yokan (instrumental) [3:36]

4. Ikkoku (instrumental)[3:16]

------------------------------------

<div class="sp-wrap">
<div class="sp-head folded">EAC log</div>
<div class="sp-body">

EAC 取り込みログファイル 日付 : 28. 5月 2010, 15:09 for CDheidi. / 予感

使用ドライブ : Optiarc DVD RW AD-7540A Adapter: 1 ID: 0読み込みモード : セキュアモード (C2エラー訂正有り, 正確なデータ転送能力有り, キャッシュ無効)読み込みサンプルオフセット訂正値 : 18リードイン・リードアウトをオーバーリードする : いいえ

使用出力モード : D:\TECH_Win\OnLineSoft 2\エンコーダー\Monkey's Audio\MAC.exe (Monkey's Audio Lossless Encoder) Fast Lossless Compression

その他のオプション : 欠落したオフセットサンプルを無音で補完する : はい 曲の先頭と末端の無音領域を削除する : いいえ Win NT & 2000用のクラスドライバ

範囲取り込みステータス & エラー選択された範囲 ファイル名 D:\TEMP\CDImage.wav

ピークレベル 100.0 % 範囲取り込み品質 99.9 % CRC 63EE1A2D コピー OK

エラーは発生しませんでした

ステータス報告完了
[/spoiler]
REM GENRE AnimeREM DATA 26.05.2010TITLE "Yokan"PERFORMER "heidi."CATALOG GNCL-004702FILE "01 Yokan.flac" WAVE TRACK 01 AUDIO TITLE "Yokan" PERFORMER "heidi." ISRC JPPI01000020 INDEX 01 00:00:00FILE "02 Kodama.flac" WAVE TRACK 02 AUDIO TITLE "Kodama" PERFORMER "heidi." ISRC JPPI01000070 PREGAP 00:02:08 INDEX 01 00:00:00FILE "03 Yokan (instrumental).flac" WAVE TRACK 03 AUDIO TITLE "Yokan (instrumental)" PERFORMER "heidi." ISRC JPPI01000040 PREGAP 00:02:07 INDEX 01 00:00:00FILE "04 Kodama (instrumental).flac" WAVE TRACK 04 AUDIO TITLE "Kodama (instrumental)" PERFORMER "heidi." ISRC JPPI01000029 PREGAP 00:02:45 INDEX 01 00:00:00
</div>
</div>
Исполнитель: heidi.

Продолжительность: 00:15:16.

Треклист:

<div class="post-box">01. Mugen Loop.
02. Kasumi.
03. Pain.
04. Mugen Loop (Instrumental).
</div>
<div class="sp-wrap">
<div class="sp-head folded">Lossless Audio Checker Лог</div>
<div class="sp-body">

Lossless Audio Checker 2.0.6 logfile from Tuesday 05 September 2017 07:11:52 PM

File: Q:\Temp\[VCB-Studio] Kaichou wa Maid-Sama! [720p]\CDs\[EAC][100825] ED02 Mugen Loop heidi (flac+jpg)\01 в€ћ Loop.flacResult: Clean

File: Q:\Temp\[VCB-Studio] Kaichou wa Maid-Sama! [720p]\CDs\[EAC][100825] ED02 Mugen Loop heidi (flac+jpg)\02 Kasumi.flacResult: Clean

File: Q:\Temp\[VCB-Studio] Kaichou wa Maid-Sama! [720p]\CDs\[EAC][100825] ED02 Mugen Loop heidi (flac+jpg)\03 Pain.flacResult: Clean

File: Q:\Temp\[VCB-Studio] Kaichou wa Maid-Sama! [720p]\CDs\[EAC][100825] ED02 Mugen Loop heidi (flac+jpg)\04 в€ћ Loop (Instrumental).flacResult: Clean
</div>
</div>
Исполнитель: Fujimura Ayumi & Toyosaki Aki & Asumi Kana & Ueda Kana & Ise Mariya

<div class="post-box">Трэклист: AIMP2: Track List

[04:15] 01. Fujimura Ayumi - Shining Days

[03:45] 02. Asumi Kana - Very Merry-Go-Round

[04:15] 03. Ueda Kana - Ring a Bell

[04:27] 04. Ise Mariya - Groovin'

[03:35] 05. Toyosaki Aki - HANA-UTA

[04:50] 06. Fujimura Ayumi & Toyosaki Aki & Asumi Kana & Ueda Kana & Ise Mariya - Magic of Love</div>

<div class="sp-wrap">
<div class="sp-head folded">Отчёт EAC</div>
<div class="sp-body">

Exact Audio Copy V0.99 prebeta 5 from 4. May 2009

EAC 取り込みログファイル 日付 : 25. 8月 2010, 12:56

- / 会長はメイド様! Maid Latte Songs!

使用ドライブ : PIONEER BD-RW BDR-205 Adapter: 3 ID: 0

読み込みモード : セキュアモードドライブが正確なデータ転送能力を持つ : はいオーディオキャッシュを使用できる : いいえC2エラー情報を検出する : いいえ

読み込みサンプルオフセット訂正値 : 637リードイン・リードアウトをオーバーリードする : はい欠落したオフセットサンプルを無音で補完する : はい曲の先頭と末端の無音領域を削除する : いいえCRC計算で無音のサンプルを使用するか : はい使用インターフェース : Win NT & 2000用のクラスドライバ

使用出力モード : 内蔵WAV出力ルーチンサンプルフォーマット : 44.100 Hz; 16 Bit; ステレオ

TOC情報を抜き出します

トラック | スタート | 長さ | 始めのセクター | 最終セクター ---------------------------------------------------------------- 1 | 0:00.00 | 4:15.30 | 0 | 19154 2 | 4:15.30 | 3:45.25 | 19155 | 36054 3 | 8:00.55 | 4:15.10 | 36055 | 55189 4 | 12:15.65 | 4:27.07 | 55190 | 75221 5 | 16:42.72 | 3:35.41 | 75222 | 91387 6 | 20:18.38 | 4:50.56 | 91388 | 113193

範囲取り込みステータス & エラー

選択された範囲

ファイル名 L:\EAC\会長はメイド様!_Maid Latte Songs! (tak)\会長はメイド様! Maid Latte Songs!.wav

ピークレベル 100.0 % 範囲取り込み品質 100.0 % コピーCRC 62D0B91C コピー OK

エラーは発生しませんでした

ステータス報告完了
REM DISCID 3905E506REM DATA 25.08.2010REM GENRE AnimeREM COMMENT "ExactAudioCopy v0.99pb5"TITLE "Kaichou wa Maid-sama! Maid Latte Songs!"PERFORMER VariousCATALOG GNCA-1266FILE "01 Shining Days.flac" WAVE TRACK 01 AUDIO TITLE "Shining Days" PERFORMER "Ayuzawa Misaki starring Fujimura Ayumi" ISRC JPPI01053020 INDEX 01 00:00:00FILE "02 Very Merry-Go-Round.flac" WAVE TRACK 02 AUDIO TITLE "Very Merry-Go-Round" PERFORMER "Honoka starring Asumi Kana" ISRC JPPI01053030 INDEX 00 00:00:00 INDEX 01 00:03:13FILE "03 Ring a Bell.flac" WAVE TRACK 03 AUDIO TITLE "Ring a Bell" PERFORMER "Subaru starring Ueda Kana" ISRC JPPI01053040 INDEX 00 00:00:00 INDEX 01 00:03:13FILE "04 Groovin'.flac" WAVE TRACK 04 AUDIO TITLE Groovin' PERFORMER "Erika starring Ise Mariya" ISRC JPPI01053050 INDEX 00 00:00:00 INDEX 01 00:03:13FILE "05 HANA-UTA.flac" WAVE TRACK 05 AUDIO TITLE HANA-UTA PERFORMER "Hyoudou Satsuki starring Toyosaki Aki" ISRC JPPI01053060 INDEX 00 00:00:00 INDEX 01 00:03:13FILE "06 Magic of Love.flac" WAVE TRACK 06 AUDIO TITLE "Magic of Love" PERFORMER "Misaki, Honoka, Subaru, Erika, Satsuki starring Fujimura Ayumi, Asumi Kana, Ueda Kana, Ise Mariya, Toyosaki Aki" ISRC JPPI01053070 INDEX 00 00:00:00 INDEX 01 00:04:13
</div>
</div>
Исполнитель: Mizuno Saaya & [heidi & Maeguchi Wataru

Трэклист:

<div class="post-box">1. My Secret (TV size) [1:33]

2. Main Theme [1:52]

3. Subtitle 1 [0:09]

4. Misaki Junchou March [2:01]

5. Hitori ja nai yo [2:18]

6. Susan de BLUES [1:53]

7. Usui Takumi [1:47]

8. Usui no Hikari Kage [1:53]

9. Tokuni Gorgeous [1:55]

10. Boujaku Bujin [1:32]

11. Eyecatch A [0:09]

12. Kore de Koso ja nai ka! [1:46]

13. SAMBA AQUA SKA [2:03]

14. Hageshii ne [1:36]

15. Omotai Kibun [1:39]

16. Douse Konna mon?[1:47]

17. Odayaka na no ga Suki [1:45]

18. Eyecatch B [0:08]

19. Kore wa Kore de Nonki desu [1:31]

20. Makeru mono ka [1:47]

21. Danshi Datte Omoshiroku nai yo [1:30]

22. Furikaette Mitsumete [1:32]

23. Subtitle 2 [0:09]

24. Karuku Gorgeous [1:32]

25. Misaki no Koukousei [1:49]

26. Choushi ni Notteru? [1:50]

27. Kenshou ga Ataru to Yoi na [1:58]

28. Muryoku? Koritsu? [1:42]

29. Soutou Serious [1:36]

30. Sukkiri Kaerimichi [1:26]

31. Isoi de Kaichou [1:44]

32. Tatakai no Yokan [1:37]

33. Kaichou-sama no Otoori da! [1:49]

34. Yasashii Kimochi [1:46]

35. Odayaka na Hibi [1:49]

36. Yokan (TV size) [1:29]

------------------------------------</div>
<div class="sp-wrap">
<div class="sp-head folded">EAC log</div>
<div class="sp-body">
<div class="sp-wrap">
<div class="sp-head folded">EAC_1st-pass_log</div>
<div class="sp-body">

EAC 展開 ログファイル 日付: 1. 7月 2010, 22:22 for CDVarious / 会長はメイド様! オリジナル・サウンドトラック

使用ドライブ : PLEXTOR CD-R PREMIUM Adapter: 1 ID: 1読み込みモード : セキュア(C2 : YES / 正確なデータ転送力 : YES / キャッシュ無効 : YES)読み込みオフセット訂正値 : 0リードインとリードアウトをオーバーリードする : Yes

使用出力フォーマット : 内部 WAV ルーチン 44.100 Hz; 16 Bit; ステレオ

その他のオプション : 消失したオフセットサンプルを無音に置き換える : Yes 曲の先頭と末尾の無音部を削除する : No 標準 Win32 の Win NT & 2000 用

展開範囲ステータスとエラー選択された範囲 ファイル名 E:\編集・作業用\Exact Audio Copy\1st-pass (PX-W5232TA・Premium2専用)\会長はメイド様! オリジナル・サウンドトラック\kaicho_ha_maid_sama_ost.wav

ピークレベル 100.0 % 選択範囲品質 100.0 % CRC B579D1FE コピー OK

エラーは検出されませんでした

ステータスの報告終了
EAC 展開 ログファイル 日付: 1. 7月 2010, 22:45 for CDVarious / 会長はメイド様! オリジナル・サウンドトラック

使用ドライブ : HL-DT-STDVDRAM GSA-H10A Adapter: 1 ID: 0読み込みモード : セキュア(C2 : YES / 正確なデータ転送力 : YES / キャッシュ無効 : NO)読み込みオフセット訂正値 : 637リードインとリードアウトをオーバーリードする : No

使用出力フォーマット : 内部 WAV ルーチン 44.100 Hz; 16 Bit; ステレオ

その他のオプション : 消失したオフセットサンプルを無音に置き換える : Yes 曲の先頭と末尾の無音部を削除する : No 標準 Win32 の Win NT & 2000 用

展開範囲ステータスとエラー選択された範囲 ファイル名 E:\編集・作業用\Exact Audio Copy\2nd-pass (CRCチェック用)\会長はメイド様! オリジナル・サウンドトラック\temp.wav

ピークレベル 100.0 % 選択範囲品質 100.0 % CRC B579D1FE コピー OK

エラーは検出されませんでした

ステータスの報告終了
</div>
</div>
REM GENRE SoundtrackREM DATE 23.06.2010CATALOG GNCA-1268TITLE "Kaichou wa Maid-sama! Original Soundtrack"FILE "Kaichou wa Maid-sama! Original Soundtrack.flac" WAVE TRACK 01 AUDIO TITLE "My Secret (TV size)" PERFORMER "Mizuno Saaya" ISRC JPPI01051810 INDEX 01 00:00:00 TRACK 02 AUDIO TITLE "Main Theme" PERFORMER "Maeguchi Wataru" ISRC JPPI01051820 INDEX 00 01:31:53 INDEX 01 01:33:66 TRACK 03 AUDIO TITLE "Subtitle 1" PERFORMER "Maeguchi Wataru" ISRC JPPI01051830 INDEX 00 03:25:34 INDEX 01 03:26:47 TRACK 04 AUDIO TITLE "Misaki Junchou March" PERFORMER "Maeguchi Wataru" ISRC JPPI01051840 INDEX 00 03:34:42 INDEX 01 03:35:55 TRACK 05 AUDIO TITLE "Hitori ja Nai yo" PERFORMER "Maeguchi Wataru" ISRC JPPI01051850 INDEX 00 05:36:07 INDEX 01 05:37:20 TRACK 06 AUDIO TITLE "Susan de BLUES" PERFORMER "Maeguchi Wataru" ISRC JPPI01051860 INDEX 00 07:54:48 INDEX 01 07:55:61 TRACK 07 AUDIO TITLE "Usui Takumi" PERFORMER "Maeguchi Wataru" ISRC JPPI01051870 INDEX 00 09:48:24 INDEX 01 09:49:37 TRACK 08 AUDIO TITLE "Usui no Hikri no Kage" PERFORMER "Maeguchi Wataru" ISRC JPPI01051880 INDEX 00 11:35:31 INDEX 01 11:36:44 TRACK 09 AUDIO TITLE "Toki ni Gorgeous" PERFORMER "Maeguchi Wataru" ISRC JPPI01051890 INDEX 00 13:28:38 INDEX 01 13:29:51 TRACK 10 AUDIO TITLE "Boujakubujin" PERFORMER "Maeguchi Wataru" ISRC JPPI01051900 INDEX 00 15:23:59 INDEX 01 15:24:72 TRACK 11 AUDIO TITLE "Eye-catch A" PERFORMER "Maeguchi Wataru" ISRC JPPI01051910 INDEX 00 16:56:17 INDEX 01 16:57:30 TRACK 12 AUDIO TITLE "Kore de Koso ja Nai ka!" PERFORMER "Maeguchi Wataru" ISRC JPPI01051920 INDEX 00 17:05:29 INDEX 01 17:06:42 TRACK 13 AUDIO TITLE "SAMBA AQUA SKA" PERFORMER "Maeguchi Wataru" ISRC JPPI01051930 INDEX 00 18:51:38 INDEX 01 18:52:51 TRACK 14 AUDIO TITLE "Hageshii ne" PERFORMER "Maeguchi Wataru" ISRC JPPI01051940 INDEX 00 20:54:52 INDEX 01 20:55:65 TRACK 15 AUDIO TITLE "Omoitai Kibun" PERFORMER "Maeguchi Wataru" ISRC JPPI01051950 INDEX 00 22:30:51 INDEX 01 22:31:64 TRACK 16 AUDIO TITLE "Douse konna mon?" PERFORMER "Maeguchi Wataru" ISRC JPPI01051960 INDEX 00 24:09:58 INDEX 01 24:10:71 TRACK 17 AUDIO TITLE "Odayaka na no ga Suki" PERFORMER "Maeguchi Wataru" ISRC JPPI01051970 INDEX 00 25:57:19 INDEX 01 25:58:32 TRACK 18 AUDIO TITLE "Eye-catch B" PERFORMER "Maeguchi Wataru" ISRC JPPI01051980 INDEX 00 27:42:41 INDEX 01 27:43:54 TRACK 19 AUDIO TITLE "Kore wa Kore de Nonki Desu" PERFORMER "Maeguchi Wataru" ISRC JPPI01051990 INDEX 00 27:51:02 INDEX 01 27:52:15 TRACK 20 AUDIO TITLE "Makerumono ka" PERFORMER "Maeguchi Wataru" ISRC JPPI01052000 INDEX 00 29:22:24 INDEX 01 29:23:37 TRACK 21 AUDIO TITLE "Onoko Datte Omoshirokunai yo" PERFORMER "Maeguchi Wataru" ISRC JPPI01052010 INDEX 00 31:09:42 INDEX 01 31:10:55 TRACK 22 AUDIO TITLE "Furikaette Mitsumete" PERFORMER "Maeguchi Wataru" ISRC JPPI01052020 INDEX 00 32:39:60 INDEX 01 32:40:73 TRACK 23 AUDIO TITLE "Subtitle 2" PERFORMER "Maeguchi Wataru" ISRC JPPI01052030 INDEX 00 34:12:54 INDEX 01 34:13:67 TRACK 24 AUDIO TITLE "Karuku Gorgeous" PERFORMER "Maeguchi Wataru" ISRC JPPI01052040 INDEX 00 34:21:54 INDEX 01 34:22:67 TRACK 25 AUDIO TITLE "Misaki mo Koukousei" PERFORMER "Maeguchi Wataru" ISRC JPPI01052050 INDEX 00 35:54:30 INDEX 01 35:55:43 TRACK 26 AUDIO TITLE "Joushi ni Notteru?" PERFORMER "Maeguchi Wataru" ISRC JPPI01052060 INDEX 00 37:43:47 INDEX 01 37:44:60 TRACK 27 AUDIO TITLE "Kenshou ga Ataruto Yoi na" PERFORMER "Maeguchi Wataru" ISRC JPPI01052070 INDEX 00 39:34:22 INDEX 01 39:35:35 TRACK 28 AUDIO TITLE "Muryoku? Koritsu?" PERFORMER "Maeguchi Wataru" ISRC JPPI01052080 INDEX 00 41:33:15 INDEX 01 41:34:28 TRACK 29 AUDIO TITLE "Soutou Serious" PERFORMER "Maeguchi Wataru" ISRC JPPI01052090 INDEX 00 43:15:66 INDEX 01 43:17:04 TRACK 30 AUDIO TITLE "Sukkiri Kaerimichi" PERFORMER "Maeguchi Wataru" ISRC JPPI01052100 INDEX 00 44:52:12 INDEX 01 44:53:25 TRACK 31 AUDIO TITLE "Isoide Kaichou" PERFORMER "Maeguchi Wataru" ISRC JPPI01052110 INDEX 00 46:18:48 INDEX 01 46:19:61 TRACK 32 AUDIO TITLE "Tatakai no Yokan" PERFORMER "Maeguchi Wataru" ISRC JPPI01052120 INDEX 00 48:02:73 INDEX 01 48:04:11 TRACK 33 AUDIO TITLE "Kaichou-sama no Otoori da!" PERFORMER "Maeguchi Wataru" ISRC JPPI01052130 INDEX 00 49:40:51 INDEX 01 49:41:64 TRACK 34 AUDIO TITLE "Yasashi Kimochi" PERFORMER "Maeguchi Wataru" ISRC JPPI01052140 INDEX 00 51:29:48 INDEX 01 51:30:61 TRACK 35 AUDIO TITLE "Odayaka na Hibi" PERFORMER "Maeguchi Wataru" ISRC JPPI01052150 INDEX 00 53:15:69 INDEX 01 53:17:07 TRACK 36 AUDIO TITLE "Yokan (TV Size)" PERFORMER "heidi." ISRC JPPI01052160 INDEX 00 55:04:24 INDEX 01 55:06:37
</div>
</div>
[spoiler="2010 - Character Concept CD 01 - School Side- [w scans] (FLAC)"]
Исполнитель: Various Artists: Sakura Hanazono & Shizuko Kaga starring Kana Hanazawa & Yu Kobayashi, Misaki Ayuzawa starring Ayumi Fujimura

Трэклист:

<div class="post-box">AIMP2: Track List
[01:17] 01. Various Artists - "Utau! Maid-sama" Prologue

[04:14] 02. Sakura Hanazono & Shizuko Kaga starring Kana Hanazawa & Yu Kobayashi - Koibana

[14:47] 03. Various Artists - "Utau! Maid-sama"

[03:59] 04. Misaki Ayuzawa starring Ayumi Fujimura - Never Give Up!

[00:32] 05. Various Artists - "Utau! Maid-sama" Epilogue

[04:14] 06. Instrumental - Koibana (INST)

[03:57] 07. Instrumental - Never Give Up! (INST)

</div>
<div class="sp-wrap">
<div class="sp-head folded">Лог EAC</div>
<div class="sp-body">

Exact Audio Copy V0.99 prebeta 5 from 4. May 2009

EAC 取り込みログファイル 日付 : 10. 7月 2010, 9:39

- / 会長はメイド様! キャラクターコンセプトCD:01 -School Side-

使用ドライブ : PIONEER BD-RW BDR-205 Adapter: 3 ID: 0

読み込みモード : セキュアモードドライブが正確なデータ転送能力を持つ : はいオーディオキャッシュを使用できる : いいえC2エラー情報を検出する : いいえ

読み込みサンプルオフセット訂正値 : 637リードイン・リードアウトをオーバーリードする : はい欠落したオフセットサンプルを無音で補完する : はい曲の先頭と末端の無音領域を削除する : いいえCRC計算で無音のサンプルを使用するか : はい使用インターフェース : Win NT & 2000用のクラスドライバ

使用出力モード : 内蔵WAV出力ルーチンサンプルフォーマット : 44.100 Hz; 16 Bit; ステレオ

TOC情報を抜き出します

トラック | スタート | 長さ | 始めのセクター | 最終セクター ---------------------------------------------------------------- 1 | 0:00.00 | 1:17.17 | 0 | 5791 2 | 1:17.17 | 4:14.35 | 5792 | 24876 3 | 5:31.52 | 14:47.62 | 24877 | 91463 4 | 20:19.39 | 3:59.16 | 91464 | 109404 5 | 24:18.55 | 0:32.15 | 109405 | 111819 6 | 24:50.70 | 4:13.73 | 111820 | 130867 7 | 29:04.68 | 3:57.40 | 130868 | 148682

範囲取り込みステータス & エラー

選択された範囲

ファイル名 L:\EAC\会長はメイド様!_キャラクターコンセプトCD:01 -School Side- (tak)\会長はメイド様! キャラクターコンセプトCD:01 -School Side-.wav

ピークレベル 100.0 % 範囲取り込み品質 100.0 % コピーCRC F46AA7D0 コピー OK

エラーは発生しませんでした

ステータス報告完了
[/spoiler]
REM DISCID 4E07BE07REM COMMENT "ExactAudioCopy v0.99pb5"CATALOG 4988102657925PERFORMER ""TITLE "会長はメイド様! キャラクターコンセプトCD:01 -School Side-"FILE "会長はメイド様! キャラクターコンセプトCD:01 -School Side-.flac" WAVE TRACK 01 AUDIO TITLE "「歌う!メイド様」Prologue" PERFORMER "" ISRC JPPI01051430 INDEX 01 00:00:00 TRACK 02 AUDIO TITLE "♪恋花" PERFORMER "花園さくら&加賀しず子 starring 花澤香菜&小林ゆう" ISRC JPPI01051420 INDEX 00 01:16:33 INDEX 01 01:17:17 TRACK 03 AUDIO TITLE "「歌う!メイド様」" PERFORMER "" ISRC JPPI01051450 INDEX 00 05:29:02 INDEX 01 05:31:52 TRACK 04 AUDIO TITLE "♪Never Give Up!" PERFORMER "鮎沢美咲 starring 藤村歩" ISRC JPPI01051410 INDEX 00 20:18:66 INDEX 01 20:19:39 TRACK 05 AUDIO TITLE "「歌う!メイド様」Epilogue" PERFORMER "" ISRC JPPI01051440 INDEX 00 24:17:03 INDEX 01 24:18:55 TRACK 06 AUDIO TITLE "♪恋花(INST)" PERFORMER "" ISRC JPPI01051429 INDEX 00 24:47:57 INDEX 01 24:50:70 TRACK 07 AUDIO TITLE "♪Never Give Up!(INST)" PERFORMER "" ISRC JPPI01051419 INDEX 00 29:02:55 INDEX 01 29:04:68
</div>
</div>
[spoiler="2010 - Character Concept CD 02 -Maid Side- [w scans] (FLAC"]
<div class="post-box">Исполнитель: Various Artists: Aoi Hyoudou starring Hiromi Igarashi, Misaki Ayuzawa starring Ayumi Fujimura

Трэклист:

[00:31] 01. Various Artists - "Tatakau! Maid-sama" Prologue

[03:33] 02. Aoi Hyoudou starring Hiromi Igarashi - Butterfly

[16:46] 03. Various Artists - "Tatakau! Maid-sama"

[03:55] 04. Misaki Ayuzawa starring Ayumi Fujimura - Be Myself

[00:25] 05. Various Artists - "Tatakau! Maid-sama" Epilogue

[03:33] 06. Instrumental - Butterfly (INST)

[03:53] 07. Instrumental - Be Myself (INST)</div>

<div class="sp-wrap">
<div class="sp-head folded">Лог EAC</div>
<div class="sp-body">

Exact Audio Copy V0.99 prebeta 5 from 4. May 2009

EAC 取り込みログファイル 日付 : 10. 7月 2010, 9:43

- / 会長はメイド様! キャラクターコンセプトCD:02 -Maid Side-

使用ドライブ : PIONEER BD-RW BDR-205 Adapter: 3 ID: 0

読み込みモード : セキュアモードドライブが正確なデータ転送能力を持つ : はいオーディオキャッシュを使用できる : いいえC2エラー情報を検出する : いいえ

読み込みサンプルオフセット訂正値 : 637リードイン・リードアウトをオーバーリードする : はい欠落したオフセットサンプルを無音で補完する : はい曲の先頭と末端の無音領域を削除する : いいえCRC計算で無音のサンプルを使用するか : はい使用インターフェース : Win NT & 2000用のクラスドライバ

使用出力モード : 内蔵WAV出力ルーチンサンプルフォーマット : 44.100 Hz; 16 Bit; ステレオ

TOC情報を抜き出します

トラック | スタート | 長さ | 始めのセクター | 最終セクター ---------------------------------------------------------------- 1 | 0:00.00 | 0:31.12 | 0 | 2336 2 | 0:31.12 | 3:33.40 | 2337 | 18351 3 | 4:04.52 | 16:46.01 | 18352 | 93802 4 | 20:50.53 | 3:55.12 | 93803 | 111439 5 | 24:45.65 | 0:25.22 | 111440 | 113336 6 | 25:11.12 | 3:33.18 | 113337 | 129329 7 | 28:44.30 | 3:53.34 | 129330 | 146838

範囲取り込みステータス & エラー

選択された範囲

ファイル名 L:\EAC\会長はメイド様!_キャラクターコンセプトCD:02 -Maid Side- (tak)\会長はメイド様! キャラクターコンセプトCD:02 -Maid Side-.wav

ピークレベル 100.0 % 範囲取り込み品質 99.9 % コピーCRC E8C7B4BC コピー OK

エラーは発生しませんでした

ステータス報告完了
[/spoiler]
REM DISCID 4C07A507REM COMMENT "ExactAudioCopy v0.99pb5"CATALOG 4988102658823PERFORMER ""TITLE "会長はメイド様! キャラクターコンセプトCD:02 -Maid Side-"FILE "会長はメイド様! キャラクターコンセプトCD:02 -Maid Side-.flac" WAVE TRACK 01 AUDIO TITLE "「戦う!メイド様」Prologue" PERFORMER "" ISRC JPPI01051760 INDEX 01 00:00:00 TRACK 02 AUDIO TITLE "♪Butterfly" PERFORMER "兵藤葵 starring 五十嵐裕美" ISRC JPPI01051730 INDEX 00 00:30:52 INDEX 01 00:31:12 TRACK 03 AUDIO TITLE "「戦う!メイド様」" PERFORMER "" ISRC JPPI01051750 INDEX 00 04:02:63 INDEX 01 04:04:52 TRACK 04 AUDIO TITLE "♪Be Myself" PERFORMER "鮎沢美咲 starring 藤崎歩" ISRC JPPI01051740 INDEX 00 20:50:16 INDEX 01 20:50:53 TRACK 05 AUDIO TITLE "「戦う!メイド様」Epilogue" PERFORMER "" ISRC JPPI01051770 INDEX 00 24:44:13 INDEX 01 24:45:65 TRACK 06 AUDIO TITLE "♪Butterfly(INST)" PERFORMER "" ISRC JPPI01051739 INDEX 00 25:08:32 INDEX 01 25:11:12 TRACK 07 AUDIO TITLE "♪Be Myself(INST)" PERFORMER "" ISRC JPPI01051749 INDEX 00 28:42:63 INDEX 01 28:44:30
</div>
</div>
Исполнитель: Various-Toyosaki Aki & Asumi Kana

Трэклист:

<div class="post-box">[01:05] 01. Various - "Mousouru! Maid-sama" Prologue

[03:44] 02. Toyosaki Aki & Asumi Kana - My Sweet Home

[14:11] 03. Various - "Mousouru! Maid-sama"

[03:32] 04. Toyosaki Aki & Asumi Kana - Sha Bon Da Ma

[00:29] 05. Various - "Mousouru! Maid-sama" Epilogue

[03:44] 06. Toyosaki Aki & Asumi Kana - My Sweet Home (INST)

[03:32] 07. Toyosaki Aki & Asumi Kana - Sha Bon Da Ma (INST)

[01:37] 08. Various - "Mousouru! Maid-sama" Extra Epilogue

</div>
<div class="sp-wrap">
<div class="sp-head folded">Сканы</div>
<div class="sp-body">
Exact Audio Copy V0.99 prebeta 5 from 4. May 2009

EAC 取り込みログファイル 日付 : 23. 7月 2010, 13:16

- / 会長はメイド様! キャラクターコンセプトCD:03 -Maid Side2-

使用ドライブ : PIONEER BD-RW BDR-205 Adapter: 3 ID: 0

読み込みモード : セキュアモードドライブが正確なデータ転送能力を持つ : はいオーディオキャッシュを使用できる : いいえC2エラー情報を検出する : いいえ

読み込みサンプルオフセット訂正値 : 637リードイン・リードアウトをオーバーリードする : はい欠落したオフセットサンプルを無音で補完する : はい曲の先頭と末端の無音領域を削除する : いいえCRC計算で無音のサンプルを使用するか : はい使用インターフェース : Win NT & 2000用のクラスドライバ

使用出力モード : 内蔵WAV出力ルーチンサンプルフォーマット : 44.100 Hz; 16 Bit; ステレオ

TOC情報を抜き出します

トラック | スタート | 長さ | 始めのセクター | 最終セクター ---------------------------------------------------------------- 1 | 0:00.00 | 1:05.34 | 0 | 4908 2 | 1:05.34 | 3:44.04 | 4909 | 21712 3 | 4:49.38 | 14:11.53 | 21713 | 85590 4 | 19:01.16 | 3:32.05 | 85591 | 101495 5 | 22:33.21 | 0:29.07 | 101496 | 103677 6 | 23:02.28 | 3:44.31 | 103678 | 120508 7 | 26:46.59 | 3:32.62 | 120509 | 136470 8 | 30:19.46 | 1:37.06 | 136471 | 143751

範囲取り込みステータス & エラー

選択された範囲

ファイル名 L:\EAC\会長はメイド様!_キャラクターコンセプトCD:03 -Maid Side2- (tak)\会長はメイド様! キャラクターコンセプトCD:03 -Maid Side2-.wav

ピークレベル 100.0 % 範囲取り込み品質 99.9 % コピーCRC 90BB3B04 コピー OK

エラーは発生しませんでした

ステータス報告完了
REM GENRE AnimeREM DATA 22.07.2010REM DISCID 5D077C08REM COMMENT "ExactAudioCopy v0.99pb5"TITLE "会長はメイド様! キャラクターコンセプトCD:03 -Maid Side2-"PERFORMER "Various"CATALOG GNCA-1263FILE "01 Mousouru! Maid-sama Prologue.flac" WAVE TRACK 01 AUDIO TITLE "「妄想る!メイド様」Prologue" PERFORMER "Various" ISRC JPPI01052260 INDEX 01 00:00:00FILE "02 My Sweet Home.flac" WAVE TRACK 02 AUDIO TITLE "♪My Sweet Home" PERFORMER "さつき starring 豊崎愛生" ISRC JPPI01052300 INDEX 00 00:00:00 INDEX 01 00:00:71FILE "03 Mousouru! Maid-sama.flac" WAVE TRACK 03 AUDIO TITLE "「妄想る!メイド様」" PERFORMER "Various" ISRC JPPI01052270 INDEX 00 00:00:00 INDEX 01 00:01:41FILE "04 Shabon Dama.flac" WAVE TRACK 04 AUDIO TITLE "♪しゃ・ぼん・だ・ま" PERFORMER "ほのか starring 阿澄佳奈" ISRC JPPI01052310 INDEX 00 00:00:00 INDEX 01 00:01:00FILE "05 Mousouru! Maid-sama Epilogue.flac" WAVE TRACK 05 AUDIO TITLE "「妄想る!メイド様」Epilogue" PERFORMER "Various" ISRC JPPI01052280 INDEX 00 00:00:00 INDEX 01 00:01:61FILE "06 My Sweet Home (INST).flac" WAVE TRACK 06 AUDIO TITLE "♪My Sweet Home (INST)" PERFORMER "さつき starring 豊崎愛生" ISRC JPPI01052309 INDEX 00 00:00:00 INDEX 01 00:03:15FILE "07 Shabon Dama (INST).flac" WAVE TRACK 07 AUDIO TITLE "♪しゃ・ぼん・だ・ま (INST)" PERFORMER "ほのか starring 阿澄佳奈" ISRC JPPI01052319 INDEX 00 00:00:00 INDEX 01 00:01:68FILE "08 Mousouru! Maid-sama Extra Epilogue.flac" WAVE TRACK 08 AUDIO TITLE "「妄想る!メイド様」Extra Epilogue" PERFORMER "Various" ISRC JPPI01052290
</div>
</div>
Исполнитель: Various-Ichiki Mitsuhiro & Terashima Takuma & Hosoya Yoshimasa & Okamoto Nobuhiko

Трэклист:

<div class="post-box">[03:21] 01. Ichiki Mitsuhiro & Terashima Takuma & Hosoya Yoshimasa - Don't Cry VACA

[11:09] 02. Various - "Sennyuu! Shinya no Maid Latte!"

[03:45] 03. Okamoto Nobuhiko - Promise

[01:21] 04. Various - "Sennyuu! Shinya no Maid Latte!" Epilogue

[03:17] 05. Ichiki Mitsuhiro & Terashima Takuma & Hosoya Yoshimasa - Don't Cry VACA (INST)

[03:43] 06. Okamoto Nobuhiko - Promise (INST)

</div>

<div class="sp-wrap">
<div class="sp-head folded">Сканы</div>
<div class="sp-body">
Exact Audio Copy V0.99 prebeta 5 from 4. May 2009

EAC 取り込みログファイル 日付 : 23. 7月 2010, 13:21

- / 会長はメイド様! キャラクターコンセプトCD:04 -Another Side-

使用ドライブ : PIONEER BD-RW BDR-205 Adapter: 3 ID: 0

読み込みモード : セキュアモードドライブが正確なデータ転送能力を持つ : はいオーディオキャッシュを使用できる : いいえC2エラー情報を検出する : いいえ

読み込みサンプルオフセット訂正値 : 637リードイン・リードアウトをオーバーリードする : はい欠落したオフセットサンプルを無音で補完する : はい曲の先頭と末端の無音領域を削除する : いいえCRC計算で無音のサンプルを使用するか : はい使用インターフェース : Win NT & 2000用のクラスドライバ

使用出力モード : 内蔵WAV出力ルーチンサンプルフォーマット : 44.100 Hz; 16 Bit; ステレオ

TOC情報を抜き出します

トラック | スタート | 長さ | 始めのセクター | 最終セクター ---------------------------------------------------------------- 1 | 0:00.00 | 3:21.26 | 0 | 15100 2 | 3:21.26 | 11:09.70 | 15101 | 65345 3 | 14:31.21 | 3:45.61 | 65346 | 82281 4 | 18:17.07 | 1:21.27 | 82282 | 88383 5 | 19:38.34 | 3:17.24 | 88384 | 103182 6 | 22:55.58 | 3:43.63 | 103183 | 119970

範囲取り込みステータス & エラー

選択された範囲

ファイル名 L:\EAC\会長はメイド様!_キャラクターコンセプトCD:04 -Another Side- (tak)\会長はメイド様! キャラクターコンセプトCD:04 -Another Side-.wav

ピークレベル 100.0 % 範囲取り込み品質 100.0 % コピーCRC 0462174F コピー OK

エラーは発生しませんでした

ステータス報告完了
REM DATA 22.07.2010REM GENRE AnimeREM DISCID 48063F06REM COMMENT "ExactAudioCopy v0.99pb5"TITLE "会長はメイド様! キャラクターコンセプトCD:04 -Another Side-"PERFORMER VariousCATALOG GNCA-1264FILE "01 Don't Cry VACA.flac" WAVE TRACK 01 AUDIO TITLE "Don't Cry VACA" PERFORMER "3バカオールスターズ starring 市来光弘, 寺島拓篤, 細谷佳正" ISRC JPPI01052320 INDEX 01 00:00:00FILE "02 Sennyuu! Shinya no Maid Latte!.flac" WAVE TRACK 02 AUDIO TITLE "「潜入!深夜のメイド・ラテ!」" PERFORMER Various ISRC JPPI01052340 INDEX 00 00:00:00 INDEX 01 00:01:67FILE "03 Promise.flac" WAVE TRACK 03 AUDIO TITLE "Promise" PERFORMER "碓氷拓海 starring 岡本信彦" ISRC JPPI01052330 INDEX 00 00:00:00 INDEX 01 00:00:61FILE "04 Sennyuu! Shinya no Maid Latte! Epilogue.flac" WAVE TRACK 04 AUDIO TITLE "「潜入!深夜のメイド・ラテ!」Epilogue" PERFORMER Various ISRC JPPI01052360 INDEX 00 00:00:00 INDEX 01 00:01:73FILE "05 Don't Cry VACA (INST).flac" WAVE TRACK 05 AUDIO TITLE "Don't Cry VACA (INST)" PERFORMER "3バカオールスターズ starring 市来光弘, 寺島拓篤, 細谷佳正" ISRC JPPI01052329 INDEX 00 00:00:00 INDEX 01 00:02:40FILE "06 Promise (INST).flac" WAVE TRACK 06 AUDIO TITLE "Promise (INST)" PERFORMER "碓氷拓海 starring 岡本信彦" ISRC JPPI01052339 INDEX 00 00:00:00 INDEX 01 00:01:64
</div>
</div>
Исполнитель: Various: Shiibashi Kazuyoshi & Abe Atsushi

Трэклист:

AIMP2: Track List

<div class="post-box">[00:37] 01. Various - "Otoko Darake no Shitsuji Karaoke" Prologue

[04:07] 02. Shiibashi Kazuyoshi - Zenryoku Koushinkyoku

[15:06] 03. Various - "Otoko Darake no Shitsuji Karaoke"

[04:22] 04. Abe Atsushi - Cherry

[00:58] 05. Various - "Otoko Darake no Shitsuji Karaoke" Epilogue

[04:07] 06. Shiibashi Kazuyoshi - Zenryoku Koushinkyoku (INST)

[04:20] 07. Abe Atsushi - Cherry (INST)

</div>

<div class="sp-wrap">
<div class="sp-head folded">Отчёт EAC</div>
<div class="sp-body">

Exact Audio Copy V0.99 prebeta 5 from 4. May 2009

EAC 取り込みログファイル 日付 : 25. 8月 2010, 13:01

- / 会長はメイド様! キャラクターコンセプトCD:05 -Another Side2-

使用ドライブ : PIONEER BD-RW BDR-205 Adapter: 3 ID: 0

読み込みモード : セキュアモードドライブが正確なデータ転送能力を持つ : はいオーディオキャッシュを使用できる : いいえC2エラー情報を検出する : いいえ

読み込みサンプルオフセット訂正値 : 637リードイン・リードアウトをオーバーリードする : はい欠落したオフセットサンプルを無音で補完する : はい曲の先頭と末端の無音領域を削除する : いいえCRC計算で無音のサンプルを使用するか : はい使用インターフェース : Win NT & 2000用のクラスドライバ

使用出力モード : 内蔵WAV出力ルーチンサンプルフォーマット : 44.100 Hz; 16 Bit; ステレオ

TOC情報を抜き出します

トラック | スタート | 長さ | 始めのセクター | 最終セクター ---------------------------------------------------------------- 1 | 0:00.00 | 0:37.11 | 0 | 2785 2 | 0:37.11 | 4:07.05 | 2786 | 21315 3 | 4:44.16 | 15:06.49 | 21316 | 89314 4 | 19:50.65 | 4:22.19 | 89315 | 108983 5 | 24:13.09 | 0:58.55 | 108984 | 113388 6 | 25:11.64 | 4:07.22 | 113389 | 131935 7 | 29:19.11 | 4:20.19 | 131936 | 151454

範囲取り込みステータス & エラー

選択された範囲

ファイル名 L:\EAC\会長はメイド様!_キャラクターコンセプトCD:05 -Another Side2- (tak)\会長はメイド様! キャラクターコンセプトCD:05 -Another Side2-.wav

ピークレベル 100.0 % 範囲取り込み品質 100.0 % コピーCRC 7D9298AB コピー OK

エラーは発生しませんでした

ステータス報告完了
REM DISCID 5307E307REM GENRE AnimeREM DATA 25.08.2010REM COMMENT "ExactAudioCopy v0.99pb5"TITLE "Kaichou wa Maid-sama! Character Concept CD:05 Another Side 2"PERFORMER VariousCATALOG GNCA-1265FILE "01 Otoko Darake no Shitsuji Karaoke Prologue.flac" WAVE TRACK 01 AUDIO TITLE "Otoko Darake no Shitsuji Karaoke Prologue" PERFORMER Various ISRC JPPI01052970 INDEX 01 00:00:00FILE "02 Zenryoku Koushinkyoku.flac" WAVE TRACK 02 AUDIO TITLE "Zenryoku Koushinkyoku" PERFORMER "Yukimura Shouichirou starring Shiibashi Kazuyoshi" ISRC JPPI01053000 INDEX 00 00:00:00 INDEX 01 00:00:58FILE "03 Otoko Darake no Shitsuji Karaoke.flac" WAVE TRACK 03 AUDIO TITLE "Otoko Darake no Shitsuji Karaoke" PERFORMER Various ISRC JPPI01052980 INDEX 00 00:00:00 INDEX 01 00:02:13FILE "04 Cherry.flac" WAVE TRACK 04 AUDIO TITLE Cherry PERFORMER "Shintani Hinata starring Abe Atsushi" ISRC JPPI01053010 INDEX 00 00:00:00 INDEX 01 00:00:47FILE "05 Otoko Darake no Shitsuji Karaoke Epilogue.flac" WAVE TRACK 05 AUDIO TITLE "Otoko Darake no Shitsuji Karaoke Epilogue" PERFORMER Various ISRC JPPI01052990 INDEX 00 00:00:00 INDEX 01 00:02:00FILE "06 Zenryoku Koushinkyoku (INST).flac" WAVE TRACK 06 AUDIO TITLE "Zenryoku Koushinkyoku (INST)" PERFORMER "Yukimura Shouichirou starring Shiibashi Kazuyoshi" ISRC JPPI01053009 INDEX 00 00:00:00 INDEX 01 00:02:27FILE "07 Cherry (INST).flac" WAVE TRACK 07 AUDIO TITLE "Cherry (INST)" PERFORMER "Shintani Hinata starring Abe Atsushi" ISRC JPPI01053019 INDEX 00 00:00:00 INDEX 01 00:02:29
</div>
</div>
Исполнитель: Varios Artists.

Продолжительность: 00:56:31.

Треклист:

<div class="post-box">01 Eikokufuu ni Afternoon Tea (Violin Solo)
02 Odayaka Seika Koukou 2:04
03 Miyabigaoka no Igarashi Tora 1:59
04 Net Idol AOI-chan 1:47
05 Jishou-tte Iu na! 1:44
06 Jitsu wa Otokonoko Nandesu 2:09
07 Moe no Hanasaita? 1:45
08 Maid Latte Eigyouchuu 1:20
09 Yumemiru 16~17 Sai 1:37
10 Kokoro Yureteru 1:47
11 Me wo Sorasanaide Kudasai 1:42
12 Kore ga Suspense 2:03
13 Igai to Nichijou Fuukei 1:42
14 Umibe no Maid Latte 1:15
15 Munekyun de Happy Nanda yo 1:41
16 Seitokaichou-tte Oni da ne 1:53
17 Tama ni wa Hansei Mode de 2:08
18 Maa, Iinjanaika? 2:07
19 Yaruki Aura Zenkai 1:46
20 Tomadoi Mayotte Ugokenai 2:03
21 Kakkoii desho? 2:02
22 Yoyuu Kamashite 1:39
23 Yasai Bakka Kajicchotta 1:37
24 Ouji-sama to Ohime-sama 1:40
25 Kuishinbou You-kun 2:09
26 Kirakira Okiniiri no Mainichi 1:56
27 Yuuga na Ikemen Hentai Uchuujin 2:14
28 Tasukeai desho? 2:04
29 Chiisai Koro kara Misaki wa Misaki 2:25
30 Eikokufuu ni Afternoon Tea 2:08
31 ∞ Loop (TV size) 2:05
</div>
<div class="sp-wrap">
<div class="sp-head folded">EAC_CD_Rip_1st-pass</div>
<div class="sp-body">

EAC 展開 ログファイル 日付: 29. 9月 2010, 22:02 for CDVarious / 会長はメイド様! オリジナル・サウンドトラック2

使用ドライブ : PLEXTOR CD-R PREMIUM Adapter: 1 ID: 1読み込みモード : セキュア(C2 : YES / 正確なデータ転送力 : YES / キャッシュ無効 : YES)読み込みオフセット訂正値 : 0リードインとリードアウトをオーバーリードする : Yes

使用出力フォーマット : 内部 WAV ルーチン 44.100 Hz; 16 Bit; ステレオ

その他のオプション : 消失したオフセットサンプルを無音に置き換える : Yes 曲の先頭と末尾の無音部を削除する : No 標準 Win32 の Win NT & 2000 用

展開範囲ステータスとエラー選択された範囲 ファイル名 E:\編集・作業用\Exact Audio Copy\1st-pass (PX-W5232TA・Premium2専用)\会長はメイド様! オリジナル・サウンドトラック2\kaicho_ha_maid_sama_ost_2.wav

ピークレベル 100.0 % 選択範囲品質 100.0 % CRC 89D670B1 コピー OK

エラーは検出されませんでした

ステータスの報告終了
EAC 展開 ログファイル 日付: 29. 9月 2010, 22:13 for CDVarious / 会長はメイド様! オリジナル・サウンドトラック2

使用ドライブ : HL-DT-STDVDRAM GSA-H10A Adapter: 1 ID: 0読み込みモード : セキュア(C2 : YES / 正確なデータ転送力 : YES / キャッシュ無効 : NO)読み込みオフセット訂正値 : 637リードインとリードアウトをオーバーリードする : No

使用出力フォーマット : 内部 WAV ルーチン 44.100 Hz; 16 Bit; ステレオ

その他のオプション : 消失したオフセットサンプルを無音に置き換える : Yes 曲の先頭と末尾の無音部を削除する : No 標準 Win32 の Win NT & 2000 用

展開範囲ステータスとエラー選択された範囲 ファイル名 E:\編集・作業用\Exact Audio Copy\2nd-pass (CRCチェック用)\会長はメイド様! オリジナル・サウンドトラック2\temp.wav

ピークレベル 100.0 % 選択範囲品質 100.0 % CRC 89D670B1 コピー OK

エラーは検出されませんでした

ステータスの報告終了
CATALOG 4988102671525PERFORMER " "TITLE "会長はメイド様! オリジナル・サウンドトラック2"FILE "kaicho_ha_maid_sama_ost_2.flac" WAVE TRACK 01 AUDIO TITLE "英国風にアフタヌーンティー (ヴァイオリン・ソロ)" PERFORMER " " ISRC JPPI01053600 INDEX 01 00:00:00 TRACK 02 AUDIO TITLE "おだやか星華高校" PERFORMER " " ISRC JPPI01053610 INDEX 00 02:02:69 INDEX 01 02:04:07 TRACK 03 AUDIO TITLE "雅ヶ丘の五十嵐虎" PERFORMER " " ISRC JPPI01053620 INDEX 00 04:02:01 INDEX 01 04:03:14 TRACK 04 AUDIO TITLE "ネットアイドルAOIちゃん" PERFORMER " " ISRC JPPI01053630 INDEX 00 05:48:54 INDEX 01 05:49:67 TRACK 05 AUDIO TITLE "自称って言うな!" PERFORMER " " ISRC JPPI01053640 INDEX 00 07:32:25 INDEX 01 07:33:38 TRACK 06 AUDIO TITLE "実は男の子なんです" PERFORMER " " ISRC JPPI01053650 INDEX 00 09:40:74 INDEX 01 09:42:12 TRACK 07 AUDIO TITLE "萌えの花咲いた?" PERFORMER " " ISRC JPPI01053660 INDEX 00 11:25:55 INDEX 01 11:26:68 TRACK 08 AUDIO TITLE "メイドラテ営業中" PERFORMER " " ISRC JPPI01053670 INDEX 00 12:45:60 INDEX 01 12:46:73 TRACK 09 AUDIO TITLE "夢見る16~17歳" PERFORMER " " ISRC JPPI01053680 INDEX 00 14:22:27 INDEX 01 14:23:40 TRACK 10 AUDIO TITLE "こころゆれてる" PERFORMER " " ISRC JPPI01053690 INDEX 00 16:09:32 INDEX 01 16:10:45 TRACK 11 AUDIO TITLE "目をそらさないで下さい" PERFORMER " " ISRC JPPI01053700 INDEX 00 17:51:41 INDEX 01 17:52:54 TRACK 12 AUDIO TITLE "これがサスペンス" PERFORMER " " ISRC JPPI01053710 INDEX 00 19:54:07 INDEX 01 19:55:20 TRACK 13 AUDIO TITLE "意外と日常風景" PERFORMER " " ISRC JPPI01053720 INDEX 00 21:36:35 INDEX 01 21:37:48 TRACK 14 AUDIO TITLE "海辺のメイドラテ" PERFORMER " " ISRC JPPI01053730 INDEX 00 22:51:42 INDEX 01 22:52:55 TRACK 15 AUDIO TITLE "胸キュンでハッピーなんだよ" PERFORMER " " ISRC JPPI01053740 INDEX 00 24:32:17 INDEX 01 24:33:30 TRACK 16 AUDIO TITLE "生徒会長って鬼だね" PERFORMER " " ISRC JPPI01053750 INDEX 00 26:25:06 INDEX 01 26:26:19 TRACK 17 AUDIO TITLE "たまには反省モードで" PERFORMER " " ISRC JPPI01053760 INDEX 00 28:32:56 INDEX 01 28:33:69 TRACK 18 AUDIO TITLE "まあ、いいんじゃないか?" PERFORMER " " ISRC JPPI01053770 INDEX 00 30:39:53 INDEX 01 30:40:66 TRACK 19 AUDIO TITLE "やる気オーラ全開" PERFORMER " " ISRC JPPI01053780 INDEX 00 32:25:36 INDEX 01 32:26:49 TRACK 20 AUDIO TITLE "戸惑い迷って動けない" PERFORMER " " ISRC JPPI01053790 INDEX 00 34:28:69 INDEX 01 34:30:07 TRACK 21 AUDIO TITLE "カッコいいでしょ?" PERFORMER " " ISRC JPPI01053800 INDEX 00 36:31:18 INDEX 01 36:32:31 TRACK 22 AUDIO TITLE "余裕かまして" PERFORMER " " ISRC JPPI01053810 INDEX 00 38:10:08 INDEX 01 38:11:21 TRACK 23 AUDIO TITLE "野菜ばっかかじっちょった" PERFORMER " " ISRC JPPI01053820 INDEX 00 39:47:30 INDEX 01 39:48:43 TRACK 24 AUDIO TITLE "王子様とお姫様" PERFORMER " " ISRC JPPI01053830 INDEX 00 41:27:17 INDEX 01 41:28:30 TRACK 25 AUDIO TITLE "食いしん坊ヨウくん" PERFORMER " " ISRC JPPI01053840 INDEX 00 43:36:44 INDEX 01 43:37:57 TRACK 26 AUDIO TITLE "キラキラお気に入りの毎日" PERFORMER " " ISRC JPPI01053850 INDEX 00 45:32:49 INDEX 01 45:33:62 TRACK 27 AUDIO TITLE "優雅なイケメン変態宇宙人" PERFORMER " " ISRC JPPI01053860 INDEX 00 47:46:69 INDEX 01 47:48:07 TRACK 28 AUDIO TITLE "助け合いでしょ?" PERFORMER " " ISRC JPPI01053870 INDEX 00 49:50:35 INDEX 01 49:51:48 TRACK 29 AUDIO TITLE "小さい頃から美咲は美咲" PERFORMER " " ISRC JPPI01053880 INDEX 00 52:15:21 INDEX 01 52:16:34 TRACK 30 AUDIO TITLE "英国風にアフタヌーンティー" PERFORMER " " ISRC JPPI01053890 INDEX 00 54:23:31 INDEX 01 54:24:44 TRACK 31 AUDIO TITLE "∞ループ (TV size)" PERFORMER "heidi." ISRC JPPI01053900 INDEX 00 56:27:36 INDEX 01 56:29:49
</div>
</div>
Исполнитель: Kenji Nojima, Kana Hanazawa, Ayumi Fujimura, Nobuhiko Okamoto.

Продолжительность: 00:26:50

Треклист:

<div class="post-box">01 Prologue.
02 Natsu Koi Monogatari.
03 MC.
04 Girl.
05 MC.
06 Yume no Hana.
07 MC.
08 Akane.
09 Epilogue.
</div>
<div class="sp-wrap">
<div class="sp-head folded">Лог EAC</div>
<div class="sp-body">

Exact Audio Copy V0.99 prebeta 5 from 4. May 2009

EAC 取り込みログファイル 日付 : 26. 9月 2010, 18:33

- / U×ミシ -ナツコイ☆物語-

使用ドライブ : PIONEER BD-RW BDR-205 Adapter: 3 ID: 0

読み込みモード : セキュアモードドライブが正確なデータ転送能力を持つ : はいオーディオキャッシュを使用できる : いいえC2エラー情報を検出する : いいえ

読み込みサンプルオフセット訂正値 : 637リードイン・リードアウトをオーバーリードする : はい欠落したオフセットサンプルを無音で補完する : はい曲の先頭と末端の無音領域を削除する : いいえCRC計算で無音のサンプルを使用するか : はい使用インターフェース : Win NT & 2000用のクラスドライバ

使用出力モード : 内蔵WAV出力ルーチンサンプルフォーマット : 44.100 Hz; 16 Bit; ステレオ

TOC情報を抜き出します

トラック | スタート | 長さ | 始めのセクター | 最終セクター ---------------------------------------------------------------- 1 | 0:00.00 | 2:05.27 | 0 | 9401 2 | 2:05.27 | 3:31.74 | 9402 | 25300 3 | 5:37.26 | 1:50.26 | 25301 | 33576 4 | 7:27.52 | 3:35.51 | 33577 | 49752 5 | 11:03.28 | 1:06.50 | 49753 | 54752 6 | 12:10.03 | 3:55.35 | 54753 | 72412 7 | 16:05.38 | 2:12.72 | 72413 | 82384 8 | 18:18.35 | 4:36.12 | 82385 | 103096 9 | 22:54.47 | 3:56.70 | 103097 | 120866

範囲取り込みステータス & エラー

選択された範囲

ファイル名 L:\EAC\会長はメイド様!_Virtual Live Album U×ミシ -ナツコイ☆物語-/くぅが starring 野島健児 (tak)\U×ミシ -ナツコイ☆物語-.wav

ピークレベル 100.0 % 範囲取り込み品質 100.0 % コピーCRC 29A70F22 コピー OK

エラーは発生しませんでした

ステータス報告完了
REM DISCID 72064B09REM COMMENT "ExactAudioCopy v0.99pb5"REM DATA 23.09.2010REM GENRE AnimeTITLE "Kaichou wa Maid-sama! Yumemishi Virtual Live Album -Natsu Koi Monogatari-"PERFORMER VariousCATALOG GNCA-1267FILE "01 Prologue.flac" WAVE TRACK 01 AUDIO TITLE Prologue PERFORMER Various ISRC JPPI01053350 INDEX 01 00:00:00FILE "02 Natsu Koi Monogatari.flac" WAVE TRACK 02 AUDIO TITLE "Natsu Koi Monogatari" PERFORMER Yumemishi ISRC JPPI01053290 INDEX 01 00:00:00FILE "03 MC.flac" WAVE TRACK 03 AUDIO TITLE MC PERFORMER Various ISRC JPPI01053360 INDEX 01 00:00:00FILE "04 Girl.flac" WAVE TRACK 04 AUDIO TITLE Girl PERFORMER Yumemishi ISRC JPPI01053300 INDEX 01 00:00:00FILE "05 MC.flac" WAVE TRACK 05 AUDIO TITLE MC PERFORMER Various ISRC JPPI01053370 INDEX 01 00:00:00FILE "06 Yume no Hana.flac" WAVE TRACK 06 AUDIO TITLE "Yume no Hana" PERFORMER Yumemishi ISRC JPPI01053310 INDEX 01 00:00:00FILE "07 MC.flac" WAVE TRACK 07 AUDIO TITLE MC PERFORMER Various ISRC JPPI01053380 INDEX 01 00:00:00FILE "08 Akane.flac" WAVE TRACK 08 AUDIO TITLE Akane PERFORMER Yumemishi ISRC JPPI01053320 INDEX 01 00:00:00FILE "09 Epilogue.flac" WAVE TRACK 09 AUDIO TITLE Epilogue PERFORMER Various ISRC JPPI01053390 PREGAP 00:01:28 INDEX 01 00:00:00
</div>
</div>
Торрент перезалит 05.09.2017.Просьба перекачать..
Добавлено Ed2 - ∞ Loop / heidi. и Yumemishi Virtual Live Album -Natsu Koi Monogatari-
Доп. информация: MP3

Трекер:  [ 05-Сен-2017 19:12 ]

  

Скачать .torrent

Размер .torrent файла 54 KB


Размер: 2.57 GB
Хэш (hash) релиза: 3c0f93589c07371d258ca0c51c43a46c79807cdb

Еще никто не оставлял запись к записи скачать торрент Kaichou wa Maid-sama! Президент студсовета-горничная! - 2010, FLAC . Будь первым!

!Обратная связь