View detail | Yesterday, 03:14 | Wake Up, Girls!

Скачать через торрент Жил-был кот Rudolf the Black Cat Фильм бесплатно в хорошем качестве torrent

Скачивайте на UnionPeer.org фильмы через торрент без регистрации. Новинки кино в хорошем качестве через торрент. На UnionPeer.org можно скачать через торрент фильмы 2014 и 2015 годов. Самые новые фильмы.

Скачать торрент Жил-был кот Rudolf the Black Cat бесплатно через .torrent фильм мультфильм сериал

Статистика раздачи
Размер:  2.68 GB   |    Зарегистрирован:  9 месяцев   |    .torrent скачан:  60 раз   |   
Раздают:  1  
   
загрузка...
 
Автор Сообщение

Galfimbul

avatar Galfimbul


Жил-был кот | Rudolf the Black Cat | Rudorufu to ippai attena«Маленький герой - большие приключения»

Страна: Япония, Канада
Студия: Bandai, Chukyo TV Broadcasting Company (CTV), D.N. Dream Partners
Жанр: мультфильм, комедия, приключения
Продолжительность: 01:27:42
Год выпуска: 2016Перевод: Профессиональный (дублированный) Баритон
Субтитры: нет
Оригинальная аудиодорожка: нетРежиссёр: Микинори Сакакибара / Mikinori Sakakibara, Кунихико Юяма / Kunihiko Yuyama
Роли озвучивали: Мао Иноуэ, Рёхэй Судзуки, Норито Ясима, Арата Фурута, Сандаю Докумамуси, Нана Мидзуки, Рио Сасаки, Юка Тэрасаки, Акио Оцука
Роли дублировали: Лариса Брохман, Сергей Чихачев, Дмитрий Курта, Михаил Белякович, Дарья Пынзарь, Евгений Хазов, Ксения Большакова, Нина Александрова, Ольга Голованова, Радик МухаметзяновОписание: История маленького чёрного котёнка с гордым именем Рудольф, жившего счастливо и спокойно ровно до тех пор, пока по роковой случайности он не оказался в неизвестном большом городе. Здесь герою придётся выживать без ласки и заботы хозяев, а ведь раньше он был твёрдо убежден, что всегда будет в полной безопасности. Блуждая по улицам незнакомого города, Рудо встречает взрослого полосатого кота, нагоняющего ужас на всю округу. Он становится для малыша наставником, учит жизни на улице и помогает обрести новых друзей.



Качество: WEB-DL 720p iTunes
Формат: MKV

Видео: MPEG-4 AVC / NTSC 16:9 / 1280x720 (1,78:1) / 3993 kbps / 24,000 fps / 0.181 bit/pixel / [email protected]
Аудио: Russian | Dolby Digital Audio / 5.1 Ch / 48 kHz / 384 kbps / 16-bit | DUB | Баритон
Навигация по главам: есть
Общее
Уникальный идентификатор                 : 217522869266011802369585372735148064268 (0xA3A56178E327CCD3ABAA88DCA716FE0C)
Полное имя                               : F:\Temp\Жил-был кот.2016.720p.WEB-DL.x264.DUB.DD.5.1.mkv
Формат                                   : Matroska
Версия формата                           : Version 4 / Version 2
Размер файла                             : 2,68 Гбайт
Продолжительность                        : 1 ч. 27 м.
Общий поток                              : 4379 Кбит/сек
Дата кодирования                         : UTC 2017-08-27 10:01:38
Программа кодирования                    : mkvmerge v14.0.0 ('Flow') 64bit
Библиотека кодирования                   : libebml v1.3.4 + libmatroska v1.4.5

Видео
Идентификатор                            : 1
Формат                                   : AVC
Формат/Информация                        : Advanced Video Codec
Профиль формата                          : [email protected]
Параметр CABAC формата                   : Нет
Параметр RefFrames формата               : 2 кадра
Идентификатор кодека                     : V_MPEG4/ISO/AVC
Продолжительность                        : 1 ч. 27 м.
Битрейт                                  : 3993 Кбит/сек
Ширина                                   : 1280 пикселей
Высота                                   : 720 пикселей
Соотношение сторон                       : 16:9
Режим частоты кадров                     : Постоянный
Частота кадров                           : 24,000 кадра/сек
Цветовое пространство                    : YUV
Субдискретизация насыщенности            : 4:2:0
Битовая глубина                          : 8 бит
Тип развёртки                            : Прогрессивная
Бит/(Пиксели*Кадры)                      : 0.181
Размер потока                            : 2,45 Гбайт (91%)
Заголовок                                : Локализованный видеоряд | iTunes
Язык                                     : Russian
Default                                  : Да
Forced                                   : Нет
Цветовой диапазон                        : Limited
Основные цвета                           : BT.709
Характеристики трансфера                 : BT.709
Коэффициенты матрицы                     : BT.709

Аудио
Идентификатор                            : 2
Формат                                   : AC-3
Формат/Информация                        : Audio Coding 3
Параметр Endianness формата              : Big
Идентификатор кодека                     : A_AC3
Продолжительность                        : 1 ч. 27 м.
Вид битрейта                             : Постоянный
Битрейт                                  : 384 Кбит/сек
Каналы                                   : 6 каналов
Расположение каналов                     : Front: L C R, Side: L R, LFE
Частота                                  : 48,0 КГц
Частота кадров                           : 31,250 кадров/сек (1536 SPF)
Битовая глубина                          : 16 бит
Метод сжатия                             : С потерями
Размер потока                            : 241 Мбайт (9%)
Заголовок                                : DUB | Баритон | iTunes
Язык                                     : Russian
ServiceKind/String                       : Complete Main
Default                                  : Да
Forced                                   : Нет

Меню
00:00:00.000                             : ja:Глава 01
00:05:48.583                             : ja:Глава 02
00:12:56.333                             : ja:Глава 03
00:17:46.833                             : ja:Глава 04
00:22:58.749                             : ja:Глава 05
00:28:41.874                             : ja:Глава 06
00:36:17.957                             : ja:Глава 07
00:42:31.873                             : ja:Глава 08
00:47:33.581                             : ja:Глава 09
00:54:04.206                             : ja:Глава 10
00:59:48.997                             : ja:Глава 11
01:05:24.288                             : ja:Глава 12
01:11:06.996                             : ja:Глава 13
01:19:00.496                             : ja:Глава 14


Трекер:  [ 27-Авг-2017 14:06 ]

  

Скачать .torrent

Размер .torrent файла 14 KB


Размер: 2.68 GB
Хэш (hash) релиза: e5ac028f169628ec40bb4049ad3de596e3f35915
Подписка на обновления:

Еще никто не оставлял запись к записи скачать торрент Жил-был кот Rudolf the Black Cat . Будь первым!

!Обратная связь