The Smurfs 2 (2013) | David Cronenberg | Voir la suite

Скачать через торрент Жил-был кот Rudolf The Black Cat Фильм бесплатно в хорошем качестве torrent

Скачивайте на UnionPeer.org фильмы через торрент без регистрации. Новинки кино в хорошем качестве через торрент. На UnionPeer.org можно скачать через торрент фильмы 2014 и 2015 годов. Самые новые фильмы.

Скачать торрент Жил-был кот Rudolf The Black Cat бесплатно через .torrent фильм мультфильм сериал

Статистика раздачи
Размер:  1.46 GB   |    Зарегистрирован:  9 месяцев   |    .torrent скачан:  28 раз   |   
Раздают:  1  
   
загрузка...
 
Автор Сообщение

Galfimbul

avatar Galfimbul


Жил-был кот / Rudolf The Black Cat

Страна: Япония, Канада
Жанр: мультфильм, комедия, приключения
Год выпуска: 2016
Продолжительность: 01:28:39

Перевод: Профессиональный (дублированный)
Субтитры: нет
Оригинальная аудиодорожка: нетРежиссер:
Микинори Сакакибара / Mikinori Sakakibara, Кунихико Юяма / Kunihiko YuyamaВ ролях:
Мао Иноуэ, Рёхэй Судзуки, Норито Ясима, Арата Фурута, Сандаю Докумамуси, Нана Мидзуки, Рио Сасаки, Юка Тэрасаки, Акио ОцукаОписание:
История маленького чёрного котёнка с гордым именем Рудольф, жившего счастливо и спокойно ровно до тех пор, пока по роковой случайности он не оказался в неизвестном большом городе. Здесь герою придётся выживать без ласки и заботы хозяев, а ведь раньше он был твёрдо убежден, что всегда будет в полной безопасности.
Блуждая по улицам незнакомого города, Рудо встречает взрослого полосатого кота, нагоняющего ужас на всю округу. Он становится для малыша наставником, учит жизни на улице и помогает обрести новых друзей.Качество видео: HDRip | Zhil.byl.kot.2016.D.BDRip.1080p.mkv
Формат видео: AVI

Видео: 720x400 (1.80:1), 23.976 fps, XviD build 73 ~2150 kbps avg, 0.31 bit/pixel
Аудио: 48 kHz, AC3 Dolby Digital, 2/0 (L,R) ch, ~192 kbpsПримечание: Релиз без рекламы!
Сэмпл: http://sendfile.su/1357582
Format                      : AVI
Format/Info                 : Audio Video Interleave
File size                   : 1.46 GiB
Duration                    : 1 h 28 min
Overall bit rate            : 2 352 kb/s
Writing application         : VirtualDubMod 1.5.10.3 | www.virtualdub-fr.org || (build 2550/release)
Writing library             : VirtualDubMod build 2550/release

Video
ID                          : 0
Format                      : MPEG-4 Visual
Format profile              : Advanced [email protected]
Format settings, BVOP       : 1
Format settings, QPel       : No
Format settings, GMC        : No warppoints
Format settings, Matrix     : Custom
Codec ID                    : XVID
Codec ID/Hint               : XviD
Duration                    : 1 h 28 min
Bit rate                    : 2 150 kb/s
Width                       : 720 pixels
Height                      : 400 pixels
Display aspect ratio        : 16:9
Frame rate                  : 23.976 (24000/1001) FPS
Color space                 : YUV
Chroma subsampling          : 4:2:0
Bit depth                   : 8 bits
Scan type                   : Progressive
Compression mode            : Lossy
Bits/(Pixel*Frame)          : 0.311
Stream size                 : 1.33 GiB (91%)
Writing library             : XviD 73

Audio
ID                          : 1
Format                      : AC-3
Format/Info                 : Audio Coding 3
Format settings, Endianness : Big
Codec ID                    : 2000
Duration                    : 1 h 28 min
Bit rate mode               : Constant
Bit rate                    : 192 kb/s
Channel(s)                  : 2 channels
Channel positions           : Front: L R
Sampling rate               : 48.0 kHz
Frame rate                  : 31.250 FPS (1536 spf)
Bit depth                   : 16 bits
Compression mode            : Lossy
Stream size                 : 122 MiB (8%)
Alignment                   : Split accross interleaves
Interleave, duration        : 42  ms (1.00 video frame)
Interleave, preload duratio : 500  ms
Service kind                : Complete Main


Трекер:  [ 26-Авг-2017 15:36 ]

  

Скачать .torrent

Размер .torrent файла 15 KB


Размер: 1.46 GB
Хэш (hash) релиза: dc77c0df62332d1ca30cf0429635d44b5bdef73b
Подписка на обновления:

Еще никто не оставлял запись к записи скачать торрент Жил-был кот Rudolf The Black Cat . Будь первым!

!Обратная связь