Eamon Farren | Wreckfest-CODEX | Bailaras (2017) Full Punjabi Movie Watch Online Free Watch Bailaras Full Movie Online, Free Download Bailaras (2017) Full Movie, Bailaras Full Movie Download in HD Mp4 Mobile Movie, Watch online Bailaras Full Movie Free Download :Bailaras is the story of a villager named JAGGA, who owns a Belarus tractor and is famous for winning tochan (tug of war between tractors) competitions in and around his village.

Скачать через торрент музыку П.И. Чайковский: "Спящая красавица" Tchaikovsky: Sleeping Beauty бесплатно без регистрации torrent

Статистика раздачи
Размер:  40.43 GB   |    Зарегистрирован:  6 лет 8 месяцев   |    .torrent скачан:  162 раза   |   
Раздают:  1  
   
загрузка...
 
Автор Сообщение

L


П.И. Чайковский: "Спящая красавица" / Tchaikovsky: Sleeping Beauty

Год выпуска: 2006
Жанр: Балет
Продолжительность: 02 ч. 12 мин. 27 с.

В ролях: Alina Cojocaru (Princess Aurora), Federico Bonelli (Prince Florimund), Christopher Saunders (King Florestan XXIV), Elizabeth McGorian (His Queen), Alastair Marriott (Cattalabutte), Marianela Nuñez (Lilac Fairy), the Royal Ballet

The Orchestra of the Royal Opera House
Валерий Овсянников

Хореография - Мариус Петипа

Качество: Blu-Ray (BD-50 Dual-Layer Disc)
Контейнер: BDMV
Видео: MPEG-4 AVC Video / 31602 kbps / 1920x1080i / 29,970 fps / 16:9 / High Profile 4.1
Аудио #1:English LPCM 5.1 (48 kHz / 6912 kbps / 24-bit)
Аудио #2:English LPCM 2.0 (48 kHz / 2304 kbps / 24-bit)
Субтитры : французские, испанские, немецкие, итальянские

Релиз от:
Disc Title:
Disc Size: 43 410 811 556 bytes
Protection: AACS
BD-Java: No
BDInfo: 0.5.3

Notes:

BDINFO HOME:
Cinema Squid
http://www.cinemasquid.com/blu-ray/tools/bdinfo

INCLUDES FORUMS REPORT FOR:
AVS Forum Blu-ray Audio and Video Specifications Thread
http://www.avsforum.com/avs-vb/showthread.php?t=1155731

********************
PLAYLIST: 00004.MPLS
********************

<--- BEGIN FORUMS PASTE --->

Код:

Total   Video
Title                                                           Codec   Length  Movie Size      Disc Size       Bitrate Bitrate Main Audio Track                          Secondary Audio Track
-----                                                           ------  ------- --------------  --------------  ------- ------- ------------------                        ---------------------
00004.MPLS                                                      AVC     2:12:27 42 606 317 568  43 410 811 556  42,89   31,60   LPCM 5.1 6912Kbps (48kHz/24-bit)          LPCM 2.0 2304Kbps (48kHz/24-bit)
[code]DISC INFO:

Disc Title:
Disc Size:      43 410 811 556 bytes
Protection:     AACS
BD-Java:        No
BDInfo:         0.5.3

PLAYLIST REPORT:

Name:                   00004.MPLS
Length:                 2:12:27 (h:m:s)
Size:                   42 606 317 568 bytes
Total Bitrate:          42,89 Mbps

VIDEO:

Codec                   Bitrate             Description
-----                   -------             -----------
MPEG-4 AVC Video        31602 kbps          1080i / 29,970 fps / 16:9 / High Profile 4.1

AUDIO:

Codec                           Language        Bitrate         Description
-----                           --------        -------         -----------
LPCM Audio                      English         6912 kbps       5.1 / 48 kHz / 6912 kbps / 24-bit
LPCM Audio                      English         2304 kbps       2.0 / 48 kHz / 2304 kbps / 24-bit

SUBTITLES:

Codec                           Language        Bitrate         Description
-----                           --------        -------         -----------
Presentation Graphics           French          0,063 kbps
Presentation Graphics           German          0,076 kbps
Presentation Graphics           Italian         0,074 kbps
Presentation Graphics           Spanish         0,077 kbps

FILES:

Name            Time In         Length          Size            Total Bitrate
----            -------         ------          ----            -------------
00007.M2TS      0:00:00.000     2:12:27.973     42 606 317 568  42 885

CHAPTERS:

Number          Time In         Length          Avg Video Rate  Max 1-Sec Rate  Max 1-Sec Time  Max 5-Sec Rate  Max 5-Sec Time  Max 10Sec Rate  Max 10Sec Time  Avg Frame Size  Max Frame Size  Max Frame Time
------          -------         ------          --------------  --------------  --------------  --------------  --------------  --------------  --------------  --------------  --------------  --------------
1               0:00:00.000     0:02:42.929     29 257 kbps     38 014 kbps     00:01:01.061    34 860 kbps     00:00:22.422    33 741 kbps     00:00:19.486    122 001 bytes   523 112 bytes   00:02:42.929
2               0:02:42.929     0:03:44.257     32 138 kbps     47 013 kbps     00:03:47.794    39 506 kbps     00:03:43.923    38 051 kbps     00:03:40.019    134 041 bytes   524 776 bytes   00:02:52.572
3               0:06:27.186     0:04:13.853     32 203 kbps     45 451 kbps     00:09:42.381    39 170 kbps     00:09:42.014    37 886 kbps     00:09:42.114    134 313 bytes   521 657 bytes   00:09:46.953
4               0:10:41.040     0:00:36.603     27 837 kbps     34 592 kbps     00:11:06.332    33 589 kbps     00:11:03.562    31 395 kbps     00:10:58.057    116 105 bytes   471 097 bytes   00:11:08.034
5               0:11:17.643     0:04:07.213     28 636 kbps     42 336 kbps     00:13:27.573    36 877 kbps     00:11:33.959    36 566 kbps     00:11:28.954    119 436 bytes   521 260 bytes   00:12:01.987
6               0:15:24.857     0:01:25.585     28 226 kbps     37 198 kbps     00:16:48.107    30 531 kbps     00:16:24.249    30 253 kbps     00:16:23.882    117 724 bytes   517 086 bytes   00:16:48.907
7               0:16:50.442     0:00:45.678     28 226 kbps     36 454 kbps     00:17:28.781    31 732 kbps     00:17:25.444    30 718 kbps     00:17:20.439    117 728 bytes   525 120 bytes   00:17:28.947
8               0:17:36.121     0:01:24.350     24 489 kbps     32 660 kbps     00:18:53.298    29 790 kbps     00:18:51.263    28 399 kbps     00:18:46.258    102 138 bytes   369 675 bytes   00:18:22.534
9               0:19:00.472     0:00:39.372     27 458 kbps     35 135 kbps     00:19:16.221    31 894 kbps     00:19:25.931    30 364 kbps     00:19:20.959    114 524 bytes   484 403 bytes   00:19:39.845
10              0:19:39.845     0:01:29.189     30 524 kbps     38 352 kbps     00:20:57.723    34 487 kbps     00:19:40.045    33 938 kbps     00:20:36.301    127 310 bytes   493 602 bytes   00:20:56.321
11              0:21:09.034     0:01:25.985     35 553 kbps     42 675 kbps     00:22:30.649    36 845 kbps     00:21:33.358    36 751 kbps     00:21:35.127    148 284 bytes   522 838 bytes   00:21:31.256
12              0:22:35.020     0:01:58.785     33 859 kbps     38 653 kbps     00:23:37.582    36 299 kbps     00:22:42.627    35 874 kbps     00:22:43.662    141 218 bytes   497 237 bytes   00:22:55.774
13              0:24:33.805     0:08:34.547     31 570 kbps     42 725 kbps     00:26:40.231    37 555 kbps     00:25:55.921    36 763 kbps     00:30:24.823    131 672 bytes   523 084 bytes   00:26:13.939
14              0:33:08.353     0:02:53.806     33 563 kbps     42 957 kbps     00:33:41.953    37 692 kbps     00:33:29.240    37 323 kbps     00:33:28.639    139 986 bytes   521 416 bytes   00:33:36.614
15              0:36:02.160     0:04:02.008     33 781 kbps     39 098 kbps     00:38:06.183    36 219 kbps     00:38:03.180    35 669 kbps     00:37:08.159    140 895 bytes   500 519 bytes   00:38:06.217
16              0:40:04.168     0:01:59.352     33 397 kbps     39 274 kbps     00:40:49.480    36 872 kbps     00:40:58.889    36 229 kbps     00:40:40.471    139 294 bytes   524 520 bytes   00:40:48.078
17              0:42:03.521     0:00:48.648     33 545 kbps     39 308 kbps     00:42:50.234    35 786 kbps     00:42:46.230    34 777 kbps     00:42:19.537    139 911 bytes   521 189 bytes   00:42:50.935
18              0:42:52.169     0:06:21.180     33 925 kbps     44 163 kbps     00:46:03.894    38 141 kbps     00:46:03.794    36 217 kbps     00:47:32.416    141 497 bytes   524 258 bytes   00:43:15.459
19              0:49:13.350     0:01:48.875     33 394 kbps     37 915 kbps     00:50:36.433    36 780 kbps     00:50:32.429    35 900 kbps     00:50:13.010    139 283 bytes   519 147 bytes   00:50:17.047
20              0:51:02.225     0:04:05.211     32 882 kbps     44 025 kbps     00:51:02.592    37 232 kbps     00:52:46.596    36 381 kbps     00:52:41.591    137 144 bytes   524 824 bytes   00:54:15.318
21              0:55:07.437     0:02:40.860     33 110 kbps     41 743 kbps     00:56:36.192    37 523 kbps     00:56:33.089    36 516 kbps     00:57:11.728    138 098 bytes   522 148 bytes   00:57:17.600
22              0:57:48.298     0:05:32.732     28 517 kbps     41 749 kbps     01:01:52.275    37 294 kbps     01:00:07.670    36 493 kbps     01:00:03.299    118 939 bytes   524 862 bytes   01:01:13.302
23              1:03:21.030     0:02:35.889     33 221 kbps     44 510 kbps     01:04:45.181    37 692 kbps     01:04:42.178    37 046 kbps     01:03:29.939    138 561 bytes   523 943 bytes   01:03:53.095
24              1:05:56.919     0:01:37.931     32 831 kbps     43 298 kbps     01:06:27.383    38 038 kbps     01:06:26.515    35 572 kbps     01:07:18.267    136 934 bytes   520 004 bytes   01:07:22.071
25              1:07:34.850     0:00:51.151     32 942 kbps     43 686 kbps     01:08:02.645    36 555 kbps     01:08:02.511    35 843 kbps     01:08:02.511    137 396 bytes   450 205 bytes   01:07:35.851
26              1:08:26.001     0:01:06.666     30 247 kbps     41 293 kbps     01:08:33.242    34 416 kbps     01:08:33.242    33 957 kbps     01:08:33.242    126 155 bytes   471 475 bytes   01:09:12.848
27              1:09:32.668     0:04:41.681     25 579 kbps     39 837 kbps     01:13:50.793    37 409 kbps     01:13:49.858    37 027 kbps     01:13:43.485    106 686 bytes   523 831 bytes   01:13:45.387
28              1:14:14.349     0:05:28.428     33 795 kbps     43 379 kbps     01:14:37.105    36 991 kbps     01:14:33.135    36 374 kbps     01:15:10.505    140 952 bytes   524 702 bytes   01:17:31.113
29              1:19:42.778     0:02:20.807     34 027 kbps     36 897 kbps     01:20:17.813    35 903 kbps     01:20:06.067    35 782 kbps     01:20:03.799    141 921 bytes   513 725 bytes   01:20:17.212
30              1:22:03.585     0:01:37.697     31 880 kbps     44 788 kbps     01:22:14.929    37 445 kbps     01:22:12.560    35 886 kbps     01:22:07.555    132 968 bytes   476 535 bytes   01:22:15.030
31              1:23:41.282     0:00:32.432     24 790 kbps     34 899 kbps     01:24:05.507    32 270 kbps     01:24:03.338    28 223 kbps     01:24:01.369    103 396 bytes   406 278 bytes   01:24:06.307
32              1:24:13.715     0:02:23.710     26 659 kbps     35 277 kbps     01:25:55.850    33 948 kbps     01:25:53.248    32 536 kbps     01:25:48.610    111 192 bytes   433 020 bytes   01:24:45.747
33              1:26:37.425     0:02:58.778     23 921 kbps     42 570 kbps     01:26:42.030    34 713 kbps     01:26:38.893    32 977 kbps     01:26:41.429    99 771 bytes    430 254 bytes   01:26:42.430
34              1:29:36.204     0:02:15.201     27 483 kbps     40 751 kbps     01:31:06.527    37 663 kbps     01:31:06.194    36 918 kbps     01:31:04.425    114 628 bytes   523 695 bytes   01:31:25.947
35              1:31:51.405     0:03:41.821     32 418 kbps     45 746 kbps     01:32:34.482    41 356 kbps     01:32:31.746    37 497 kbps     01:32:30.811    135 209 bytes   498 113 bytes   01:32:30.845
36              1:35:33.227     0:02:15.802     34 394 kbps     37 031 kbps     01:35:50.811    36 019 kbps     01:37:32.980    35 742 kbps     01:37:30.778    143 452 bytes   473 266 bytes   01:37:35.282
37              1:37:49.029     0:01:02.729     32 724 kbps     36 937 kbps     01:38:50.758    34 037 kbps     01:37:53.567    33 786 kbps     01:37:55.002    136 485 bytes   478 597 bytes   01:38:28.269
38              1:38:51.759     0:01:00.393     34 947 kbps     41 681 kbps     01:38:52.660    37 359 kbps     01:38:52.660    36 541 kbps     01:38:52.726    145 756 bytes   520 424 bytes   01:38:52.760
39              1:39:52.152     0:01:08.401     33 750 kbps     39 787 kbps     01:40:00.194    36 438 kbps     01:39:57.391    35 818 kbps     01:39:53.454    140 767 bytes   512 693 bytes   01:39:53.487
40              1:41:00.554     0:02:27.480     33 168 kbps     43 576 kbps     01:43:12.219    36 967 kbps     01:41:51.071    36 487 kbps     01:43:04.278    138 339 bytes   512 959 bytes   01:42:49.796
41              1:43:28.035     0:02:54.340     34 106 kbps     40 471 kbps     01:43:53.594    36 583 kbps     01:45:47.374    36 067 kbps     01:43:44.585    142 252 bytes   518 054 bytes   01:44:12.045
42              1:46:22.376     0:01:10.837     32 819 kbps     38 985 kbps     01:47:32.212    37 240 kbps     01:47:25.539    35 498 kbps     01:47:23.203    136 884 bytes   521 602 bytes   01:47:27.941
43              1:47:33.213     0:01:20.046     32 955 kbps     38 595 kbps     01:48:13.820    35 993 kbps     01:48:09.916    35 608 kbps     01:48:05.212    137 450 bytes   505 838 bytes   01:48:07.447
44              1:48:53.260     0:02:03.456     31 180 kbps     41 471 kbps     01:50:27.487    37 550 kbps     01:50:25.485    36 843 kbps     01:50:20.280    130 047 bytes   519 500 bytes   01:50:29.956
45              1:50:56.716     0:01:37.997     34 021 kbps     45 400 kbps     01:51:13.700    37 168 kbps     01:51:01.388    36 374 kbps     01:50:57.484    141 897 bytes   504 140 bytes   01:51:00.720
46              1:52:34.714     0:05:32.165     33 944 kbps     37 669 kbps     01:56:18.137    35 515 kbps     01:53:18.958    35 277 kbps     01:53:20.560    141 574 bytes   441 792 bytes   01:53:29.169
47              1:58:06.879     0:01:40.300     33 353 kbps     38 597 kbps     01:59:45.511    36 689 kbps     01:59:41.807    34 419 kbps     01:58:55.428    139 110 bytes   517 311 bytes   01:59:45.011
48              1:59:47.180     0:02:36.089     33 321 kbps     38 524 kbps     02:01:35.888    36 916 kbps     02:01:35.888    36 329 kbps     02:01:35.888    138 976 bytes   523 949 bytes   02:01:39.358
49              2:02:23.269     0:02:00.153     32 081 kbps     40 659 kbps     02:04:19.051    37 808 kbps     02:04:17.983    36 905 kbps     02:04:01.033    133 806 bytes   522 220 bytes   02:04:22.188
50              2:04:23.422     0:02:54.574     34 374 kbps     37 756 kbps     02:04:30.396    36 374 kbps     02:04:36.068    36 176 kbps     02:04:35.167    143 369 bytes   512 069 bytes   02:04:26.425
51              2:07:17.997     0:01:26.519     33 696 kbps     37 217 kbps     02:07:57.302    35 629 kbps     02:07:53.298    35 481 kbps     02:07:48.293    140 542 bytes   417 327 bytes   02:08:41.313
52              2:08:44.516     0:02:30.683     30 138 kbps     41 120 kbps     02:11:06.024    37 309 kbps     02:09:47.479    36 660 kbps     02:09:44.109    125 700 bytes   523 546 bytes   02:09:47.846
53              2:11:15.200     0:01:12.772     21 605 kbps     38 324 kbps     02:11:57.876    36 741 kbps     02:11:54.673    33 266 kbps     02:11:50.002    90 153 bytes    515 137 bytes   02:11:58.677

STREAM DIAGNOSTICS:

File            PID             Type            Codec           Language                Seconds                 Bitrate                 Bytes           Packets
----            ---             ----            -----           --------                --------------          --------------          -------------   -----
00007.M2TS      4113 (0x1011)   0x1B            AVC                                     7947,907                31 602                  31 396 577 983  170 772 802
00007.M2TS      4352 (0x1100)   0x80            LPCM            eng (English)           7947,907                6 918                   6 873 408 780   38 150 280
00007.M2TS      4353 (0x1101)   0x80            LPCM            eng (English)           7947,907                2 310                   2 295 375 180   12 716 760
00007.M2TS      4608 (0x1200)   0x90            PGS             fra (French)            7947,907                0                       62 615          391
00007.M2TS      4609 (0x1201)   0x90            PGS             deu (German)            7947,907                0                       75 973          468
00007.M2TS      4610 (0x1202)   0x90            PGS             spa (Spanish)           7947,907                0                       76 981          474
00007.M2TS      4611 (0x1203)   0x90            PGS             ita (Italian)           7947,907                0                       73 796          456[/code]
<---- END FORUMS PASTE ---->

QUICK SUMMARY:

Disc Title:
Disc Size: 43 410 811 556 bytes
Protection: AACS
BD-Java: No
Playlist: 00004.MPLS
Size: 42 606 317 568 bytes
Length: 2:12:27
Total Bitrate: 42,89 Mbps
Video: MPEG-4 AVC Video / 31602 kbps / 1080i / 29,970 fps / 16:9 / High Profile 4.1
Audio: English / LPCM Audio / 5.1 / 48 kHz / 6912 kbps / 24-bit
Audio: English / LPCM Audio / 2.0 / 48 kHz / 2304 kbps / 24-bit
Subtitle: French / 0,063 kbps
Subtitle: German / 0,076 kbps
Subtitle: Italian / 0,074 kbps
Subtitle: Spanish / 0,077 kbps

********************
PLAYLIST: 00002.MPLS
********************

<--- BEGIN FORUMS PASTE --->
[code]Total   Video
Title                                                           Codec   Length  Movie Size      Disc Size       Bitrate Bitrate Main Audio Track                          Secondary Audio Track
-----                                                           ------  ------- --------------  --------------  ------- ------- ------------------                        ---------------------
00002.MPLS                                                      AVC     0:02:49 486 180 864     43 410 811 556  22,99   19,85   LPCM 2.0 1536Kbps (48kHz/16-bit)[/code]
[code]DISC INFO:

Disc Title:
Disc Size:      43 410 811 556 bytes
Protection:     AACS
BD-Java:        No
BDInfo:         0.5.3

PLAYLIST REPORT:

Name:                   00002.MPLS
Length:                 0:02:49 (h:m:s)
Size:                   486 180 864 bytes
Total Bitrate:          22,99 Mbps

VIDEO:

Codec                   Bitrate             Description
-----                   -------             -----------
MPEG-4 AVC Video        19848 kbps          1080i / 29,970 fps / 16:9 / High Profile 4.1

AUDIO:

Codec                           Language        Bitrate         Description
-----                           --------        -------         -----------
LPCM Audio                      English         1536 kbps       2.0 / 48 kHz / 1536 kbps / 16-bit

SUBTITLES:

Codec                           Language        Bitrate         Description
-----                           --------        -------         -----------
Presentation Graphics           French          80,668 kbps
Presentation Graphics           German          89,754 kbps
Presentation Graphics           Italian         81,940 kbps
Presentation Graphics           Spanish         76,751 kbps

FILES:

Name            Time In         Length          Size            Total Bitrate
----            -------         ------          ----            -------------
00005.M2TS      0:00:00.000     0:02:49.202     486 180 864     22 987

CHAPTERS:

Number          Time In         Length          Avg Video Rate  Max 1-Sec Rate  Max 1-Sec Time  Max 5-Sec Rate  Max 5-Sec Time  Max 10Sec Rate  Max 10Sec Time  Avg Frame Size  Max Frame Size  Max Frame Time
------          -------         ------          --------------  --------------  --------------  --------------  --------------  --------------  --------------  --------------  --------------  --------------
1               0:00:00.000     0:02:49.202     19 848 kbps     36 688 kbps     00:02:09.996    33 566 kbps     00:00:49.048    30 231 kbps     00:01:50.076    82 781 bytes    782 230 bytes   00:00:39.038

STREAM DIAGNOSTICS:

File            PID             Type            Codec           Language                Seconds                 Bitrate                 Bytes           Packets
----            ---             ----            -----           --------                --------------          --------------          -------------   -----
00005.M2TS      4113 (0x1011)   0x1B            AVC                                     169,136                 19 855                  419 783 934     2 284 444
00005.M2TS      4352 (0x1100)   0x80            LPCM            eng (English)           169,136                 1 543                   32 622 724      203 046
00005.M2TS      4608 (0x1200)   0x90            PGS             fra (French)            169,136                 81                      1 706 149       9 569
00005.M2TS      4609 (0x1201)   0x90            PGS             deu (German)            169,136                 90                      1 898 317       10 620
00005.M2TS      4610 (0x1202)   0x90            PGS             spa (Spanish)           169,136                 77                      1 623 301       9 118
00005.M2TS      4611 (0x1203)   0x90            PGS             ita (Italian)           169,136                 82                      1 733 058       9 720[/code]
<---- END FORUMS PASTE ---->

QUICK SUMMARY:

Disc Title:
Disc Size: 43 410 811 556 bytes
Protection: AACS
BD-Java: No
Playlist: 00002.MPLS
Size: 486 180 864 bytes
Length: 0:02:49
Total Bitrate: 22,99 Mbps
Video: MPEG-4 AVC Video / 19848 kbps / 1080i / 29,970 fps / 16:9 / High Profile 4.1
Audio: English / LPCM Audio / 2.0 / 48 kHz / 1536 kbps / 16-bit
Subtitle: French / 80,668 kbps
Subtitle: German / 89,754 kbps
Subtitle: Italian / 81,940 kbps
Subtitle: Spanish / 76,751 kbps

********************
PLAYLIST: 00003.MPLS
********************

<--- BEGIN FORUMS PASTE --->
[code]Total   Video
Title                                                           Codec   Length  Movie Size      Disc Size       Bitrate Bitrate Main Audio Track                          Secondary Audio Track
-----                                                           ------  ------- --------------  --------------  ------- ------- ------------------                        ---------------------
00003.MPLS                                                      AVC     0:00:52 67 166 208      43 410 811 556  10,32   9,82[/code]
[code]DISC INFO:

Disc Title:
Disc Size:      43 410 811 556 bytes
Protection:     AACS
BD-Java:        No
BDInfo:         0.5.3

PLAYLIST REPORT:

Name:                   00003.MPLS
Length:                 0:00:52 (h:m:s)
Size:                   67 166 208 bytes
Total Bitrate:          10,32 Mbps

VIDEO:

Codec                   Bitrate             Description
-----                   -------             -----------
MPEG-4 AVC Video        9818 kbps           1080i / 29,970 fps / 16:9 / High Profile 4.1

FILES:

Name            Time In         Length          Size            Total Bitrate
----            -------         ------          ----            -------------
00006.M2TS      0:00:00.000     0:00:52.052     67 166 208      10 323

CHAPTERS:

Number          Time In         Length          Avg Video Rate  Max 1-Sec Rate  Max 1-Sec Time  Max 5-Sec Rate  Max 5-Sec Time  Max 10Sec Rate  Max 10Sec Time  Avg Frame Size  Max Frame Size  Max Frame Time
------          -------         ------          --------------  --------------  --------------  --------------  --------------  --------------  --------------  --------------  --------------  --------------
1               0:00:00.000     0:00:09.009     11 566 kbps     20 071 kbps     00:00:01.000    11 201 kbps     00:00:03.970    0 kbps          00:00:00.000    48 063 bytes    747 990 bytes   00:00:07.006
2               0:00:09.009     0:00:07.006     9 424 kbps      19 515 kbps     00:00:15.014    10 977 kbps     00:00:11.010    0 kbps          00:00:00.000    39 304 bytes    759 864 bytes   00:00:16.015
3               0:00:16.015     0:00:07.007     10 739 kbps     19 465 kbps     00:00:20.987    12 262 kbps     00:00:17.984    0 kbps          00:00:00.000    44 790 bytes    759 863 bytes   00:00:17.017
4               0:00:23.023     0:00:07.006     8 717 kbps      19 584 kbps     00:00:29.028    10 380 kbps     00:00:25.024    0 kbps          00:00:00.000    36 359 bytes    760 319 bytes   00:00:30.029
5               0:00:30.029     0:00:07.007     10 267 kbps     19 961 kbps     00:00:35.001    11 922 kbps     00:00:31.998    0 kbps          00:00:00.000    42 820 bytes    760 321 bytes   00:00:32.032
6               0:00:37.037     0:00:07.006     9 243 kbps      19 077 kbps     00:00:42.008    10 697 kbps     00:00:39.005    0 kbps          00:00:00.000    38 550 bytes    611 201 bytes   00:00:40.039
7               0:00:44.043     0:00:08.008     8 465 kbps      21 626 kbps     00:00:49.015    11 819 kbps     00:00:46.012    0 kbps          00:00:00.000    35 452 bytes    721 321 bytes   00:00:48.048

STREAM DIAGNOSTICS:

File            PID             Type            Codec           Language                Seconds                 Bitrate                 Bytes           Packets
----            ---             ----            -----           --------                --------------          --------------          -------------   -----
00006.M2TS      4113 (0x1011)   0x1B            AVC                                     51,952                  9 837                   63 880 869      348 066[/code]
<---- END FORUMS PASTE ---->

QUICK SUMMARY:

Disc Title:
Disc Size: 43 410 811 556 bytes
Protection: AACS
BD-Java: No
Playlist: 00003.MPLS
Size: 67 166 208 bytes
Length: 0:00:52
Total Bitrate: 10,32 Mbps
Video: MPEG-4 AVC Video / 9818 kbps / 1080i / 29,970 fps / 16:9 / High Profile 4.1

********************
PLAYLIST: 00000.MPLS
********************

<--- BEGIN FORUMS PASTE --->
[code]Total   Video
Title                                                           Codec   Length  Movie Size      Disc Size       Bitrate Bitrate Main Audio Track                          Secondary Audio Track
-----                                                           ------  ------- --------------  --------------  ------- ------- ------------------                        ---------------------
00000.MPLS                                                      AVC     0:00:20 33 853 440      43 410 811 556  12,92   12,31[/code]
[code]DISC INFO:

Disc Title:
Disc Size:      43 410 811 556 bytes
Protection:     AACS
BD-Java:        No
BDInfo:         0.5.3

PLAYLIST REPORT:

Name:                   00000.MPLS
Length:                 0:00:20 (h:m:s)
Size:                   33 853 440 bytes
Total Bitrate:          12,92 Mbps

VIDEO:

Codec                   Bitrate             Description
-----                   -------             -----------
MPEG-4 AVC Video        12310 kbps          1080i / 29,970 fps / 16:9 / High Profile 4.1

FILES:

Name            Time In         Length          Size            Total Bitrate
----            -------         ------          ----            -------------
00000.M2TS      0:00:00.000     0:00:14.014     16 410 624      9 368
00001.M2TS      0:00:14.014     0:00:06.940     17 442 816      20 106

CHAPTERS:

Number          Time In         Length          Avg Video Rate  Max 1-Sec Rate  Max 1-Sec Time  Max 5-Sec Rate  Max 5-Sec Time  Max 10Sec Rate  Max 10Sec Time  Avg Frame Size  Max Frame Size  Max Frame Time
------          -------         ------          --------------  --------------  --------------  --------------  --------------  --------------  --------------  --------------  --------------  --------------
1               0:00:00.000     0:00:14.014     8 907 kbps      10 475 kbps     00:00:07.807    10 095 kbps     00:00:03.803    10 014 kbps     00:00:02.435    37 063 bytes    101 117 bytes   00:00:08.008
2               0:00:14.014     0:00:06.940     19 181 kbps     20 000 kbps     00:00:14.247    20 000 kbps     00:00:14.247    0 kbps          00:00:00.000    80 387 bytes    83 416 bytes    00:00:14.280

STREAM DIAGNOSTICS:

File            PID             Type            Codec           Language                Seconds                 Bitrate                 Bytes           Packets
----            ---             ----            -----           --------                --------------          --------------          -------------   -----
00000.M2TS      4113 (0x1011)   0x1B            AVC                                     13,914                  8 970                   15 600 995      84 981
00001.M2TS      4113 (0x1011)   0x1B            AVC                                     6,874                   19 370                  16 642 506      90 584[/code]
<---- END FORUMS PASTE ---->

QUICK SUMMARY:

Disc Title:
Disc Size: 43 410 811 556 bytes
Protection: AACS
BD-Java: No
Playlist: 00000.MPLS
Size: 33 853 440 bytes
Length: 0:00:20
Total Bitrate: 12,92 Mbps
Video: MPEG-4 AVC Video / 12310 kbps / 1080i / 29,970 fps / 16:9 / High Profile 4.1


Трекер:  [ 27-Сен-2011 21:00 ]

  

Скачать .torrent

Размер .torrent файла 206 KB


Размер: 40.43 GB
Хэш (hash) релиза: 5422093a20c2055258ac1ef796230ad6060ac245

Еще никто не оставлял запись к записи скачать торрент П.И. Чайковский: "Спящая красавица" Tchaikovsky: Sleeping Beauty . Будь первым!

!Обратная связь