Regarder Marvel's Luke Cage - Saison 2 en Streaming | Frantic | 1988 | 720p | Dual | Télécharger Part 15

Скачать порно через торрент [Pantyamateur.com] PM,SSF,SUG,UKUS Minipack 2 x86 UnionPeer.org бесплатно онлайн HD качество

Скачать новое порно 2015, 2014 новинки через торрент UnionPeer.org

Порно торрент бесплатно ЮнионПир.орг

Статистика раздачи
Размер:  13.57 GB   |    Зарегистрирован:  11 месяцев   |    .torrent скачан:  299 раз   |   
Раздают:  1  
   
загрузка...
 
Автор Сообщение

Galfimbul

avatar Galfimbul


[Pantyamateur.com] PM,SSF,SUG,UKUS Minipack 2 x86 960,1080p,4k / Pantyamateur.com Год производства: 2016 г.
Жанр: Solo Fetish
Описание: http://pantyamateur.com/
http://pantymaniacs.com/
http://ukupskirts.com/
http://skirtsupgirls.com/
http://satinsilkfun.com/

Тип HD видео: 1080p
Качество видео: WEB-DL
Формат видео: WMV
Видео: Windows Media Video 9 1920x1080 25.00fps 8085Kbps
Аудио: Windows Media Audio Stereo 440 kbps, 44 kHz
SU265_Ashley_T.wmv
Format : Windows Media
File size : 24.4 MiB
Duration : 1mn 39s
Overall bit rate mode : Variable
Overall bit rate : 2 044 Kbps
Maximum Overall bit rate : 4 067 Kbps
Encoded date : UTC 2011-06-08 15:29:51.500

Video
ID : 2
Format : VC-1
Format profile : [email protected]
Codec ID : WMV3
Codec ID/Info : Windows Media Video 9
Codec ID/Hint : WMV3
Description of the codec : Windows Media Video 9 - Professional
Bit rate mode : Variable
Bit rate : 2 000 Kbps
Width : 960 pixels
Height : 540 pixels
Display aspect ratio : 16:9
Frame rate mode : Variable
Nominal frame rate : 25.000 fps
Color space : YUV
Chroma subsampling : 4:2:0
Bit depth : 8 bits
Scan type : Progressive
Compression mode : Lossy
NumberOfFrames : 2487

Audio
ID : 1
Format : WMA
Format version : Version 2
Codec ID : 161
Codec ID/Info : Windows Media Audio
Description of the codec : Windows Media Audio 9.2 - 48 kbps, 44 kHz, stereo 2-pass VBR
Duration : 1mn 39s
Bit rate mode : Variable
Bit rate : 48.2 Kbps
Channel(s) : 2 channels
Sampling rate : 44.1 KHz
Bit depth : 16 bits
Stream size : 588 KiB (2%)
videos/131116_PA_Hannah_Zebedee.wmv
Format : Windows Media
File size : 229 MiB
Duration : 4mn 2s
Overall bit rate mode : Variable
Overall bit rate : 7 954 Kbps
Maximum Overall bit rate : 10.5 Mbps
Encoded date : UTC 2016-09-20 12:22:07.740

Video
ID : 2
Format : VC-1
Format profile : [email protected]
Codec ID : WMV3
Codec ID/Info : Windows Media Video 9
Codec ID/Hint : WMV3
Description of the codec : Windows Media Video 9 - Professional
Duration : 4mn 2s
Bit rate mode : Variable
Bit rate : 8 000 Kbps
Width : 1 920 pixels
Height : 1 080 pixels
Display aspect ratio : 16:9
Frame rate : 25.000 fps
Bit depth : 8 bits
Compression mode : Lossy
Bits/(Pixel*Frame) : 0.154
Stream size : 231 MiB
Language : English (GB)
NumberOfFrames : 6039

Audio
ID : 1
Format : WMA
Format profile : Pro
Codec ID : 162
Codec ID/Info : Windows Media Audio
Description of the codec : Windows Media Audio 10 Professional - 440 kbps, 44 kHz, 2 channel 24 bit 2-pass VBR
Duration : 4mn 2s
Bit rate mode : Variable
Bit rate : 405 Kbps
Channel(s) : 2 channels
Sampling rate : 44.1 KHz
Bit depth : 24 bits
Stream size : 11.7 MiB (5%)
Language : English (GB)
NumberOfFrames : 599
250217_PM_Keira_Jones.hd.mp4
Format : MPEG-4
Format profile : Base Media / Version 2
Codec ID : mp42 (mp42/mp41)
File size : 511 MiB
Duration : 4mn 58s
Overall bit rate mode : Variable
Overall bit rate : 14.3 Mbps
Encoded date : UTC 2016-12-13 12:57:47
Tagged date : UTC 2016-12-13 12:58:01
©TIM : 00:00:00:00
©TSC : 25
©TSZ : 1

Video
ID : 1
Format : AVC
Format/Info : Advanced Video Codec
Format profile : [email protected]
Format settings, CABAC : Yes
Format settings, ReFrames : 3 frames
Format settings, GOP : M=3, N=25
Codec ID : avc1
Codec ID/Info : Advanced Video Coding
Duration : 4mn 58s
Bit rate mode : Variable
Bit rate : 14.0 Mbps
Maximum bit rate : 20.0 Mbps
Width : 3 840 pixels
Height : 2 160 pixels
Display aspect ratio : 16:9
Frame rate mode : Constant
Frame rate : 25.000 fps
Standard : PAL
Color space : YUV
Chroma subsampling : 4:2:0
Bit depth : 8 bits
Scan type : Progressive
Bits/(Pixel*Frame) : 0.068
Stream size : 499 MiB (98%)
Language : English
Encoded date : UTC 2016-12-13 12:57:47
Tagged date : UTC 2016-12-13 12:57:47
Color range : Limited
Color primaries : BT.709
Transfer characteristics : BT.709
Matrix coefficients : BT.709

Audio
ID : 2
Format : AAC
Format/Info : Advanced Audio Codec
Format profile : LC
Codec ID : 40
Duration : 4mn 58s
Source duration : 4mn 58s
Bit rate mode : Variable
Bit rate : 317 Kbps
Maximum bit rate : 400 Kbps
Channel(s) : 2 channels
Channel positions : Front: L R
Sampling rate : 48.0 KHz
Frame rate : 46.875 fps (1024 spf)
Compression mode : Lossy
Stream size : 11.3 MiB (2%)
Source stream size : 11.3 MiB (2%)
Language : English
Encoded date : UTC 2016-12-13 12:57:47
Tagged date : UTC 2016-12-13 12:57:47


Трекер:  [ 29-Июл-2017 11:30 ]

  

Скачать .torrent

Размер .torrent файла 141 KB


Размер: 13.57 GB
Хэш (hash) релиза: ad502537136f2928b4d537d68675e183cf72c452

Еще никто не оставлял запись к записи скачать торрент [Pantyamateur.com] PM,SSF,SUG,UKUS Minipack 2 x86 . Будь первым!

!Обратная связь