The Tesla Files S01E05 WEB h264-CookieMonster[ettv] 37 minutes | The Cosmopolitans | The Bronze Teeth 4

Скачать порно через торрент [Pantyamateur.com] UnionPeer.org бесплатно онлайн HD качество

Скачать новое порно 2015, 2014 новинки через торрент UnionPeer.org

Порно торрент бесплатно ЮнионПир.орг

Статистика раздачи
Размер:  14.22 GB   |    Зарегистрирован:  11 месяцев   |    .torrent скачан:  246 раз   |   
Раздают:  1  
   
загрузка...
 
Автор Сообщение

Galfimbul

avatar Galfimbul


[Pantyamateur.com] PM,SSF,SUG,UKUS Minipack 1 x66 960,1080p,4k Год производства: 2017 г.
Жанр: Solo Fetish
Студия: Pantyamateur.com

Описание: http://pantyamateur.com/
http://pantymaniacs.com/
http://ukupskirts.com/
http://skirtsupgirls.com/
http://satinsilkfun.com/

Тип HD видео: 1080p
Качество видео: WEB-DL
Формат видео: WMV
Видео: Windows Media Video 9 1920x1080 25.00fps 8085Kbps
Аудио: Windows Media Audio Stereo 440 kbps, 44 kHz
SU278_Poppy.wmv
Format : Windows Media
File size : 29.4 MiB
Duration : 2mn 0s
Overall bit rate mode : Variable
Overall bit rate : 2 046 Kbps
Maximum Overall bit rate : 4 067 Kbps
Encoded date : UTC 2011-09-06 16:55:11.200

Video
ID : 2
Format : VC-1
Format profile : [email protected]
Codec ID : WMV3
Codec ID/Info : Windows Media Video 9
Codec ID/Hint : WMV3
Description of the codec : Windows Media Video 9 - Professional
Bit rate mode : Variable
Bit rate : 2 000 Kbps
Width : 960 pixels
Height : 540 pixels
Display aspect ratio : 16:9
Frame rate mode : Variable
Nominal frame rate : 25.000 fps
Color space : YUV
Chroma subsampling : 4:2:0
Bit depth : 8 bits
Scan type : Progressive
Compression mode : Lossy
NumberOfFrames : 3004

Audio
ID : 1
Format : WMA
Format version : Version 2
Codec ID : 161
Codec ID/Info : Windows Media Audio
Description of the codec : Windows Media Audio 9.2 - 48 kbps, 44 kHz, stereo 2-pass VBR
Duration : 2mn 0s
Bit rate mode : Variable
Bit rate : 48.2 Kbps
Channel(s) : 2 channels
Sampling rate : 44.1 KHz
Bit depth : 16 bits
Stream size : 710 KiB (2%)
010916 PA Frankie Babe.wmv
Format : Windows Media
File size : 249 MiB
Duration : 4mn 12s
Overall bit rate mode : Variable
Overall bit rate : 8 262 Kbps
Maximum Overall bit rate : 10.5 Mbps
Encoded date : UTC 2016-07-05 11:04:32.521

Video
ID : 2
Format : VC-1
Format profile : [email protected]
Codec ID : WMV3
Codec ID/Info : Windows Media Video 9
Codec ID/Hint : WMV3
Description of the codec : Windows Media Video 9 - Professional
Duration : 4mn 12s
Bit rate mode : Variable
Bit rate : 8 000 Kbps
Width : 1 920 pixels
Height : 1 080 pixels
Display aspect ratio : 16:9
Frame rate : 25.000 fps
Bit depth : 8 bits
Compression mode : Lossy
Bits/(Pixel*Frame) : 0.154
Stream size : 241 MiB (97%)
Language : English (GB)
NumberOfFrames : 6310

Audio
ID : 1
Format : WMA
Format profile : Pro
Codec ID : 162
Codec ID/Info : Windows Media Audio
Description of the codec : Windows Media Audio 10 Professional - 440 kbps, 44 kHz, 2 channel 24 bit 2-pass VBR
Duration : 4mn 12s
Bit rate mode : Variable
Bit rate : 409 Kbps
Channel(s) : 2 channels
Sampling rate : 44.1 KHz
Bit depth : 24 bits
Stream size : 12.3 MiB (5%)
Language : English (GB)
NumberOfFrames : 627
280417_PM_Felicity.hd.mp4
Format : MPEG-4
Format profile : Base Media / Version 2
Codec ID : mp42 (mp42/mp41)
File size : 519 MiB
Duration : 4mn 58s
Overall bit rate mode : Variable
Overall bit rate : 14.6 Mbps
Encoded date : UTC 2017-02-28 14:26:19
Tagged date : UTC 2017-02-28 14:26:26
©TIM : 00:00:00:00
©TSC : 25
©TSZ : 1

Video
ID : 1
Format : AVC
Format/Info : Advanced Video Codec
Format profile : [email protected]
Format settings, CABAC : Yes
Format settings, ReFrames : 3 frames
Format settings, GOP : M=3, N=25
Codec ID : avc1
Codec ID/Info : Advanced Video Coding
Duration : 4mn 58s
Bit rate mode : Variable
Bit rate : 14.3 Mbps
Maximum bit rate : 18.0 Mbps
Width : 3 840 pixels
Height : 2 160 pixels
Display aspect ratio : 16:9
Frame rate mode : Constant
Frame rate : 25.000 fps
Standard : PAL
Color space : YUV
Chroma subsampling : 4:2:0
Bit depth : 8 bits
Scan type : Progressive
Bits/(Pixel*Frame) : 0.069
Stream size : 508 MiB (98%)
Language : English
Encoded date : UTC 2017-02-28 14:26:19
Tagged date : UTC 2017-02-28 14:26:19
Color range : Limited
Color primaries : BT.709
Transfer characteristics : BT.709
Matrix coefficients : BT.709

Audio
ID : 2
Format : AAC
Format/Info : Advanced Audio Codec
Format profile : LC
Codec ID : 40
Duration : 4mn 58s
Source duration : 4mn 58s
Bit rate mode : Variable
Bit rate : 317 Kbps
Maximum bit rate : 408 Kbps
Channel(s) : 2 channels
Channel positions : Front: L R
Sampling rate : 48.0 KHz
Frame rate : 46.875 fps (1024 spf)
Compression mode : Lossy
Stream size : 11.3 MiB (2%)
Source stream size : 11.3 MiB (2%)
Language : English
Encoded date : UTC 2017-02-28 14:26:19
Tagged date : UTC 2017-02-28 14:26:19


Трекер:  [ 18-Июл-2017 12:10 ]

  

Скачать .torrent

Размер .torrent файла 146 KB


Размер: 14.22 GB
Хэш (hash) релиза: e455226b0352688a5b466623ce6a5b5797cd8074

Торренты, похожие на [Pantyamateur.com] скачать торрент

Форум Название Автор Размер S L Добавлен
Фетиш ·· [Pantyamateur.com Satinsilkfun.com] Megapack x272 [2017 г., Solo Fetish ,960,1080p,4k WEB-DL] Galfimbul 4510714087742.01 GB 0 0 1511521933

14:12

24-Ноя-17

Фетиш ·· [Pantyamateur.com Pantymaniacs.com] Megapack 2 x175 [2017 г., Solo Fetish, 960,1080p,4k, WEB-DL] Galfimbul 5317594822849.52 GB 0 0 1509796421

14:53

4-Ноя-17

Фетиш ·· [Pantyamateur.com Pantymaniacs.com] Megapack 1 x163 [2017 г., Solo Fetish, 960,1080p,4k, WEB-DL] Galfimbul 3913404523136.45 GB 0 0 1508409794

13:43

19-Окт-17

Фетиш ·· [Pantyamateur.com Hotpantyfun.com] Megapack x200 [2017 г., Solo Fetish, 960,1080p,4k] Galfimbul 3832736170035.7 GB 1 1 1507284194

13:03

6-Окт-17

Сайтрипы 2016 ·· [WeAreHairy.com Pantyamateur.com] Satine Spark x38 960p 720p 1080p [2016 г., Solo Hairy Toys Fetish] Galfimbul 101474280669.45 GB 0 0 1502095992

11:53

7-Авг-17

Эротические студии (Фото | Видео) ·· [WeAreHairy.com PantyAmateur.com] Satine Spark [Solo Hairy Fetish Toys] [2000x3000, 2155] Galfimbul 15291568761.42 GB 0 0 1502006510

11:01

6-Авг-17

Сайтрипы 2015 ·· [Pantyamateur.com WeAreHairy.com] Tia Jones x20 [2015 г., Solo Hairy, 720p, 1080p] Galfimbul 69501542346.47 GB 0 0 1491415456

21:04

5-Апр-17

Фетиш ·· [Skirtsupgirls Pantyamateur.com] Megapack x141 [2017 г., Solo Fetish, 540p,1080p,4k, WEB-DL] Galfimbul 2482799809323.12 GB 0 0 1524258506

00:08

21-Апр-18

Фетиш ·· [Ukupskirts Pantyamateur.com] Megapack 2 x50 [2017 г., Solo Fetish, 960, 1080p, WEB-DL] Galfimbul 89374709258.32 GB 0 0 1521921192

22:53

24-Мар-18

Фетиш ·· [Ukupskirts Pantyamateur.com] Megapack 1 x100 [2017 г., Solo Fetish, 960,1080p,4k, WEB-DL] Galfimbul 1916136654317.85 GB 0 0 1519240992

22:23

21-Фев-18

Фетиш ·· [Pantyamateur.com] MegaPack 2 x40 [2017 г., Solo Fetish, 2160p, WEB-DL] Galfimbul 2276920350021.21 GB 0 0 1516034590

19:43

15-Янв-18

Фетиш ·· [Pantyamateur.com] Megapack 1 x104 [2017 г., 1080p, 4K WEB-DL] Galfimbul 4155615879838.7 GB 0 0 1512471747

14:02

5-Дек-17

Фетиш ·· [Pantyamateur.com] PM,SSF,SUG,UKUS Minipack 2 x86 [2016 г., Solo Fetish, 960,1080p,4k WEB-DL] Galfimbul 1457380107213.57 GB 0 0 1501317216

11:33

29-Июл-17

Фетиш ·· [Pantyamateur.com] Sapphire Blue Minipack x26 [2017 г., Solo Fetish, 1080p, 4K] Galfimbul 82630462517.7 GB 1 2 1496480687

12:04

3-Июн-17

Фетиш ·· [Pantyamateur.com] Scarlet H Minipack x18 [2017 г., Solo Fetish, 4K, 1080p] Galfimbul 64081246505.97 GB 0 0 1494149677

12:34

7-Май-17

Фетиш ·· [Pantyamateur.com] Harley G Megapack [2017 г., Solo Fetish, 4k, 1080p] Galfimbul 1358114073412.65 GB 0 0 1493800485

11:34

3-Май-17

Фетиш ·· [Pantyamateur.com ] Dolly (Dolly Diamond) Megapack [2017 г., Solo Fetish, 4k, 1080p] Galfimbul 1687909743215.72 GB 0 0 1493024837

12:07

24-Апр-17

Сайтрипы до 2011 ·· [PantyAmateur.com] Demi Scott (3669) (2009.11.30) [2009 г., Erotic, Posing, Big Tits, Upskirt] Galfimbul 112888014108 MB 0 0 1456648944

11:42

28-Фев-16

Эротические студии (Фото | Видео) ·· [Pantyamateur Pantymaniacs Hotpantyfun Ukupskirts Satinsilkfun.com] Pictures Megapack [960x1440 131954] Galfimbul 3538370337732.95 GB 0 0 1505460267

10:24

15-Сен-17

Еще никто не оставлял запись к записи скачать торрент [Pantyamateur.com] . Будь первым!

!Обратная связь