Running Man Episode 405 | HD Just Looking (1999) | Betsy Butoryak

Скачать через торрент [VIDEO] Логан Logan бесплатно русская версия torrent активатор

 
Автор Сообщение

Galfimbul

avatar Galfimbul


Логан / Logan«Его время пришло»
Год выпуска: 2017
Страна: США / 20th Century Fox Film Corporation
Жанр: фантастика, боевик, триллер, драма
Продолжительность: 02:17:23
Перевод: Русский Профессиональный (полное дублирование) Blu-ray EUR
Субтитры: нетРежиссер: Джеймс Мэнголд / James MangoldВ ролях: Хью Джекман, Патрик Стюарт, Дафни Кин, Бойд Холбрук, Стивен Мерчант, Элизабет Родригес, Ричард Э. Грант, Эрик Ла Салль, Элиз Нил, Куинси Фаус и другие .Описание: В недалеком будущем уставший от жизни Логан заботится о больном профессоре Икс, который прячется неподалеку от мексиканской границы. Но Логан больше не сможет скрывать свое прошлое, когда встретится с юным мутантом, которого преследуют темные силы. Релиз группы Качество: HDRip / рип с BDRip 720p
Формат: MP4
Видео кодек: XviD
Аудио кодек: AAC
Видео: 480х200 AR:2.40 509 kbps 23.976 fps
Аудио: [Russian] 2ch 48 kHz 128 kbps - Профессиональный (полное дублирование) Blu-ray EUR
GeneralComplete name : D:\Torrents\Logan.2017.HDRip.XviD.480x.rip by Frost O.S.mp4Format : MPEG-4Format profile : Base MediaCodec ID : isom (isom)File size : 630 MiBDuration : 2 h 17 minOverall bit rate mode : VariableOverall bit rate : 641 kb/sEncoded date : UTC 2017-07-01 16:58:17Tagged date : UTC 2017-07-01 16:58:17Writing application : My MP4Box GUI 0.6.0.6

VideoID : 1Format : MPEG-4 VisualFormat profile : Advanced [email protected] settings, BVOP : YesFormat settings, QPel : YesFormat settings, GMC : No warppointsFormat settings, Matrix : CustomCodec ID : 20Duration : 2 h 17 minBit rate mode : VariableBit rate : 509 kb/sMaximum bit rate : 3 428 kb/sWidth : 480 pixelsHeight : 200 pixelsDisplay aspect ratio : 2.40:1Frame rate mode : ConstantFrame rate : 23.976 (24000/1001) FPSColor space : YUVChroma subsampling : 4:2:0Bit depth : 8 bitsScan type : ProgressiveCompression mode : LossyBits/(Pixel*Frame) : 0.221Stream size : 500 MiB (79%)Title : Logan.2017.HDRip.XviD.480x.rip by Frost O.S.mp4Writing library : XviD 1.2.1 (UTC 2008-12-04)Encoded date : UTC 2017-07-01 16:58:17Tagged date : UTC 2017-07-01 16:58:28

AudioID : 2Format : AACFormat/Info : Advanced Audio CodecFormat profile : LCCodec ID : 40Duration : 2 h 17 minBit rate mode : VariableBit rate : 128 kb/sMaximum bit rate : 138 kb/sChannel(s) : 2 channelsChannel positions : Front: L RSampling rate : 48.0 kHzFrame rate : 46.875 FPS (1024 spf)Compression mode : LossyStream size : 126 MiB (20%)Title : Russian / Dub, Blu-ray EUREncoded date : UTC 2017-07-01 16:58:23Tagged date : UTC 2017-07-01 16:58:28

Еще никто не оставлял запись к записи скачать торрент [VIDEO] Логан Logan . Будь первым!

!Обратная связь