Directorul comunitar Rob Schrab preia LEGO Movie 2 | Короткометражный | Watch movie

Скачать через торрент [MULT] Кентервильское привидение бесплатно русская версия torrent активатор

Статистика раздачи
Размер:  164 MB   |    Зарегистрирован:  1 год 1 месяц   |    .torrent скачан:  26 раз   |   
Раздают:  1  
   
загрузка...
 
Автор Сообщение

Galfimbul

avatar Galfimbul


Кентервильское привидение
Год выпуска: 1970
Страна: СССР
Жанр: мультфильм
Продолжительность: 00:19:09Режиссер: Зинаида Брумберг, Валентина БрумбергРоли озвучивали: Владимир Кенигсон (Привидение), Алексей Консовский (Лорд), Рина Зелёная (Экономка), Евгений Весник (Американец), Ирина Карташева (Американка), Клара Румянова (Виргиния), Мария Виноградова и Т. Дмитриева (близнецы)Описание: По мотивам одноимённой повести О. Уайльда.

Американская семья переезжает в английский особняк, в котором, по легенде, много лет назад муж убил свою жену. По ночам в особняке начинают происходить странные вещи: чьи-то шаги, грохот цепей... И это постоянно появляющееся наутро пятно крови на кухне!..Доп. информация: БЕЗ реставрации.Качество: DVDRip
Формат: MP4
Видео: MPEG4-Visual, 480x360 (4:3), 1 072 Kbps, 25 fps
Аудио: Русский, AAC, 2 ch, 128 Kbps, 48 KHz
ОбщееПолное имя : D:\Раздачи\Kentervil'skoe.Prividenie.1970.DVDRip.640x.mp4Формат : MPEG-4Профиль формата : Base Media / Version 2Идентификатор кодека : mp42 (isom/mp42/3gp5)Размер файла : 164 МбайтПродолжительность : 19 м.Режим общего битрейта : ПеременныйОбщий поток : 1200 Кбит/секДата кодирования : UTC 2017-06-09 05:08:52Дата пометки : UTC 2017-06-09 05:08:52

ВидеоИдентификатор : 201Формат : MPEG-4 VisualПрофиль формата : [email protected]Параметр BVOP формата : НетПараметр QPel формата : НетПараметр GMC формата : Без точки переходаПараметр матрицы формата : Default (H.263)Идентификатор кодека : 20Продолжительность : 19 м.Вид битрейта : ПеременныйБитрейт : 1072 Кбит/секМаксимальный битрейт : 2249 Кбит/секШирина : 480 пикселейВысота : 360 пикселейСоотношение сторон : 4:3Режим частоты кадров : ПостоянныйЧастота кадров : 25,000 кадров/секЦветовое пространство : YUVСубдискретизация насыщенности : 4:2:0Битовая глубина : 8 битТип развёртки : ПрогрессивнаяМетод сжатия : С потерямиБит/(Пиксели*Кадры) : 0.248Размер потока : 147 Мбайт (89%)Библиотека кодирования : Lavc52.30.2Дата кодирования : UTC 2017-06-09 05:08:52Дата пометки : UTC 2017-06-09 05:08:57

АудиоИдентификатор : 101Формат : AACФормат/Информация : Advanced Audio CodecПрофиль формата : LCИдентификатор кодека : 40Продолжительность : 19 м.Вид битрейта : ПеременныйБитрейт : 125 Кбит/секМаксимальный битрейт : 147 Кбит/секКаналы : 2 каналаРасположение каналов : Front: L RЧастота : 48,0 КГцЧастота кадров : 46,875 кадров/сек (1024 spf)Метод сжатия : С потерямиРазмер потока : 17,2 Мбайт (10%)Дата кодирования : UTC 2017-06-09 05:08:56Дата пометки : UTC 2017-06-09 05:08:57

Прочее #1Идентификатор : 2Тип : Object descriptionФормат : SystemИдентификатор кодека : 1Продолжительность : 1 с. 0 мс.Дата кодирования : UTC 2017-06-09 05:08:57Дата пометки : UTC 2017-06-09 05:08:57

Прочее #2Идентификатор : 1Тип : Scene descriptionФормат : System CoreИдентификатор кодека : 2Продолжительность : 1 с. 0 мс.Дата кодирования : UTC 2017-06-09 05:08:57Дата пометки : UTC 2017-06-09 05:08:57


Трекер:  [ 10-Июн-2017 11:42 ]

  

Скачать .torrent

Размер .torrent файла 13 KB


Размер: 164 MB
Хэш (hash) релиза: cea1ab832831796e900aeb79c3fd2fa101baa767

Еще никто не оставлял запись к записи скачать торрент [MULT] Кентервильское привидение . Будь первым!

!Обратная связь