Un pliegue en el tiempo BluRay MicroHD | Criminal Minds: Team Red | Mary and the Witch's Flower

Скачать через торрент Городские птички Фильм бесплатно в хорошем качестве torrent

Скачивайте на UnionPeer.org фильмы через торрент без регистрации. Новинки кино в хорошем качестве через торрент. На UnionPeer.org можно скачать через торрент фильмы 2014 и 2015 годов. Самые новые фильмы.

Скачать торрент Городские птички бесплатно через .torrent фильм мультфильм сериал

Статистика раздачи
Размер:  3.16 GB   |    Зарегистрирован:  1 год 1 месяц   |    .torrent скачан:  92 раза   |   
Раздают:  1  
   
загрузка...
 
Автор Сообщение

Galfimbul

avatar Galfimbul


Городские птички

Год выхода: 2015
Жанр: Комедия, мелодрама
Режиссер: Юлия Белая
В ролях: Евгения Афонская, Евгения Громова, Анна Воркуева, Филипп Авдеев, Александр Горчилин, Харальд Розенстрём, Елена Махова, Артем Сучков, Роман Хан

О фильме:
В центре нашего внимания — романтические истории трех подруг. Маша — редактор в детском издательстве, полноватая, закомплексованная, из хорошей семьи, попадает в совершенно неожиданную для нее ситуацию — просыпается с похмелья в боксерском клубе. Настя продает модные вещи, деловая, самостоятельная, снимает квартиру со своим парнем Романом — начинающим татуировщиком. Настя случайно узнает, что Роман ей изменил, и решает ему отомстить. Рита — администратор в хостеле, месте встреч подруг, натура романтичная. Из-за боязни высоты мало путешествует, за это шутливо отыгрывается на посетителях-иностранцах: подпаивает их и обыгрывает в настольный хоккей. Но встреча с одним из гостей, Харольдом, заставляет Риту по-другому взглянуть на все вокруг. Каждая из героинь пытается найти и удержать любовь, но это не так-то просто!

Страна: Россия
Студия: Метрономфильм, Каргофильм
Продолжительность: 01:24:07
Перевод: Не требуется

Файл
Кодек: h.264
Качество: WEB-DLRip (1080p)
Видео: MPEG-4 AVC, 5120 Кбит/с, 1920x1080
Звук: Русский (AC3, 2 ch, 256 Кбит/с)
Субтитры: Нет

Семпл
General
Unique ID : 196500076007951614184103638190061068506 (0x93D489BD5EBDE9C9B2DB4DD5326120DA)
Complete name : D:uTorrentGorodskie.ptichki.2015.WEB-DLRip.1080p.MediaClub.mkv
Format : Matroska
Format version : Version 4 / Version 2
File size : 3.16 GiB
Duration : 1 h 24 min
Overall bit rate : 5 375 kb/s
Encoded date : UTC 2017-05-26 17:03:12
Writing application : mkvmerge v12.0.0 ('Trust / Lust') 64bit
Writing library : libebml v1.3.4 + libmatroska v1.4.5

Video
ID : 1
Format : AVC
Format/Info : Advanced Video Codec
Format profile : [email protected]
Format settings, CABAC : Yes
Format settings, ReFrames : 4 frames
Codec ID : V_MPEG4/ISO/AVC
Duration : 1 h 24 min
Bit rate : 5 120 kb/s
Width : 1 920 pixels
Height : 1 080 pixels
Display aspect ratio : 16:9
Frame rate mode : Constant
Frame rate : 25.000 FPS
Color space : YUV
Chroma subsampling : 4:2:0
Bit depth : 8 bits
Scan type : Progressive
Bits/(Pixel*Frame) : 0.099
Stream size : 3.01 GiB (95%)
Title : WEB-DLRip by Silverok
Writing library : x264 core 142
Encoding settings : cabac=1 / ref=3 / deblock=1:0:0 / analyse=0x3:0x113 / me=hex / subme=7 / psy=1 / psy_rd=1.00:0.00 / mixed_ref=1 / me_range=16 / chroma_me=1 / trellis=1 / 8x8dct=1 / cqm=0 / deadzone=21,11 / fast_pskip=1 / chroma_qp_offset=-2 / threads=48 / lookahead_threads=8 / sliced_threads=0 / nr=0 / decimate=1 / interlaced=0 / bluray_compat=0 / constrained_intra=0 / bframes=6 / b_pyramid=2 / b_adapt=1 / b_bias=0 / direct=1 / weightb=1 / open_gop=0 / weightp=2 / keyint=200 / keyint_min=20 / scenecut=0 / intra_refresh=0 / rc_lookahead=40 / rc=2pass / mbtree=1 / bitrate=5120 / ratetol=1.0 / qcomp=0.60 / qpmin=0 / qpmax=69 / qpstep=4 / cplxblur=20.0 / qblur=0.5 / vbv_maxrate=7680 / vbv_bufsize=20480 / nal_hrd=none / filler=0 / ip_ratio=1.40 / aq=1:1.00
Default : Yes
Forced : No

Audio
ID : 2
Format : AC-3
Format/Info : Audio Coding 3
Format settings, Endianness : Big
Codec ID : A_AC3
Duration : 1 h 24 min
Bit rate mode : Constant
Bit rate : 256 kb/s
Channel(s) : 2 channels
Channel positions : Front: L R
Sampling rate : 48.0 kHz
Frame rate : 31.250 FPS (1536 spf)
Bit depth : 16 bits
Compression mode : Lossy
Stream size : 154 MiB (5%)
Language : Russian
Service kind : Complete Main
Default : Yes
Forced : No


Трекер:  [ 09-Июн-2017 21:50 ]

  

Скачать .torrent

Размер .torrent файла 16 KB


Размер: 3.16 GB
Хэш (hash) релиза: 4e2ef0bd016a7688d6a53ccdb0e5f8211ffee72e
Подписка на обновления:

Торренты, похожие на Городские птички скачать торрент

Форум Название Автор Размер S L Добавлен
Российские фильмы до 2016 ·· Городские птички (Юлия Белая) [2016, комедия, мелодрама, WEB-DLRip] Galfimbul 14665865541.37 GB 0 0 1517668348

17:32

3-Фев-18

Еще никто не оставлял запись к записи скачать торрент Городские птички . Будь первым!

!Обратная связь