Cancelar | Программы для настройки и оптимизации ОС | 瓒崇悆瀹濊礉

Скачать через торрент [MULT] Пингвины Мадагаскара Penguins of Madagascar бесплатно русская версия torrent активатор

Статистика раздачи
Размер:  315 MB   |    Зарегистрирован:  1 год 1 месяц   |    .torrent скачан:  15 раз   |   
Раздают:  1  
   
загрузка...
 
Автор Сообщение

Galfimbul

avatar Galfimbul


Пингвины Мадагаскара / Penguins of Madagascar«В этот раз они не останутся в тени»
Год выпуска: 2014
Страна: США
Жанр: мультфильм, комедия, приключения, семейный
Продолжительность: 01:31:49
Перевод: [Русский] Профессиональный (дублированный) NORDiC Blu-ray
Субтитры: нетРежиссеры: Эрик Дарнелл / Eric Darnell, Саймон Дж. Смит / Simon J. SmithСценаристы: Майкл Колтон / Michael Colton, Джон Эбауд / John Aboud, Брэндон Сойер / Brandon Sawyer, Алан Дж. Скулкрафт / Alan J. Schoolcraft, Брент Саймонс / Brent Simons, Эрик Дарнелл / Eric Darnell, Том МакГрат / Tom McGrathМонтажер: Ник Кенвей / Nick KenwayКомпозитор: Лорн Бэлф / Lorne BalfeРоли озвучивали: Том МакГрат / Tom McGrath (Skipper), Крис Миллер / Chris Miller (Kowalski), Кристофер Найтс / Christopher Knights (Private), Конрад Вернон / Conrad Vernon (Rico), Джон Малкович / John Malkovich (Dave), Бенедикт Камбербэтч / Benedict Cumberbatch (Classified), Кен Жонг / Ken Jeong (Short Fuse), Аннет Махендру / Annet Mahendru (Eva),
Петер Стормаре / Peter Stormare (Corporal), Энди Рихтер / Andy Richter (Mort), Дэнни Джейкобс / Danny Jacobs (King Julien) и другие .Роли дублировали: Анатолий Дубанов, Андрей Шамин, Иван Паршин, Вадим Романов, Максим Матвеев, Александр Разбаш, Анна Слынько и другие .Бюджет: $132 000 000Сборы в США: $83 350 911Сборы в мире: + $290 201 183 = $373 552 094Cборы в России: $18 404 203Зрители: 3.76 млнПремьера (мир): 8 ноября 2014Премьера (РФ): 27 ноября 2014, «Двадцатый Век Фокс СНГ» Премьера (Укр.): 27 ноября 2014, «Ukrainian Film Distribution»Релиз на DVD: 5 марта 2015, «Двадцатый Век Фокс СНГ»Релиз на Blu-Ray: 5 марта 2015, «Двадцатый Век Фокс СНГ»Описание: Четвёрка пингвинов-шпионов — Шкипер, Ковальски, Рико и Прапор — объединяется с командой «Северный ветер», помогающей беззащитным животным. Им предстоит остановить злобного осьминога, доктора Октавиуса Брайна, желающего уничтожить этот мир…
Когда пингвины пытаются спасти яйцо, можно заметить, что снежный ком, в котором было яйцо, и снежный ком, в котором были пингвины, исчезают к моменту нападения тюленей.
Релиз группы Качество:HDRip / рип с BDRip 720p (скачанный с HD Club)
Формат: 3GP
Видео кодек: Другой mpeg4
Аудио кодек: AAC
Видео: 320x176 AR:16/9 350 kbps 23.976 fps
Аудио: [Русский] 2ch 48 kHz 128 kbps - [Dub] NORDiC Blu-ray
GeneralComplete name : E:\Torrents\Penguins.of.Madagascar.2014.HDRip.MPEG.320x.rip by Frost O.S.3gpFormat : MPEG-4Format profile : 3GPP Media Release 5Codec ID : 3gp5File size : 315 MiBDuration : 1h 31mnOverall bit rate mode : VariableOverall bit rate : 480 KbpsEncoded date : UTC 2015-07-19 10:52:42Tagged date : UTC 2015-07-19 10:52:42

VideoID : 1Format : MPEG-4 VisualFormat profile : [email protected] settings, BVOP : NoFormat settings, QPel : NoFormat settings, GMC : No warppointsFormat settings, Matrix : Default (H.263)Codec ID : 20Duration : 1h 31mnBit rate mode : VariableBit rate : 350 KbpsMaximum bit rate : 770 KbpsWidth : 320 pixelsHeight : 176 pixelsDisplay aspect ratio : 16:9Frame rate mode : ConstantFrame rate : 23.976 fpsColor space : YUVChroma subsampling : 4:2:0Bit depth : 8 bitsScan type : ProgressiveCompression mode : LossyBits/(Pixel*Frame) : 0.259Stream size : 230 MiB (73%)Writing library : Lavc53.33.0Encoded date : UTC 2015-07-19 10:52:42Tagged date : UTC 2015-07-19 10:53:00

AudioID : 2Format : AACFormat/Info : Advanced Audio CodecFormat profile : LCCodec ID : 40Duration : 1h 31mnBit rate mode : VariableBit rate : 128 KbpsMaximum bit rate : 175 KbpsChannel(s) : 2 channelsChannel positions : Front: L RSampling rate : 48.0 KHzCompression mode : LossyStream size : 83.8 MiB (27%)Encoded date : UTC 2015-07-19 10:52:53Tagged date : UTC 2015-07-19 10:53:00


Трекер:  [ 09-Июн-2017 02:12 ]

  

Скачать .torrent

Размер .torrent файла 12 KB


Размер: 315 MB
Хэш (hash) релиза: 6a4633b9e57852dcbf6090a471c1c428711eb263

Еще никто не оставлял запись к записи скачать торрент [MULT] Пингвины Мадагаскара Penguins of Madagascar . Будь первым!

!Обратная связь