All the Money in the World | Curso prático de fotografia digital | Read More..

Скачать через торрент [MULT] Дом Home бесплатно русская версия torrent активатор

Статистика раздачи
Размер:  322 MB   |    Зарегистрирован:  1 год 1 месяц   |    .torrent скачан:  14 раз   |   
Раздают:  1  
   
загрузка...
 
Автор Сообщение

Galfimbul

avatar Galfimbul


Дом / Home«Контакт неизбежен»
Год выпуска: 2015
Страна: США
Жанр: мультфильм, фантастика, фэнтези, комедия, приключения, семейный
Продолжительность: 01:33:48
Перевод: [Русский] Профессиональный (дублированный) EUR Blu-ray
Субтитры: нетРежиссер: Тим Джонсон / Tim JohnsonСценаристы: Том Дж. Эстл / Tom J. Astle, Мэтт Эмбер / Matt Ember, Адам Рекс / Adam RexМонтажер: Ник Флетчер / Nick FletcherКомпозитор: Лорн Бэлф / Lorne BalfeРоли озвучивали: Джим Парсонс / Jim Parsons (Oh), Рианна / Rihanna (Gratuity «Tip» Tucci), Стив Мартин / Steve Martin (Captain Smek), Дженнифер Лопез / Jennifer Lopez (Lucy), Мэтт Джонс / Matt Jones (Kyle), Брайан Степанек / Brian Stepanek (Gorg Commander / Father / Boov) и другие .Роли дублировали: Андрей Зайцев, Аделина Червякова, Максим Сергеев, Андрей Матвеев, Лилиан Наврозашвили, Марианна Семенова . Бюджет: $135 000 000Сборы в США: $175 961 932Сборы в мире: + $193 000 000 = $368 961 932Cборы в России: $18 055 105Зрители: 4.17 млнПремьера (мир): 7 марта 2015Премьера (РФ): 19 марта 2015, «Двадцатый Век Фокс СНГ»Премьера (Укр.): 19 марта 2015, «Ukrainian Film Distribution»Релиз на DVD: 23 июля 2015, «Двадцатый Век Фокс СНГ»Релиз на Blu-Ray: 23 июля 2015, «Двадцатый Век Фокс СНГ»Описание: Захватив Землю, раса пришельцев Був тут же начинает заниматься её благоустройством и реорганизацией. «Не стоит благодарности!» — заявляют они землянам, собранным на время в отдельных резервациях. Находчивая и рисковая девочка по имени Дар, чудом сбежавшая от пришельцев, встречает на своем пути самого раздражающе-оптимистичного Бува по имени О, отвергнутого своими инопланетными собратьями. Этой, казалось бы, несовместимой парочке предстоит спасти нашу планету. Хорошо, что у них есть летающий автомобиль!
Фильм основан на книге Адама Рекса «The True Meaning of Smekday» (Настоящее значение Дня Смека).Изначально персонажа Джима Парсонса звали «Джей Ло» (J. Lo), однако в итоге имя изменили на «О» (Oh). В реальной жизни Джей Ло – это прозвище Дженнифер Лопез, которая, кстати, тоже озвучивала одного из персонажей фильма.
Релиз группы Качество:HDRip / рип с BDRip 720p (скачанный с HD Club)
Формат: 3GP
Видео кодек: Другой mpeg4
Аудио кодек: AAC
Видео: 320x176 AR:16/9 350 kbps 23.976 fps
Аудио: [Русский] 2ch 48 kHz 128 kbps - [Dub] EUR Blu-ray
GeneralComplete name : E:\Torrents\Home.2015.HDRip.MPEG.320x.rip by Frost O.S.3gpFormat : MPEG-4Format profile : 3GPP Media Release 5Codec ID : 3gp5File size : 322 MiBDuration : 1h 33mnOverall bit rate mode : VariableOverall bit rate : 480 KbpsEncoded date : UTC 2015-07-19 11:42:40Tagged date : UTC 2015-07-19 11:42:40

VideoID : 1Format : MPEG-4 VisualFormat profile : [email protected] settings, BVOP : NoFormat settings, QPel : NoFormat settings, GMC : No warppointsFormat settings, Matrix : Default (H.263)Codec ID : 20Duration : 1h 33mnBit rate mode : VariableBit rate : 350 KbpsMaximum bit rate : 842 KbpsWidth : 320 pixelsHeight : 176 pixelsDisplay aspect ratio : 16:9Frame rate mode : ConstantFrame rate : 23.976 fpsColor space : YUVChroma subsampling : 4:2:0Bit depth : 8 bitsScan type : ProgressiveCompression mode : LossyBits/(Pixel*Frame) : 0.259Stream size : 235 MiB (73%)Writing library : Lavc53.33.0Encoded date : UTC 2015-07-19 11:42:40Tagged date : UTC 2015-07-19 11:42:59

AudioID : 2Format : AACFormat/Info : Advanced Audio CodecFormat profile : LCCodec ID : 40Duration : 1h 33mnBit rate mode : VariableBit rate : 128 KbpsMaximum bit rate : 180 KbpsChannel(s) : 2 channelsChannel positions : Front: L RSampling rate : 48.0 KHzCompression mode : LossyStream size : 85.7 MiB (27%)Encoded date : UTC 2015-07-19 11:42:55Tagged date : UTC 2015-07-19 11:42:59


Трекер:  [ 09-Июн-2017 02:12 ]

  

Скачать .torrent

Размер .torrent файла 13 KB


Размер: 322 MB
Хэш (hash) релиза: 5108a24a1f173e260d4d7871d922bf4877e7768b

Еще никто не оставлял запись к записи скачать торрент [MULT] Дом Home . Будь первым!

!Обратная связь