Cloud computing - Wikipedia | حريم الصحراء (57 طلب) | Jay Armstrong Johnson

Скачать через торрент [VIDEO] Сумрачный самурай Сумеречный самурай бесплатно русская версия torrent активатор

Статистика раздачи
Размер:  444 MB   |    Зарегистрирован:  1 год 1 месяц   |    .torrent скачан:  11 раз   |   
Раздают:  1  
   
загрузка...
 
Автор Сообщение

Galfimbul

avatar Galfimbul


Сумрачный самурай / Сумеречный самурай / Tasogare Seibei / The Twilight Samurai
Год выпуска: 2002
Страна: Япония
Жанр: Драма, мелодрама
Продолжительность: 02:09:02
Перевод: Русский | Профессиональный (многоголосый, закадровый) "Кино без границ"
Субтитры: нетРежиссер: Ёдзи Ямада / Yôji YamadaСценаристы: Ёдзи Ямада / Yôji Yamada, Ёситака Асама / Yoshitaka Asama, Шуухей Фуджисава / Shûhei FujisawaОператор: Муцуо Наганума / Mutsuo NaganumaМонтажер: Ивао Исий / Iwao IshiiКомпозитор: Исао Томита / Isao TomitaВ ролях: Хироюки Санада / Hiroyuki Sanada (Seibei Iguchi), Риэ Миядзава / Rie Miyazawa (Tomoe Iinuma), Нэндзи Кобаяси / Nenji Kobayashi (Choubei Kusaka), Рен Осуги / Ren Osugi (Toyotarou Kouda), Мицуру Фукикоси / Mitsuru Fukikoshi (Michinojo Iinuma), Канако Фукаура / Kanako Fukaura, Хироши Канбе / Hiroshi Kanbe (Naota), Мики Ито / Miki Itô (Kayano Iguchi) и другие . Бюджет: $5 000 000Сборы в США: $559765Зрители: 18.5 тыс., 13.4 тыс., 11.7 тыс.Премьера (мир): 2 ноября 2002Премьера (РФ): 6 ноября 2003, «Кино без границ», «Пан Терра»Релиз на DVD: 22 июня 2004, «Ruscico»Описание: История Сейбея — скромного самурая низшего ранга и его семьи, живших в эпоху смуты. Сейбей победил в поединке противника деревянным мечом, и когда об этом распространилась молва, он против своей воли оказался вовлеченным в конфликт внутри самурайского клана и получает приказ сюзерена убить такого же, как и он сам, вассала… Релиз группы Качество: HDRip / BDRip 720p
Формат: 3GP
Видео кодек: Другой MPEG4
Аудио кодек: AAC
Видео: 320x176 AR:16/9 350 kbps 23.976 fps
Аудио: [Русский] 2ch 48 kHz 128 kbps - [MVO] "Кино без границ"
GeneralComplete name : E:\Torrents\Tasogare.Seibei.2002.HDRip.MPEG4.320x.rip by Frost O.S.3gpFormat : MPEG-4Format profile : 3GPP Media Release 5Codec ID : 3gp5File size : 444 MiBDuration : 2h 9mnOverall bit rate mode : VariableOverall bit rate : 481 KbpsEncoded date : UTC 2015-08-04 11:43:40Tagged date : UTC 2015-08-04 11:43:40

VideoID : 1Format : MPEG-4 VisualFormat profile : [email protected] settings, BVOP : NoFormat settings, QPel : NoFormat settings, GMC : No warppointsFormat settings, Matrix : Default (H.263)Codec ID : 20Duration : 2h 9mnBit rate mode : VariableBit rate : 350 KbpsMaximum bit rate : 1 039 KbpsWidth : 320 pixelsHeight : 176 pixelsDisplay aspect ratio : 16:9Frame rate mode : ConstantFrame rate : 23.976 fpsColor space : YUVChroma subsampling : 4:2:0Bit depth : 8 bitsScan type : ProgressiveCompression mode : LossyBits/(Pixel*Frame) : 0.259Stream size : 323 MiB (73%)Writing library : Lavc53.33.0Encoded date : UTC 2015-08-04 11:43:40Tagged date : UTC 2015-08-04 11:44:44

AudioID : 2Format : AACFormat/Info : Advanced Audio CodecFormat profile : LCCodec ID : 40Duration : 2h 9mnBit rate mode : VariableBit rate : 128 KbpsMaximum bit rate : 213 KbpsChannel(s) : 2 channelsChannel positions : Front: L RSampling rate : 48.0 KHzCompression mode : LossyStream size : 118 MiB (27%)Encoded date : UTC 2015-08-04 11:44:33Tagged date : UTC 2015-08-04 11:44:44


Трекер:  [ 09-Июн-2017 02:12 ]

  

Скачать .torrent

Размер .torrent файла 18 KB


Размер: 444 MB
Хэш (hash) релиза: 911889376dcef1ce2fbdde382614941a9582a48e

Еще никто не оставлял запись к записи скачать торрент [VIDEO] Сумрачный самурай Сумеречный самурай . Будь первым!

!Обратная связь