Yeni Sekmede Aç | The Missing (2003) | Live Info Show 2

Скачать через торрент [VIDEO] Файлан Failan бесплатно русская версия torrent активатор

Статистика раздачи
Размер:  399 MB   |    Зарегистрирован:  1 год 1 месяц   |    .torrent скачан:  9 раз   |   
Раздают:  1  
   
загрузка...
 
Автор Сообщение

Galfimbul

avatar Galfimbul


Файлан / Failan / Pairan
Год выпуска: 2001
Страна: Корея Южная
Жанр: драма, мелодрама
Продолжительность: 01:56:12
Перевод: Русский | Одноголосый ( закадровый) D.I.M.
Субтитры: нетРежиссер: Хе-сонг Сонг / Hae-sung SongСценарист: Джиро Асада / Jirô AsadaОператор: Ён-чхоль Ким / Yeong-cheol KimМонтажер: Кок-чжи Пак / Gok-ji ParkКомпозитор: Чжэ-чжин Ли / Jae-jin LeeВ ролях: Чхве Мин Сик / Choi Min Sik (в титрах: Min-shik Choi) (Kang-jae), Сесилия Чунг / Cecilia Cheung (Failan), Дэ-Хун Чон / Dae-Hoon Jeong, Кон Хён Чжин / Hyeong-jin Kong (Kyung-Su), Сон Бён Хо / Son Byung . Зрители: 25.5 тыс.Премьера (мир): 28 апреля 2001Описание: После смерти обоих родителей Файлан эмигрирует в Южную Корею с целью найти там оставшихся родственников. По приезде она узнаёт, что они переехали в Канаду. Несчастная Файлан в попытке хоть как-то устроить свою жизнь в чужой и незнакомой Корее обращается в брачное агентство, где ей находят мужа. Кан Чже — уже немолодой гангстер, плохо обеспеченный и не имеющий никакого авторитета.

Файлан ничего не знает о Кан Чже, у неё есть только его фотография от агентства. Брак с ним позволяет Файлан получить разрешение на работу, Кан Чже получает обещанное денежное вознаграждение, и, казалось бы, что на этом их отношения должны завершиться, но Файлан начинает испытывать любовь к незнакомому мужу.

Хотя они никогда не встречались, Файлан пишет Кан Чже, но никогда не отправляет, письма о своей любви и втайне надеется, что он приедет к ней повидаться. В конце концов «муж» Файлан узнаёт о том, как много он значил для неё, о том, что кроме него у неё никого нет. Вдруг Кан Чже понимает, что и у него в жизни не было ничего ценного, кроме её любви, никто не ждал и не нуждался в нём так, как Файлан. К сожалению, это открытие происходит слишком поздно. Релиз группы Качество: HDRip / BDRip 720p
Формат: 3GP
Видео кодек: Другой MPEG4
Аудио кодек: AAC
Видео: 320x184 AR:1.739 350 kbps 23.976 fps
Аудио: [Русский] 2ch 48 kHz 128 kbps - [VO] D.I.M.
GeneralComplete name : E:\Torrents\Failan.2001.HDRip.MPEG4.320x.rip by Frost O.S.3gpFormat : MPEG-4Format profile : 3GPP Media Release 5Codec ID : 3gp5File size : 399 MiBDuration : 1h 56mnOverall bit rate mode : VariableOverall bit rate : 481 KbpsEncoded date : UTC 2015-08-07 14:39:25Tagged date : UTC 2015-08-07 14:39:25

VideoID : 1Format : MPEG-4 VisualFormat profile : [email protected] settings, BVOP : NoFormat settings, QPel : NoFormat settings, GMC : No warppointsFormat settings, Matrix : Default (H.263)Codec ID : 20Duration : 1h 56mnBit rate mode : VariableBit rate : 350 KbpsMaximum bit rate : 757 KbpsWidth : 320 pixelsHeight : 184 pixelsDisplay aspect ratio : 1.739Frame rate mode : ConstantFrame rate : 23.976 fpsColor space : YUVChroma subsampling : 4:2:0Bit depth : 8 bitsScan type : ProgressiveCompression mode : LossyBits/(Pixel*Frame) : 0.248Stream size : 291 MiB (73%)Writing library : Lavc53.33.0Encoded date : UTC 2015-08-07 14:39:25Tagged date : UTC 2015-08-07 14:39:53

AudioID : 2Format : AACFormat/Info : Advanced Audio CodecFormat profile : LCCodec ID : 40Duration : 1h 56mnBit rate mode : VariableBit rate : 128 KbpsMaximum bit rate : 189 KbpsChannel(s) : 2 channelsChannel positions : Front: L RSampling rate : 48.0 KHzCompression mode : LossyStream size : 106 MiB (27%)Encoded date : UTC 2015-08-07 14:39:48Tagged date : UTC 2015-08-07 14:39:53


Трекер:  [ 09-Июн-2017 02:12 ]

  

Скачать .torrent

Размер .torrent файла 16 KB


Размер: 399 MB
Хэш (hash) релиза: 29bd743f094ab68c5a4415ff65317b5a543b7556

Торренты, похожие на [VIDEO] Файлан Failan скачать торрент

Форум Название Автор Размер S L Добавлен
Видео (Фильмы/Клипы) ·· [VIDEO] Файлан / Failan / Pairan (Хе-сонг Сонг / Hae-sung Song) [2001, драма, мелодрама, HDRip] [MP4, 480x] VO D.I.M. Galfimbul 550817814525 MB 0 0 1442151284

16:34

13-Сен-15

Видео (Фильмы/Клипы) ·· [VIDEO] Файлан / Failan / Pairan (Хе-сонг Сонг / Hae-sung Song) [2001, драма, мелодрама, HDRip] [MP4, 960x] VO D.I.M. Galfimbul 16313464711.52 GB 0 0 1441920668

00:31

11-Сен-15

Еще никто не оставлял запись к записи скачать торрент [VIDEO] Файлан Failan . Будь первым!

!Обратная связь