Contacts | Watch movie | 2014 Movies

Скачать через торрент [VIDEO] 38-я параллель Taegukgi hwinalrimyeo бесплатно русская версия torrent активатор

Статистика раздачи
Размер:  510 MB   |    Зарегистрирован:  1 год 1 месяц   |    .torrent скачан:  9 раз   |   
Раздают:  1  
   
загрузка...
 
Автор Сообщение

Galfimbul

avatar Galfimbul


38-я параллель / Taegukgi hwinalrimyeo / The Brotherhood of War
Год выпуска: 2004
Страна: Корея Южная
Жанр: боевик, драма, военный
Продолжительность: 02:28:13
Перевод: Русский | Профессиональный (многоголосый, закадровый)
Субтитры: нетРежиссер: Канг Чже Гю / Kang Je GyuСценарист: Жи-хун Хань / Ji-hoon Han, Канг Чже Гю / Kang Je Gyu, Сан-дон Ким / Sang-don KimОператор: Хонг Кён-Пхо / Hong Kyung-PyoМонтажер: Кенг-хи Чои / Kyeong-hie ChoiКомпозитор: Дон-чон Ли / Dong-jun LeeВ ролях: Чан Дон Гун / Jang Dong Gun (Jin-tae Lee), Вон Бин / Won Bin (Jin-seok Lee), Ли Юн Чу / Lee Eun Ju (Young-shin Kim), Кон Хён Чжин / Hyeong-jin Kong (Yong-man), Ён-ран Ли / Yeong-ran Lee (Mother Lee), Ан Киль Кан / Ahn Kil Kang (Sergeant Huh) и другие .Зрители: 11.7 млн, 178.9 тыс., 27.9 тыс.Премьера (мир): 3 февраля 2004Премьера (РФ): 2 декабря 2004, «Lizard Cinema»Релиз на DVD: 14 октября 2008, «Lizard Cinema Trade»Релиз на Blu-Ray: 17 февраля 2009, «Lizard Cinema Trade»Описание: На фоне трагических событий корейской войны 1950-53 годов — самой кровопролитной после окончания Второй мировой, показана судьба одной семьи. Мирное благополучие, счастливые ожидания, мечты и надежды рушатся в единый миг, когда страну охватывает хаос и ужас войны. Под грохот танков, свист пуль и разрывы бомб главный герой фильма Джин-тае пытается спасти своих близких, отправив их на кажущийся спокойным юг Корейского полуострова.

Семья, присоединившаяся к колоннам беженцев, заполнивших дороги страны, проходит сквозь лишения и испытания. Но главное несчастье ждало Джин-тае впереди. Его младшего брата силой забрали в солдаты. Джин-тае отчаянно пытался помешать рекрутерам, но сам оказался в поезде новобранцев. Неопытных, необученных, плохо вооруженных парней немедленно забрасывают на передовую.

Им приказано держать оборону у реки Накдонг и не сдавать позиций. Для верховного командования они — пушечное мясо. Под шквальным огнем у молодых солдат почти нет шансов выжить…
Оригинальное название «Taegukgi» — название национального флага Республики Корея.Использована настоящая техника Корейской войны.Для фильма было сшито около 19 тысяч комплектов униформы южнокорейской и северокорейской армии.Съемочный период фильма — 10 февраля — 31 октября 2003.Создана двухкилометровая линия обороны у реки Нактонган.Полный вариант фильма имеет хронометраж 148 минут.Из-за обилия сцен военного насилия, фильм получил высокие ограничительные рейтинги во многих странах.В Корее фильм в кинотеатрах посмотрели 13 миллионов человек (из 47 миллионов населения).
Релиз группы Качество: HDRip / BDRip 720p
Формат: 3GP
Видео кодек: Другой MPEG4
Аудио кодек: AAC
Видео: 320x136 AR:2.35 350 kbps 23.976 fps
Аудио: [Русский] 2ch 48 kHz 128 kbps - MVO
GeneralComplete name : E:\Torrents\Taegukgi hwinalrimyeo.2004.HDRip.MPEG4.320x.rip by Frost O.S.3gpFormat : MPEG-4Format profile : 3GPP Media Release 5Codec ID : 3gp5File size : 510 MiBDuration : 2h 28mnOverall bit rate mode : VariableOverall bit rate : 481 KbpsEncoded date : UTC 2015-09-15 08:59:53Tagged date : UTC 2015-09-15 08:59:53

VideoID : 1Format : MPEG-4 VisualFormat profile : [email protected] settings, BVOP : NoFormat settings, QPel : NoFormat settings, GMC : No warppointsFormat settings, Matrix : Default (H.263)Codec ID : 20Duration : 2h 28mnBit rate mode : VariableBit rate : 350 KbpsMaximum bit rate : 960 KbpsWidth : 320 pixelsHeight : 136 pixelsDisplay aspect ratio : 2.35:1Frame rate mode : ConstantFrame rate : 23.976 fpsColor space : YUVChroma subsampling : 4:2:0Bit depth : 8 bitsScan type : ProgressiveCompression mode : LossyBits/(Pixel*Frame) : 0.335Stream size : 371 MiB (73%)Writing library : Lavc53.33.0Encoded date : UTC 2015-09-15 08:59:53Tagged date : UTC 2015-09-15 09:00:09

AudioID : 2Format : AACFormat/Info : Advanced Audio CodecFormat profile : LCCodec ID : 40Duration : 2h 28mnBit rate mode : VariableBit rate : 128 KbpsMaximum bit rate : 251 KbpsChannel(s) : 2 channelsChannel positions : Front: L RSampling rate : 48.0 KHzCompression mode : LossyStream size : 136 MiB (27%)Encoded date : UTC 2015-09-15 09:00:06Tagged date : UTC 2015-09-15 09:00:09


Трекер:  [ 09-Июн-2017 02:12 ]

  

Скачать .torrent

Размер .torrent файла 20 KB


Размер: 510 MB
Хэш (hash) релиза: 8633a3763433eb0f8a748236481e46afa5d6d015

Еще никто не оставлял запись к записи скачать торрент [VIDEO] 38-я параллель Taegukgi hwinalrimyeo . Будь первым!

!Обратная связь