Do No Harm | LÎle aux chiens | Lovestore at the Corner

Скачать через торрент [VIDEO] Что мы делаем в темноте Реальные упыри бесплатно русская версия torrent активатор

Статистика раздачи
Размер:  293 MB   |    Зарегистрирован:  1 год 1 месяц   |    .torrent скачан:  7 раз   |   
Раздают:  1  
   
загрузка...
 
Автор Сообщение

Galfimbul

avatar Galfimbul


Что мы делаем в темноте / Реальные упыри / What We Do in the Shadows«Умереть не встать»
Год выпуска: 2014
Страна: Новая Зеландия, США
Жанр: комедия, ужасы
Продолжительность: 01:25:23
Перевод: Профессиональный (полное дублирование) iTunes
Субтитры: нетРежиссер: Джемейн Клемент / Jemaine Clement, Тайка Вайтити / Taika WaititiВ ролях: Джемейн Клемент, Таика Вайтити, Джеки Ван Бик, Риз Дэрби, Бен Френшам, Марио Джая, Бен Харкорт, Айзек Херон, Коэн Холлоуэй, Джейсон Хойте, Аарон Джексон, Натан Майстер, Майк Миноуг .Описание: История жизни Виаго, Дикона и Владислава — трёх соседей и по совместительству бессмертных вампиров, которые всего лишь пытаются выжить в современном мире, где есть арендная плата, фейсконтроль в ночных клубах, губительный солнечный свет и другие неприятности . Релиз группы
В конце фильма, в начале титров звучит песня «Ласточка» группы «Ленинград».Было отснято более 120 часов видеоматериала, большей частью которого была импровизация актеров, исполнявших главные роли.За основу образа своего героя Таика Вайтити взял собственную маму. А Джемейн Клемент во время подготовки к своей роли черпал вдохновение в образе Гари Олдмана в фильме «Дракула» (1992).Холм, на котором происходит столкновение вампиров с оборотнями, — это тот же холм, по которому в фильме «Властелин колец: Братство кольца» (2001) бежали Фродо и остальные хоббиты от Черных всадников. На этом же холме они спрятались в корнях дерева.Бары и ночные клубы, которые посещают вампиры, — это реальные заведения, расположенные в развлекательном районе Веллингтона (Новая Зеландия).Во время сцены в баре, когда впервые показывают Полину, фоном играет песня «The Captain» группы The Phoenix Foundation. Эта группа была основана в Веллингтоне, Новая Зеландия, где и проходили съемки фильма.
Качество: HDRip / исходник BDRip 720p
Формат: 3GP
Видео кодек: Другой MPEG4
Аудио кодек: AAC
Видео: 320x176 AR:16/9 350 kbps 15.000 fps
Аудио: 2ch 48 kHz 128 kbps [Dub] iTunes
GeneralComplete name : D:\What.We.Do.in.the.Shadows.2014.HDRip.MPEG4.320x.rip by Frost O.S.3gpFormat : MPEG-4Format profile : 3GPP Media Release 5Codec ID : 3gp5File size : 293 MiBDuration : 1h 25mnOverall bit rate mode : VariableOverall bit rate : 480 KbpsEncoded date : UTC 2015-10-18 12:11:41Tagged date : UTC 2015-10-18 12:11:41

VideoID : 1Format : MPEG-4 VisualFormat profile : [email protected] settings, BVOP : NoFormat settings, QPel : NoFormat settings, GMC : No warppointsFormat settings, Matrix : Default (H.263)Codec ID : 20Duration : 1h 25mnBit rate mode : VariableBit rate : 350 KbpsMaximum bit rate : 1 321 KbpsWidth : 320 pixelsHeight : 176 pixelsDisplay aspect ratio : 16:9Frame rate mode : ConstantFrame rate : 15.000 fpsColor space : YUVChroma subsampling : 4:2:0Bit depth : 8 bitsScan type : ProgressiveCompression mode : LossyBits/(Pixel*Frame) : 0.414Stream size : 214 MiB (73%)Writing library : Lavc53.33.0Encoded date : UTC 2015-10-18 12:11:41Tagged date : UTC 2015-10-18 12:11:52

AudioID : 2Format : AACFormat/Info : Advanced Audio CodecFormat profile : LCCodec ID : 40Duration : 1h 25mnBit rate mode : VariableBit rate : 128 KbpsMaximum bit rate : 175 KbpsChannel(s) : 2 channelsChannel positions : Front: L RSampling rate : 48.0 KHzCompression mode : LossyStream size : 78.0 MiB (27%)Encoded date : UTC 2015-10-18 12:11:50Tagged date : UTC 2015-10-18 12:11:52


Трекер:  [ 09-Июн-2017 02:12 ]

  

Скачать .torrent

Размер .torrent файла 12 KB


Размер: 293 MB
Хэш (hash) релиза: a66ecb94fbb384f72c23bf5d3ff196a2e18aaca7

Торренты, похожие на [VIDEO] Что мы делаем в темноте Реальные упыри скачать торрент

Форум Название Автор Размер S L Добавлен
Видео (Фильмы/Клипы) ·· [VIDEO] Что мы делаем в темноте / Реальные упыри / What We Do in the Shadows (Джемейн Клемент, Таика Вайтити / Jemaine Clement, Taika Waititi) [2014, Новая Зеландия, США, комедия, BDRip] [MP4, 1280x] Dub iTunes Galfimbul 15187295181.41 GB 0 0 1446413012

00:23

2-Ноя-15

Еще никто не оставлял запись к записи скачать торрент [VIDEO] Что мы делаем в темноте Реальные упыри . Будь первым!

!Обратная связь