Gloria Castillo | racing results excel | Kyoukai no Rinne

Скачать через торрент [VIDEO] 13 13 заданий бесплатно русская версия torrent активатор

Статистика раздачи
Размер:  374 MB   |    Зарегистрирован:  1 год 1 месяц   |    .torrent скачан:  12 раз   |   
Раздают:  1  
   
загрузка...
 
Автор Сообщение

Galfimbul

avatar Galfimbul


13 / 13 заданий / 13 Beloved / 13 game sayawng«13 проблем. $100 миллионов. Как далеко зашли бы вы?»
Год выпуска: 2006
Страна: Таиланд
Жанр: ужасы, триллер, драма, комедия, криминал, детектив
Продолжительность: 01:48:46
Перевод: Профессиональный (многоголосый, закадровый) R5
Субтитры: нетРежиссер: Чукайт Саквееракул / Chukiat SakveerakulВ ролях: Криссада Терренс / Krissada Terrence (Phuchit Puengnathong), Ачита Сикамана / Achita Sikamana (Tong), Сарунью Вонгкрачанг / Sarunyu Wongkrachang (в титрах: Sarunyoo Wongkrachang) (Surachai), Наттапонг Аруннате / Nattapong Arunnate (в титрах: Nathapong Arunnetra) (Mik), Намфон Пакди / Namfon Pakdee (Maew) и другие .Описание: У Пучита, можно сказать, худший день в жизни. Он расстался с девушкой, потерял работу и у него серьёзные долги. Но всё изменится, как только раздастся загадочный телефонный звонок, а голос на другом конце предложит заманчивую сделку. Пучит должен выполнить 13 заданий, после чего он получит кругленькую сумму. Первые задания выглядят относительно безобидно, но вскоре становятся всё более и более изощрёнными и опасными… IMDb Релиз группы Качество: HDRip / BDRip 720p Формат: 3GP Видео кодек: Другой MPEG4 Аудио кодек: AAC
Видео: 320x184 AR:1.739 350 kbps 25 fps Аудио: [Русский] 2ch 48 kHz 128 kbps - MVO R5
GeneralComplete name : D:\Torrents\13.Zadaniy.2006.HDRip.MPEG4.320x.rip by Frost O.S.3gpFormat : MPEG-4Format profile : 3GPP Media Release 5Codec ID : 3gp5File size : 374 MiBDuration : 1h 48mnOverall bit rate mode : VariableOverall bit rate : 481 KbpsEncoded date : UTC 2015-10-21 07:54:18Tagged date : UTC 2015-10-21 07:54:18

VideoID : 1Format : MPEG-4 VisualFormat profile : [email protected] settings, BVOP : NoFormat settings, QPel : NoFormat settings, GMC : No warppointsFormat settings, Matrix : Default (H.263)Codec ID : 20Duration : 1h 48mnBit rate mode : VariableBit rate : 350 KbpsMaximum bit rate : 853 KbpsWidth : 320 pixelsHeight : 184 pixelsDisplay aspect ratio : 1.739Frame rate mode : ConstantFrame rate : 25.000 fpsColor space : YUVChroma subsampling : 4:2:0Bit depth : 8 bitsScan type : ProgressiveCompression mode : LossyBits/(Pixel*Frame) : 0.238Stream size : 272 MiB (73%)Writing library : Lavc53.33.0Encoded date : UTC 2015-10-21 07:54:18Tagged date : UTC 2015-10-21 07:54:27

AudioID : 2Format : AACFormat/Info : Advanced Audio CodecFormat profile : LCCodec ID : 40Duration : 1h 48mnBit rate mode : VariableBit rate : 128 KbpsMaximum bit rate : 216 KbpsChannel(s) : 2 channelsChannel positions : Front: L RSampling rate : 48.0 KHzCompression mode : LossyStream size : 99.6 MiB (27%)Encoded date : UTC 2015-10-21 07:54:24Tagged date : UTC 2015-10-21 07:54:27


Трекер:  [ 09-Июн-2017 02:12 ]

  

Скачать .torrent

Размер .torrent файла 15 KB


Размер: 374 MB
Хэш (hash) релиза: fbb4ea4278cb9e71add0c2c211a73952ef434770

Еще никто не оставлял запись к записи скачать торрент [VIDEO] 13 13 заданий . Будь первым!

!Обратная связь