Saving Hope | Black Blood Brothers | Big Valley

Скачать через торрент [SERIAL] Побег: Продолжение Prison Break: Sequel бесплатно русская версия torrent активатор

Статистика раздачи
Размер:  1.23 GB   |    Зарегистрирован:  1 год 1 месяц   |    .torrent скачан:  16 раз   |   
Раздают:  1  
   
загрузка...
 
Автор Сообщение

Galfimbul

avatar Galfimbul


Побег: Продолжение / Prison Break: Sequel5 сезон
Год выпуска: 2017
Страна: США
Жанр: боевик, триллер, драма, криминал, детектив
Продолжительность: ~ 00:43:00
Перевод: Профессиональный (многоголосый, закадровый) LostFilmРежиссер: Нельсон МакКормик / Nelson McCormickВ ролях: Доминик Пёрселл, Вентворт Миллер, Амори Ноласко, Роберт Неппер, Сара Уэйн Кэллис, Рокмонд Данбар, Марина Бенедикт, Кристиан Майкл Купер, Марк Фойерстин, Стив Музакис, Эмин Эль Гамин, Кертис Льюм, Бобби Надери, Пол АдельштейнОписание: В руки Ти-Бэга попадает снимок, который доказывает, что Майкл Скофилд, считавшийся погибшим вот уже семь лет, все это время был жив. Ти-Бэг сообщает об этом Линкольну, и тот объединяется со старыми друзьями, чтобы найти брата. Поиски приводят их в тюрьму Йемена. Герои решают вытащить Майкла из-за решетки и планируют масштабный побег.Качество: WEB-DLRip
Формат: 3GP
Видео кодек: MPEG-4 Visual
Аудио кодек: AAC
Видео: MPEG-4 Visual, 320x180 (16:9), 320 Kbps, 23.976 fps
Аудио: Русский, AAC, 2 ch, 128 Kbps, 48 KHz
ОбщееПолное имя : D:\Раздачи\Prison.Break.Sequel.WEB-DLRip.320x\Prison.Break.S05E01.3gpФормат : MPEG-4Профиль формата : 3GPP Media Release 4Идентификатор кодека : 3gp4 (isom/iso2/3gp4)Размер файла : 139 МбайтПродолжительность : 43 м.Режим общего битрейта : ПостоянныйОбщий поток : 450 Кбит/сек

ВидеоИдентификатор : 1Формат : MPEG-4 VisualПрофиль формата : [email protected]Параметр BVOP формата : НетПараметр QPel формата : НетПараметр GMC формата : Без точки переходаПараметр матрицы формата : Default (H.263)Идентификатор кодека : 20Продолжительность : 43 м.Вид битрейта : ПостоянныйБитрейт : 320 Кбит/секШирина : 320 пикселейВысота : 180 пикселейСоотношение сторон : 16:9Режим частоты кадров : ПостоянныйЧастота кадров : 23,976 (24000/1001) кадра/секЦветовое пространство : YUVСубдискретизация насыщенности : 4:2:0Битовая глубина : 8 битТип развёртки : ПрогрессивнаяМетод сжатия : С потерямиБит/(Пиксели*Кадры) : 0.232Размер потока : 97,8 Мбайт (71%)Библиотека кодирования : XviD 1.2.1 (UTC 2008-12-04)

АудиоИдентификатор : 2Формат : AACФормат/Информация : Advanced Audio CodecПрофиль формата : LCИдентификатор кодека : 40Продолжительность : 43 м.Вид битрейта : ПостоянныйБитрейт : 128 Кбит/секКаналы : 2 каналаРасположение каналов : Front: L RЧастота : 48,0 КГцЧастота кадров : 46,875 кадров/сек (1024 spf)Метод сжатия : С потерямиРазмер потока : 39,3 Мбайт (28%)
Обновление от 02.06.2017 - Добавлена 9 серия. Перекачайте торрент.

Трекер:  [ 09-Июн-2017 02:12 ]

  

Скачать .torrent

Размер .torrent файла 13 KB


Размер: 1.23 GB
Хэш (hash) релиза: 6d216a3d88a73ea962d39d51dcee72a621063e46

Торренты, похожие на [SERIAL] Побег: Продолжение Prison Break: Sequel скачать торрент

Форум Название Автор Размер S L Добавлен
Видео (Фильмы/Клипы) ·· [SERIAL] Побег: Продолжение / Prison Break: Sequel / Сезон: 5 / Серии: 1-2 из 9 (Нельсон МакКормик / Nelson McCormick) [2017, боевик, триллер, драма, криминал, детектив, WEB-DLRip] [3GP, 320x] MVO LostFilm Galfimbul 292836576279 MB 0 0 1494252328

17:05

8-Май-17

Еще никто не оставлял запись к записи скачать торрент [SERIAL] Побег: Продолжение Prison Break: Sequel . Будь первым!

!Обратная связь