Lego Nexo Knights | Next » | Very Pure

Скачать через торрент [MULT] Иван Царевич и Серый Волк: Трилогия бесплатно русская версия torrent активатор

Статистика раздачи
Размер:  3.02 GB   |    Зарегистрирован:  1 год 1 месяц   |    .torrent скачан:  170 раз   |   
Раздают:  1  
   
загрузка...
 
Автор Сообщение

Galfimbul

avatar Galfimbul


Иван Царевич и Серый Волк: Трилогия
Иван Царевич и Серый Волк
Год выпуска: 2011
Страна: Россия
Жанр: мультфильм, комедия, приключения,сказка
Продолжительность: 01:25:58
Перевод: не требуется
Субтитры: нетРежиссер: Владимир ТоропчинРоли озвучивали: Никита Ефремов (Иван), Иван Охлобыстин (царь), Артур Смольянинов (волк), Лия Ахеджакова (Баба Яга), Кристина Асмус (белка), Виктор Сухоруков (первый министр), Сергей Гармаш (Змей Горыныч), Михаил Боярский (ученый кот), Татьяна Бунина (Василиса), Сергей Русскин (Кощей Бессмертный), Елена Шульман (русалка), Константин Бронзит (царь-император) .Описание: Увлекательная история от создателей богатырской трилогии, в которой героев русских народных сказок ждут новые приключения, опасности и забавные ситуации. Релиз группы Качество: BDRip / рип с Blu-ray disc 1080p
Формат: MP4
Видео кодек: H.264
Аудио кодек: AAC
Видео: 1280x690 AR:1.86 1700 kbps 23.976 fps
Аудио: 2ch 48 kHz 128 kbps
<div class="sp-wrap">
<div class="sp-head folded">Logx264</div>
<div class="sp-body">avs [info]: 1280x690p 1:1 @ 2997/125 fps (cfr)
x264 [info]: using SAR=1/1
x264 [info]: using cpu capabilities: MMX2 SSE2Fast SSSE3 SSE4.2 AVX FMA3 AVX2 LZCNT BMI2
x264 [info]: profile High, level 4.1

x264 [info]: frame I:1480 Avg QP:11.05 size:142271
x264 [info]: frame P:34770 Avg QP:16.07 size: 15703
x264 [info]: frame B:87422 Avg QP:16.69 size: 3887
x264 [info]: consecutive B-frames: 5.3% 7.2% 12.4% 42.1% 16.9% 8.0% 3.6% 4.5%
x264 [info]: mb I I16..4: 7.7% 52.2% 40.1%
x264 [info]: mb P I16..4: 0.4% 2.5% 2.0% P16..4: 14.2% 10.9% 5.9% 0.0% 0.0% skip:64.0%
x264 [info]: mb B I16..4: 0.1% 0.2% 0.2% B16..8: 10.3% 4.2% 1.4% direct: 1.0% skip:82.5% L0:45.0% L1:46.6% BI: 8.3%
x264 [info]: 8x8 transform intra:50.1% inter:27.9%
x264 [info]: direct mvs spatial:94.7% temporal:5.3%
x264 [info]: coded y,uvDC,uvAC intra: 70.0% 75.2% 67.3% inter: 4.9% 5.3% 4.1%
x264 [info]: i16 v,h,dc,p: 49% 26% 6% 18%
x264 [info]: i8 v,h,dc,ddl,ddr,vr,hd,vl,hu: 18% 18% 18% 6% 6% 7% 7% 8% 12%
x264 [info]: i4 v,h,dc,ddl,ddr,vr,hd,vl,hu: 24% 14% 15% 7% 9% 8% 8% 7% 9%
x264 [info]: i8c dc,h,v,p: 38% 34% 19% 9%
x264 [info]: Weighted P-Frames: Y:1.5% UV:1.1%
x264 [info]: ref P L0: 58.0% 4.2% 15.7% 6.7% 5.5% 3.8% 3.0% 2.7% 0.3% 0.0%
x264 [info]: ref B L0: 73.5% 11.9% 5.8% 3.5% 2.9% 1.5% 0.9%
x264 [info]: ref B L1: 95.7% 4.3%
x264 [info]: kb/s:1700.41

encoded 123672 frames, 13.27 fps, 1700.41 kb/s
GeneralComplete name : D:\Torrents\Иван Царевич и Серый Волк.Трилогия.2011-2015.BDRip.x264.1280x\Иван Царевич и Серый Волк.2011.BDRip.x264.1280x.rip by Frost O.S.mp4Format : MPEG-4Format profile : Base MediaCodec ID : isom (isom/avc1)File size : 1.10 GiBDuration : 1 h 25 minOverall bit rate mode : VariableOverall bit rate : 1 837 kb/sMovie name : Иван Царевич и Серый Волк 2011 BDRip x264 1280x rip by Frost O SDirector : Владимир ТоропчинActor : Никита Ефремов (Иван) / Иван Охлобыстин (царь) / Артур Смольянинов (волк) / Лия Ахеджакова (Баба Яга) / Кристина Асмус (белка) / Виктор Сухоруков (первый министр) / Сергей Гармаш (Змей Горыныч) / Михаил Боярский (ученый кот) / Татьяна Бунина (Василиса) / Сергей Русскин (Кощей Бессмертный) / Елена Шульман (русалка) / Константин Бронзит (царь-император) .Genre : AnimationContentType : Short FilmEncoded date : UTC 2017-05-14 04:47:19Tagged date : UTC 2017-05-14 04:48:26Writing application : MkvToMp4 version: 0.224 (x64)Cover : YesComment : rip by Frost O.SLongDescription : Увлекательная история от создателей богатырской трилогии, в которой героев русских народных сказок ждут новые приключения, опасности и забавные ситуации.HDVideo : Yes

VideoID : 1Format : AVCFormat/Info : Advanced Video CodecFormat profile : [email protected] settings, CABAC : YesFormat settings, ReFrames : 8 framesCodec ID : avc1Codec ID/Info : Advanced Video CodingDuration : 1 h 25 minBit rate : 1 700 kb/sMaximum bit rate : 6 869 kb/sWidth : 1 280 pixelsHeight : 690 pixelsDisplay aspect ratio : 1.85:1Frame rate mode : ConstantFrame rate : 23.976 (24000/1001) FPSOriginal frame rate : 23.976 (23976/1000) FPSColor space : YUVChroma subsampling : 4:2:0Bit depth : 8 bitsScan type : ProgressiveBits/(Pixel*Frame) : 0.080Stream size : 1.02 GiB (93%)Writing library : x264 core 148 r2744 b97ae06Encoding settings : cabac=1 / ref=8 / deblock=1:-2:-2 / analyse=0x3:0x113 / me=umh / subme=11 / psy=1 / psy_rd=0.70:0.00 / mixed_ref=1 / me_range=32 / chroma_me=1 / trellis=2 / 8x8dct=1 / cqm=0 / deadzone=21,11 / fast_pskip=0 / chroma_qp_offset=-2 / threads=6 / lookahead_threads=1 / sliced_threads=0 / nr=0 / decimate=0 / interlaced=0 / bluray_compat=0 / constrained_intra=0 / bframes=7 / b_pyramid=2 / b_adapt=2 / b_bias=0 / direct=3 / weightb=1 / open_gop=0 / weightp=2 / keyint=250 / keyint_min=23 / scenecut=40 / intra_refresh=0 / rc=2pass / mbtree=0 / bitrate=1700 / ratetol=1.0 / qcomp=0.65 / qpmin=0 / qpmax=69 / qpstep=4 / cplxblur=20.0 / qblur=0.5 / ip_ratio=1.40 / pb_ratio=1.30 / aq=1:0.90Language : EnglishEncoded date : UTC 2017-05-14 04:47:19Tagged date : UTC 2017-05-14 04:47:36Color range : LimitedColor primaries : BT.709Transfer characteristics : BT.709Matrix coefficients : BT.709

AudioID : 2Format : AACFormat/Info : Advanced Audio CodecFormat profile : LCCodec ID : 40Duration : 1 h 25 minBit rate mode : VariableBit rate : 128 kb/sMaximum bit rate : 135 kb/sChannel(s) : 2 channelsChannel positions : Front: L RSampling rate : 48.0 kHzFrame rate : 46.875 FPS (1024 spf)Compression mode : LossyStream size : 78.7 MiB (7%)Language : RussianDefault : YesAlternate group : 1Encoded date : UTC 2017-05-14 04:47:35Tagged date : UTC 2017-05-14 04:47:36
</div>
</div>
Иван Царевич и Серый Волк 2
Год выпуска: 2013
Страна: Россия
Жанр: мультфильм, приключения, семейный, сказка
Продолжительность: 01:12:37
Перевод: не требуется
Субтитры: нетРежиссер: Владимир ТоропчинРоли озвучивали: Никита Ефремов (Иван), Татьяна Бунина (Василиса), Иван Охлобыстин (Царь), Михаил Боярский (Кот Ученый), Ирина Рахманова (Лунная лягушка), Александр Боярский (Волк), Екатерина Гороховская (Наина), Елена Шульман (Русалка), Максим Сергеев, (Черномор)...Описание: В Тридевятом царстве, где живут наши герои — тишь, да благодать. Иван женился на Василисе, и «жили они долго и счастливо», да не тут-то было. Иван целыми днями пропадает с Волком на службе — укрепляет рубежи и оборонную мощь, мечтает перевести стрелки часов на семь часов назад, чтобы меньше спать, и больше работать. А Василисе — скучно, как всем девушкам, ей хочется романтики, ну, такой, как в сказках. И тогда она решает организовать свое похищение… Однако, когда такое бывало, что в сказках все получалось так, как задумывалось? Релиз группы Качество: BDRip / рип с Blu-ray disc 1080p
Формат: MP4
Видео кодек: H.264
Аудио кодек: AAC
Видео: 1280x720 AR:1.78 1700 kbps 24.000 fps
Аудио: 2ch 48 kHz 128 kbps
<div class="sp-wrap">
<div class="sp-head folded">Logx264</div>
<div class="sp-body">avs [info]: 1280x720p 1:1 @ 24/1 fps (cfr)
x264 [info]: using SAR=1/1
x264 [info]: using cpu capabilities: MMX2 SSE2Fast SSSE3 SSE4.2 AVX FMA3 AVX2 LZCNT BMI2
x264 [info]: profile High, level 4.1

x264 [info]: frame I:1238 Avg QP:12.18 size:120971
x264 [info]: frame P:30032 Avg QP:16.89 size: 15395
x264 [info]: frame B:73317 Avg QP:17.15 size: 4283
x264 [info]: consecutive B-frames: 6.0% 6.5% 13.7% 41.6% 14.7% 12.4% 1.9% 1.7% 1.5%
x264 [info]: mb I I16..4: 9.7% 51.1% 39.2%
x264 [info]: mb P I16..4: 1.3% 4.0% 2.6% P16..4: 20.4% 14.1% 6.1% 0.0% 0.0% skip:51.4%
x264 [info]: mb B I16..4: 0.3% 0.7% 0.4% B16..8: 15.9% 6.0% 1.6% direct: 1.0% skip:74.0% L0:47.3% L1:46.8% BI: 5.9%
x264 [info]: 8x8 transform intra:50.3% inter:30.4%
x264 [info]: direct mvs spatial:94.5% temporal:5.5%
x264 [info]: coded y,uvDC,uvAC intra: 48.1% 57.2% 47.0% inter: 4.8% 6.0% 4.1%
x264 [info]: i16 v,h,dc,p: 50% 33% 6% 12%
x264 [info]: i8 v,h,dc,ddl,ddr,vr,hd,vl,hu: 13% 19% 32% 5% 5% 6% 6% 6% 8%
x264 [info]: i4 v,h,dc,ddl,ddr,vr,hd,vl,hu: 18% 18% 21% 6% 8% 8% 7% 6% 8%
x264 [info]: i8c dc,h,v,p: 28% 49% 16% 7%
x264 [info]: Weighted P-Frames: Y:2.0% UV:1.5%
x264 [info]: ref P L0: 57.3% 3.5% 16.6% 7.2% 4.9% 4.2% 3.5% 2.4% 0.4% 0.0%
x264 [info]: ref B L0: 67.2% 14.1% 7.8% 4.1% 3.9% 2.0% 0.9%
x264 [info]: ref B L1: 94.3% 5.7%
x264 [info]: kb/s:1700.24

encoded 104587 frames, 13.05 fps, 1700.24 kb/s
GeneralComplete name : D:\Torrents\Иван Царевич и Серый Волк.Трилогия.2011-2015.BDRip.x264.1280x\Иван Царевич и Серый Волк 2.2013.BDRip.x264.1280x.rip by Frost O.S.mp4Format : MPEG-4Format profile : Base MediaCodec ID : isom (isom/avc1)File size : 954 MiBDuration : 1 h 12 minOverall bit rate mode : VariableOverall bit rate : 1 836 kb/sMovie name : Иван Царевич и Серый Волк 2 2013 BDRip x264 1280x rip by Frost O SDirector : Владимир ТоропчинActor : Никита Ефремов (Иван) / Татьяна Бунина (Василиса) / Иван Охлобыстин (Царь) / Михаил Боярский (Кот Ученый) / Ирина Рахманова (Лунная лягушка) / Александр Боярский (Волк) / Екатерина Гороховская (Наина) / Елена Шульман (Русалка) / Максим Сергеев / (Черномор)...Genre : AnimationContentType : Short FilmEncoded date : UTC 2017-05-14 04:49:30Tagged date : UTC 2017-05-14 04:50:58Writing application : MkvToMp4 version: 0.224 (x64)Cover : YesComment : rip by Frost O.SLongDescription : В Тридевятом царстве, где живут наши герои — тишь, да благодать. Иван женился на Василисе, и «жили они долго и счастливо», да не тут-то было. Иван целыми днями пропадает с Волком на службе — укрепляет рубежи и оборонную мощь, мечтает перевести стрелки часов на семь часов назад, чтобы меньше спать, и больше работать. А Василисе — скучно, как всем девушкам, ей хочется романтики, ну, такой, как в сказках. И тогда она решает организовать свое похищение… Однако, когда такое бывало, что в сказках все получалось так, как задумывалось?HDVideo : Yes

VideoID : 1Format : AVCFormat/Info : Advanced Video CodecFormat profile : [email protected] settings, CABAC : YesFormat settings, ReFrames : 8 framesCodec ID : avc1Codec ID/Info : Advanced Video CodingDuration : 1 h 12 minBit rate : 1 700 kb/sMaximum bit rate : 10.7 Mb/sWidth : 1 280 pixelsHeight : 720 pixelsDisplay aspect ratio : 16:9Frame rate mode : ConstantFrame rate : 24.000 FPSColor space : YUVChroma subsampling : 4:2:0Bit depth : 8 bitsScan type : ProgressiveBits/(Pixel*Frame) : 0.077Stream size : 883 MiB (93%)Writing library : x264 core 148 r2744 b97ae06Encoding settings : cabac=1 / ref=8 / deblock=1:-3:-3 / analyse=0x3:0x113 / me=umh / subme=11 / psy=1 / psy_rd=0.70:0.00 / mixed_ref=1 / me_range=32 / chroma_me=1 / trellis=2 / 8x8dct=1 / cqm=0 / deadzone=21,11 / fast_pskip=0 / chroma_qp_offset=-2 / threads=6 / lookahead_threads=1 / sliced_threads=0 / nr=0 / decimate=0 / interlaced=0 / bluray_compat=0 / constrained_intra=0 / bframes=8 / b_pyramid=2 / b_adapt=2 / b_bias=0 / direct=3 / weightb=1 / open_gop=0 / weightp=2 / keyint=250 / keyint_min=24 / scenecut=40 / intra_refresh=0 / rc=2pass / mbtree=0 / bitrate=1700 / ratetol=1.0 / qcomp=0.65 / qpmin=0 / qpmax=69 / qpstep=4 / cplxblur=20.0 / qblur=0.5 / ip_ratio=1.40 / pb_ratio=1.30 / aq=1:1.00Language : EnglishEncoded date : UTC 2017-05-14 04:49:30Tagged date : UTC 2017-05-14 04:49:45Color range : LimitedColor primaries : BT.709Transfer characteristics : BT.709Matrix coefficients : BT.709

AudioID : 2Format : AACFormat/Info : Advanced Audio CodecFormat profile : LCCodec ID : 40Duration : 1 h 12 minBit rate mode : VariableBit rate : 128 kb/sMaximum bit rate : 135 kb/sChannel(s) : 2 channelsChannel positions : Front: L RSampling rate : 48.0 kHzFrame rate : 46.875 FPS (1024 spf)Compression mode : LossyStream size : 66.5 MiB (7%)Language : RussianDefault : YesAlternate group : 1Encoded date : UTC 2017-05-14 04:49:44Tagged date : UTC 2017-05-14 04:49:45
</div>
</div>
Иван Царевич и Серый Волк 3
Год выпуска: 2015
Страна: Россия
Жанр: мультфильм, приключения, семейный, сказка
Продолжительность: 01:17:06
Перевод: не требуется
Субтитры: нетРежиссер: Дарина ШмидтРоли озвучивали: Никита Ефремов (Иван Царевич), Иван Охлобыстин (Царь), Михаил Боярский (Кот), Александр Боярский (Волк), Татьяна Бунина (Василиса), Михаил Хрусталев (Пугало), Дмитрий Высоцкий (Тонкий), Олег Куликович (Толстый), Анатолий Петров (Соловей), Роман Никитин (Кеша), Константин Бронзит (Щука)...Описание: Царь Тридевятого царства, в честь своего 150-летия решил, что с него хватит — пора на заслуженный отдых. «Я устал. Я ухожу», — заявил самодержец и с удочкой и ведёрком удалился в деревенскую глушь. А оберегать государство остались Иван с Серым Волком. Вот только Василиса, жена Ивана, заявила, что свадебного путешествия у неё не было, заграницу она не видела, «постить» в инстаграм решительно нечего и вообще.

Иван спорить не стал, а вместе с Василисой, Котом — ученым и Серым Волком, погрузился на ковер-самолет и отправился в путь. А за главного в стране герои оставили самое обычное огородное пугало… Но пока компания шаталась по Миланам и Парижам, Пугало ожило и начало наводить свои порядки в Тридевятом царстве… Релиз группы Качество: BDRip / рип с Blu-ray disc 1080p
Формат: MP4
Видео кодек: H.264
Аудио кодек: AAC
Видео: 1280x720 AR:1.78 1700 kbps 24.000 fps
Аудио: 2ch 48 kHz 128 kbps
<div class="sp-wrap">
<div class="sp-head folded">Logx264</div>
<div class="sp-body">avs [info]: 1280x720p 1:1 @ 24/1 fps (cfr)
x264 [info]: using SAR=1/1
x264 [info]: using cpu capabilities: MMX2 SSE2Fast SSSE3 SSE4.2 AVX FMA3 AVX2 LZCNT BMI2
x264 [info]: profile High, level 4.1

x264 [info]: frame I:1202 Avg QP:11.38 size:115641
x264 [info]: frame P:33671 Avg QP:17.69 size: 15967
x264 [info]: frame B:76168 Avg QP:17.36 size: 4023
x264 [info]: consecutive B-frames: 9.1% 6.8% 12.0% 36.2% 14.0% 9.1% 3.8% 3.0% 6.2%
x264 [info]: mb I I16..4: 14.0% 42.7% 43.3%
x264 [info]: mb P I16..4: 1.1% 4.5% 2.9% P16..4: 18.3% 13.8% 6.0% 0.0% 0.0% skip:53.4%
x264 [info]: mb B I16..4: 0.2% 0.5% 0.3% B16..8: 13.3% 5.5% 1.5% direct: 0.9% skip:77.9% L0:47.7% L1:45.2% BI: 7.1%
x264 [info]: 8x8 transform intra:50.1% inter:34.1%
x264 [info]: direct mvs spatial:94.7% temporal:5.3%
x264 [info]: coded y,uvDC,uvAC intra: 54.7% 61.8% 48.2% inter: 5.1% 5.4% 3.9%
x264 [info]: i16 v,h,dc,p: 43% 30% 7% 19%
x264 [info]: i8 v,h,dc,ddl,ddr,vr,hd,vl,hu: 15% 18% 23% 6% 7% 6% 8% 7% 11%
x264 [info]: i4 v,h,dc,ddl,ddr,vr,hd,vl,hu: 21% 18% 20% 6% 8% 6% 7% 6% 8%
x264 [info]: i8c dc,h,v,p: 31% 42% 18% 9%
x264 [info]: Weighted P-Frames: Y:2.8% UV:2.0%
x264 [info]: ref P L0: 56.4% 4.3% 16.0% 7.1% 4.5% 3.7% 2.9% 2.3% 2.3% 0.5% 0.0%
x264 [info]: ref B L0: 66.5% 13.1% 7.7% 4.2% 3.2% 2.5% 1.8% 0.8%
x264 [info]: ref B L1: 94.1% 5.9%
x264 [info]: kb/s:1699.78

encoded 111041 frames, 12.73 fps, 1699.78 kb/s
GeneralComplete name : D:\Torrents\Иван Царевич и Серый Волк.Трилогия.2011-2015.BDRip.x264.1280x\Иван Царевич и Серый Волк 3.2015.BDRip.x264.1280x.rip by Frost O.S.mp4Format : MPEG-4Format profile : Base MediaCodec ID : isom (isom/avc1)File size : 1 012 MiBDuration : 1 h 17 minOverall bit rate mode : VariableOverall bit rate : 1 836 kb/sMovie name : Иван Царевич и Серый Волк 3 2015 BDRip x264 1280x rip by Frost O SDirector : Дарина ШмидтActor : Никита Ефремов (Иван Царевич) / Иван Охлобыстин (Царь) / Михаил Боярский (Кот) / Александр Боярский (Волк) / Татьяна Бунина (Василиса) / Михаил Хрусталев (Пугало) / Дмитрий Высоцкий (Тонкий) / Олег Куликович (Толстый) / Анатолий Петров (Соловей) / Роман Никитин (Кеша) / Константин Бронзит (Щука)...Genre : AnimationContentType : Short FilmEncoded date : UTC 2017-05-14 04:52:02Tagged date : UTC 2017-05-14 04:53:10Writing application : MkvToMp4 version: 0.224 (x64)Cover : YesComment : rip by Frost O.SLongDescription : Царь Тридевятого царства, в честь своего 150-летия решил, что с него хватит — пора на заслуженный отдых. «Я устал. Я ухожу», — заявил самодержец и с удочкой и ведёрком удалился в деревенскую глушь. А оберегать государство остались Иван с Серым Волком. Вот только Василиса, жена Ивана, заявила, что свадебного путешествия у неё не было, заграницу она не видела, «постить» в инстаграм решительно нечего и вообще. / Иван спорить не стал, а вместе с Василисой, Котом — ученым и Серым Волком, погрузился на ковер-самолет и отправился в путь. А за главного в стране герои оставили самое обычное огородное пугало… Но пока компания шаталась по Миланам и Парижам, Пугало ожило и начало наводить свои порядки в Тридевятом царстве…HDVideo : Yes

VideoID : 1Format : AVCFormat/Info : Advanced Video CodecFormat profile : [email protected] settings, CABAC : YesFormat settings, ReFrames : 9 framesCodec ID : avc1Codec ID/Info : Advanced Video CodingDuration : 1 h 17 minBit rate : 1 700 kb/sMaximum bit rate : 11.1 Mb/sWidth : 1 280 pixelsHeight : 720 pixelsDisplay aspect ratio : 16:9Frame rate mode : ConstantFrame rate : 24.000 FPSColor space : YUVChroma subsampling : 4:2:0Bit depth : 8 bitsScan type : ProgressiveBits/(Pixel*Frame) : 0.077Stream size : 938 MiB (93%)Writing library : x264 core 148 r2744 b97ae06Encoding settings : cabac=1 / ref=9 / deblock=1:-3:-3 / analyse=0x3:0x113 / me=umh / subme=11 / psy=1 / psy_rd=0.60:0.00 / mixed_ref=1 / me_range=32 / chroma_me=1 / trellis=2 / 8x8dct=1 / cqm=0 / deadzone=21,11 / fast_pskip=0 / chroma_qp_offset=-2 / threads=6 / lookahead_threads=1 / sliced_threads=0 / nr=0 / decimate=0 / interlaced=0 / bluray_compat=0 / constrained_intra=0 / bframes=8 / b_pyramid=2 / b_adapt=2 / b_bias=0 / direct=3 / weightb=1 / open_gop=0 / weightp=2 / keyint=250 / keyint_min=24 / scenecut=40 / intra_refresh=0 / rc=2pass / mbtree=0 / bitrate=1700 / ratetol=1.0 / qcomp=0.65 / qpmin=0 / qpmax=69 / qpstep=4 / cplxblur=20.0 / qblur=0.5 / ip_ratio=1.40 / pb_ratio=1.30 / aq=1:1.00Language : EnglishEncoded date : UTC 2017-05-14 04:52:02Tagged date : UTC 2017-05-14 04:52:18Color range : LimitedColor primaries : BT.709Transfer characteristics : BT.709Matrix coefficients : BT.709

AudioID : 2Format : AACFormat/Info : Advanced Audio CodecFormat profile : LCCodec ID : 40Duration : 1 h 17 minBit rate mode : VariableBit rate : 128 kb/sMaximum bit rate : 135 kb/sChannel(s) : 2 channelsChannel positions : Front: L RSampling rate : 48.0 kHzFrame rate : 46.875 FPS (1024 spf)Compression mode : LossyStream size : 70.6 MiB (7%)Language : RussianDefault : YesAlternate group : 1Encoded date : UTC 2017-05-14 04:52:17Tagged date : UTC 2017-05-14 04:52:18
</div>
</div>


Трекер:  [ 09-Июн-2017 02:12 ]

  

Скачать .torrent

Размер .torrent файла 16 KB


Размер: 3.02 GB
Хэш (hash) релиза: a21035dab7e580d9ce6ae0e858657334a988b303

Торренты, похожие на [MULT] Иван Царевич и Серый Волк: Трилогия скачать торрент

Форум Название Автор Размер S L Добавлен
Видео (Фильмы/Клипы) ·· [MULT] Иван Царевич и Серый Волк: Трилогия (Владимир Торопчин, Дарина Шмидт) [2011 - 2015, мультфильм, приключения, семейный, сказка, BDRip] [MP4, 1280x] Galfimbul 32459298463.02 GB 0 0 1494683012

16:43

13-Май-17

Еще никто не оставлял запись к записи скачать торрент [MULT] Иван Царевич и Серый Волк: Трилогия . Будь первым!

!Обратная связь