Bunny Chow Know Thyself | B2S-SHARE | B2S | General | 2017 Review | wows_0.6.12.1.294550_eu

Скачать через торрент [VIDEO] Обитель зла: Последняя глава Resident Evil: The Final Chapter бесплатно русская версия torrent активатор

Статистика раздачи
Размер:  1.65 GB   |    Зарегистрирован:  1 год 1 месяц   |    .torrent скачан:  29 раз   |   
Раздают:  1  
   
загрузка...
 
Автор Сообщение

Galfimbul

avatar Galfimbul


Обитель зла: Последняя глава / Resident Evil: The Final Chapter (Theatrical Cut)«The beginning of the end»
Год выпуска: 2016
Страна: США, Германия, Франция, Великобритания, Япония, Канада, ЮАР, Австралия
Жанр: ужасы, фантастика, боевик, триллер
Продолжительность: 01:46:40
Перевод №1: Русский Профессиональный (полное дублирование) BD CEE
Перевод №2: Украинский Профессиональный (полное дублирование) iTunes
Перевод №3: Русский Профессиональный (многоголосый, закадровый) Студия "AMS"
Перевод №4: Русский Авторский (одноголосый, закадровый) Ю. Живов
Оригинальная дорожка: Есть
Субтитры: Русские "BD CEE" (Forced, Full), Украинские "BD CEE" (Forced, Full), Английские "BD CEE "(Full)Режиссер: Пол У. С. Андерсон / Paul W.S. AndersonВ ролях: Милла Йовович, Иэн Глен, Эли Лартер, Шон Робертс, Оуэн Мэкен, Фрайзер Джеймс, Руби Роуз, Уильям Леви, Рола, Эвер Андерсон и другие .Роли дублировали: Ирина Киреева, Владимир Антоник, Людмила Шувалова, Юрий Деркач, Дмитрий Поляновский и другие .Описание: Действия фильма разворачиваются с того момента, на котором закончилась предыдущая часть. После того как Вескер предал Элис в Вашингтоне, конец истории человечества стал еще ближе. Элис — последняя надежда на спасение мира. Она должна вернуться к точке отсчета, туда, где все и началось — город Раккун-Сити, где корпорация «Амбрелла» готовится к финальной атаке по тем, кому удалось выжить.

В гонке со временем Элис вооружится до зубов и объединится с друзьями и теми, кого не ожидала увидеть в роли своих союзников. Вместе они будут биться против армии мертвецов и новых чудовищных мутантов. Находясь под угрозой потери своих способностей и готовясь к неминуемой атаке корпорации, Элис столкнется с еще более трудными проблемами, а человечество тем временем будет находиться на грани гибели. Релиз группы Качество: BDRip / рип с BDRemux 1080p 2D [Theatrical Cut]
Формат: MP4
Видео кодек: H.264
Аудио кодек: AAC
Видео: 960х400 AR:2.40 1560 kbps 23.976 fps
Аудио №1: [Russian] 2ch 48 kHz 128 kbps - Профессиональный (полное дублирование) BD CEE
Аудио №2: [Ukrainian] 2ch 48 kHz 128 kbps - Профессиональный (полное дублирование) iTunes
Аудио №3: [Russian] 2ch 48 kHz 128 kbps - Профессиональный (многоголосый, закадровый) Студия "AMS"
Аудио №4: [Russian] 2ch 48 kHz 128 kbps - Авторский (одноголосый, закадровый) Ю. Живов
Аудио №5: [English] 2ch 48 kHz 128 kbps - Оригинал
avs [info]: 960x400p 1:1 @ 2997/125 fps (cfr)
x264 [info]: using SAR=1/1
x264 [info]: using cpu capabilities: MMX2 SSE2Fast SSSE3 SSE4.2 AVX FMA3 AVX2 LZCNT BMI2
x264 [info]: profile High, level 4.1

x264 [info]: frame I:1716 Avg QP:14.44 size: 39027
x264 [info]: frame P:46135 Avg QP:18.05 size: 14196
x264 [info]: frame B:105605 Avg QP:20.50 size: 4942
x264 [info]: consecutive B-frames: 7.9% 8.8% 15.7% 25.7% 15.8% 16.9% 4.1% 3.5% 1.5%
x264 [info]: mb I I16..4: 11.2% 66.4% 22.4%
x264 [info]: mb P I16..4: 2.3% 14.5% 2.1% P16..4: 30.0% 31.2% 7.5% 0.0% 0.0% skip:12.4%
x264 [info]: mb B I16..4: 0.2% 1.6% 0.3% B16..8: 33.5% 17.3% 2.5% direct: 3.9% skip:40.7% L0:44.7% L1:44.4% BI:10.9%
x264 [info]: 8x8 transform intra:75.3% inter:66.4%
x264 [info]: direct mvs spatial:96.1% temporal:3.9%
x264 [info]: coded y,uvDC,uvAC intra: 75.3% 66.0% 39.0% inter: 20.0% 13.6% 4.6%
x264 [info]: i16 v,h,dc,p: 20% 14% 4% 62%
x264 [info]: i8 v,h,dc,ddl,ddr,vr,hd,vl,hu: 8% 7% 7% 10% 14% 13% 14% 12% 15%
x264 [info]: i4 v,h,dc,ddl,ddr,vr,hd,vl,hu: 10% 9% 12% 9% 14% 12% 12% 10% 13%
x264 [info]: i8c dc,h,v,p: 31% 34% 18% 17%
x264 [info]: Weighted P-Frames: Y:24.3% UV:17.6%
x264 [info]: ref P L0: 50.1% 8.3% 16.4% 6.8% 4.6% 3.8% 3.1% 1.8% 1.6% 1.5% 1.3% 0.6% 0.1%
x264 [info]: ref B L0: 78.4% 9.3% 4.6% 2.2% 1.6% 1.5% 1.3% 0.6% 0.4% 0.2%
x264 [info]: ref B L1: 95.8% 4.2%
x264 [info]: kb/s:1554.71

encoded 153456 frames, 15.76 fps, 1554.71 kb/s
GeneralComplete name : D:\Torrents\Resident Evil The Final Chapter.2016.BDRip.x264.960x. rip by Frost O.S.mp4Format : MPEG-4Format profile : Base MediaCodec ID : isom (isom/avc1/iso2)File size : 1.65 GiBDuration : 1 h 46 minOverall bit rate mode : VariableOverall bit rate : 2 217 kb/sMovie name : Resident Evil The Final Chapter 2016 BDRip x264 960x rip by Frost O SDirector : Пол У. С. Андерсон / Paul W.S. AndersonActor : Милла Йовович / Иэн Глен / Эли Лартер / Шон Робертс / Оуэн Мэкен / Фрайзер Джеймс / Руби Роуз / Уильям Леви / Рола / Эвер АндерсонGenre : ActionContentType : Short FilmEncoded date : UTC 2017-05-14 06:12:00Tagged date : UTC 2017-05-14 06:22:23Writing application : MkvToMp4 version: 0.224 (x64)Cover : YesComment : rip by Frost O.SLongDescription : Действия фильма разворачиваются с того момента, на котором закончилась предыдущая часть. После того как Вескер предал Элис в Вашингтоне, конец истории человечества стал еще ближе. Элис — последняя надежда на спасение мира. Она должна вернуться к точке отсчета, туда, где все и началось — город Раккун-Сити, где корпорация «Амбрелла» готовится к финальной атаке по тем, кому удалось выжить. / В гонке со временем Элис вооружится до зубов и объединится с друзьями и теми, кого не ожидала увидеть в роли своих союзников. Вместе они будут биться против армии мертвецов и новых чудовищных мутантов. Находясь под угрозой потери своих способностей и готовясь к неминуемой атаке корпорации, Элис столкнется с еще более трудными проблемами, а человечество тем временем будет находиться на грани гибели.

VideoID : 1Format : AVCFormat/Info : Advanced Video CodecFormat profile : [email protected] settings, CABAC : YesFormat settings, ReFrames : 11 framesCodec ID : avc1Codec ID/Info : Advanced Video CodingDuration : 1 h 46 minBit rate : 1 560 kb/sMaximum bit rate : 10.5 Mb/sWidth : 960 pixelsHeight : 400 pixelsDisplay aspect ratio : 2.40:1Frame rate mode : ConstantFrame rate : 23.976 (24000/1001) FPSOriginal frame rate : 23.976 (23976/1000) FPSColor space : YUVChroma subsampling : 4:2:0Bit depth : 8 bitsScan type : ProgressiveBits/(Pixel*Frame) : 0.169Stream size : 1.16 GiB (70%)Writing library : x264 core 148 r2744 b97ae06Encoding settings : cabac=1 / ref=11 / deblock=1:-3:-3 / analyse=0x3:0x113 / me=umh / subme=11 / psy=1 / psy_rd=1.05:0.00 / mixed_ref=1 / me_range=32 / chroma_me=1 / trellis=2 / 8x8dct=1 / cqm=0 / deadzone=21,11 / fast_pskip=0 / chroma_qp_offset=-2 / threads=6 / lookahead_threads=1 / sliced_threads=0 / nr=0 / decimate=0 / interlaced=0 / bluray_compat=0 / constrained_intra=0 / bframes=8 / b_pyramid=2 / b_adapt=2 / b_bias=0 / direct=3 / weightb=1 / open_gop=0 / weightp=2 / keyint=250 / keyint_min=23 / scenecut=40 / intra_refresh=0 / rc=2pass / mbtree=0 / bitrate=1560 / ratetol=1.0 / qcomp=0.85 / qpmin=0 / qpmax=69 / qpstep=4 / cplxblur=20.0 / qblur=0.5 / ip_ratio=1.40 / pb_ratio=1.30 / aq=3:0.70Language : EnglishEncoded date : UTC 2017-05-14 06:12:00Tagged date : UTC 2017-05-14 06:15:05Color range : LimitedColor primaries : BT.709Transfer characteristics : BT.709Matrix coefficients : BT.709

Audio #1ID : 2Format : AACFormat/Info : Advanced Audio CodecFormat profile : LCCodec ID : 40Duration : 1 h 46 minBit rate mode : VariableBit rate : 128 kb/sMaximum bit rate : 135 kb/sChannel(s) : 2 channelsChannel positions : Front: L RSampling rate : 48.0 kHzFrame rate : 46.875 FPS (1024 spf)Compression mode : LossyStream size : 97.7 MiB (6%)Title : Dub_ BD CEE / Dub_ BD CEELanguage : RussianDefault : YesAlternate group : 1Encoded date : UTC 2017-05-14 06:14:07Tagged date : UTC 2017-05-14 06:15:05

Audio #2ID : 3Format : AACFormat/Info : Advanced Audio CodecFormat profile : LCCodec ID : 40Duration : 1 h 46 minBit rate mode : VariableBit rate : 128 kb/sMaximum bit rate : 135 kb/sChannel(s) : 2 channelsChannel positions : Front: L RSampling rate : 48.0 kHzFrame rate : 46.875 FPS (1024 spf)Compression mode : LossyStream size : 97.7 MiB (6%)Title : Dub_ iTunes / Dub_ iTunesLanguage : UkrainianDefault : NoAlternate group : 1Encoded date : UTC 2017-05-14 06:14:19Tagged date : UTC 2017-05-14 06:15:05

Audio #3ID : 4Format : AACFormat/Info : Advanced Audio CodecFormat profile : LCCodec ID : 40Duration : 1 h 46 minBit rate mode : VariableBit rate : 128 kb/sMaximum bit rate : 135 kb/sChannel(s) : 2 channelsChannel positions : Front: L RSampling rate : 48.0 kHzFrame rate : 46.875 FPS (1024 spf)Compression mode : LossyStream size : 97.7 MiB (6%)Title : MVO_ Studiya _AMS_ / MVO_ Studiya _AMS_Language : RussianDefault : NoAlternate group : 1Encoded date : UTC 2017-05-14 06:14:31Tagged date : UTC 2017-05-14 06:15:05

Audio #4ID : 5Format : AACFormat/Info : Advanced Audio CodecFormat profile : LCCodec ID : 40Duration : 1 h 46 minBit rate mode : VariableBit rate : 128 kb/sMaximum bit rate : 135 kb/sChannel(s) : 2 channelsChannel positions : Front: L RSampling rate : 48.0 kHzFrame rate : 46.875 FPS (1024 spf)Compression mode : LossyStream size : 97.7 MiB (6%)Title : VO_ Zhuvov / VO_ ZhuvovLanguage : RussianDefault : NoAlternate group : 1Encoded date : UTC 2017-05-14 06:14:41Tagged date : UTC 2017-05-14 06:15:05

Audio #5ID : 6Format : AACFormat/Info : Advanced Audio CodecFormat profile : LCCodec ID : 40Duration : 1 h 46 minBit rate mode : VariableBit rate : 128 kb/sMaximum bit rate : 135 kb/sChannel(s) : 2 channelsChannel positions : Front: L RSampling rate : 48.0 kHzFrame rate : 46.875 FPS (1024 spf)Compression mode : LossyStream size : 97.7 MiB (6%)Title : Original / OriginalLanguage : EnglishDefault : NoAlternate group : 1Encoded date : UTC 2017-05-14 06:14:54Tagged date : UTC 2017-05-14 06:15:05

Text #1ID : 7Format : Timed TextMuxing mode : sbtlCodec ID : tx3gDuration : 1 h 46 minBit rate mode : VariableBit rate : 1 b/sStream size : 971 Bytes (0%)Title : Forced / ForcedLanguage : RussianDefault : YesForced : NoAlternate group : 2Encoded date : UTC 2017-05-14 06:15:05Tagged date : UTC 2017-05-14 06:15:05

Text #2ID : 8Format : Timed TextMuxing mode : sbtlCodec ID : tx3gDuration : 1 h 39 minBit rate mode : VariableBit rate : 53 b/sStream size : 39.1 KiB (0%)Title : Full / FullLanguage : RussianDefault : NoForced : NoAlternate group : 2Encoded date : UTC 2017-05-14 06:15:05Tagged date : UTC 2017-05-14 06:15:05

Text #3ID : 9Format : Timed TextMuxing mode : sbtlCodec ID : tx3gDuration : 1 h 37 minBit rate mode : VariableBit rate : 1 b/sStream size : 672 Bytes (0%)Title : Forced / ForcedLanguage : UkrainianDefault : NoForced : NoAlternate group : 2Encoded date : UTC 2017-05-14 06:15:05Tagged date : UTC 2017-05-14 06:15:05

Text #4ID : 10Format : Timed TextMuxing mode : sbtlCodec ID : tx3gDuration : 1 h 46 minBit rate mode : VariableBit rate : 53 b/sStream size : 41.8 KiB (0%)Title : Full / FullLanguage : UkrainianDefault : NoForced : NoAlternate group : 2Encoded date : UTC 2017-05-14 06:15:05Tagged date : UTC 2017-05-14 06:15:05

Text #5ID : 11Format : Timed TextMuxing mode : sbtlCodec ID : tx3gDuration : 1 h 46 minBit rate mode : VariableBit rate : 39 b/sStream size : 30.3 KiB (0%)Title : Full / FullLanguage : EnglishDefault : NoForced : NoAlternate group : 2Encoded date : UTC 2017-05-14 06:15:05Tagged date : UTC 2017-05-14 06:15:05


Трекер:  [ 09-Июн-2017 02:12 ]

  

Скачать .torrent

Размер .torrent файла 17 KB


Размер: 1.65 GB
Хэш (hash) релиза: 857ee8461323a687060a2000d1c362250ff7a087

Торренты, похожие на [VIDEO] Обитель зла: Последняя глава Resident Evil: The Final Chapter скачать торрент

Форум Название Автор Размер S L Добавлен
Видео (Фильмы/Клипы) ·· [VIDEO] Обитель зла: Последняя глава / Resident Evil: The Final Chapter (Пол У. С. Андерсон / Paul W.S. Anderson) [2016, ужасы, фантастика, боевик, триллер, HDRip] [MP4, 480x] [Theatrical Cut] Dub BD CEE Galfimbul 483503706461 MB 0 0 1496964218

02:23

9-Июн-17

Видео (Фильмы/Клипы) ·· [VIDEO] Обитель зла: Последняя глава / Resident Evil: The Final Chapter (Пол У. С. Андерсон / Paul W.S. Anderson) [2016, ужасы, фантастика, боевик, триллер, BDRip] [MP4, 1280x] Galfimbul 22149273412.06 GB 0 0 1494666822

12:13

13-Май-17

Видео (Фильмы/Клипы) ·· [VIDEO] Обитель зла: Последняя глава / Resident Evil: The Final Chapter (Пол У. С. Андерсон / Paul W.S. Anderson) [2016, ужасы, фантастика, боевик, триллер, BDRip] [MP4, 960x] [Theatrical Cut] Dub (Rus, Ukr), Original, Sub (rus, eng) Galfimbul 15631786111.46 GB 0 0 1493304477

17:47

27-Апр-17

Видео (Фильмы/Клипы) ·· [VIDEO] Обитель зла: Последняя глава / Resident Evil: The Final Chapter (Пол У. С. Андерсон / Paul W.S. Anderson) [2016, ужасы, фантастика, боевик, триллер, HDRip] [MP4, 480x] [Theatrical Cut] Dub iTunes Galfimbul 483493159461 MB 0 0 1493304471

17:47

27-Апр-17

Еще никто не оставлял запись к записи скачать торрент [VIDEO] Обитель зла: Последняя глава Resident Evil: The Final Chapter . Будь первым!

!Обратная связь