Andrei Preda | Torrents | suivante »

Скачать через торрент музыку Академия Ведьмочек Little Witch Academia бесплатно без регистрации torrent

Статистика раздачи
Размер:  945 MB   |    Зарегистрирован:  1 год 1 месяц   |    .torrent скачан:  11 раз   |   
Раздают:  1  
   
загрузка...
 
Автор Сообщение

Galfimbul

avatar Galfimbul


Академия Ведьмочек / Little Witch Academia

Названия альбомов: Magic Parade, Shiny Ray, Hoshi wo Tadoreba, MIND CONDUCTOR, Toumei no Tsubasa
Страна: Япония
Композитор: Yuiko Ohara, YURiKA
Год выпуска: 2015 - 2017
Аудиокодек: FLAC (*.flac)
Тип рипа: tracks+.cue (собственный)
Битрейт аудио: lossless
Общая продолжительность: 00:02:15:35
Наличие сканов в содержимом раздачи: нет
Год выпуска: 2015

Исполнитель: Yuiko Ohara

Продолжительность: 29:05

Треклист:
1. Magic Parade
2. Sekai no Dokoka de
3. Hoshi ni Kumo ni Yureru Kigi ni
4. Magic Parade (Instrumental)
5. Sekai no Dokoka de (Instrumental)
6. Hoshi ni Kumo ni Yureru Kigi ni (Instrumental)
<div class="sp-wrap">
<div class="sp-head folded">Лог создания рипа</div>
<div class="sp-body">

Exact Audio Copy V1.3 from 2. September 2016

EAC extraction logfile from 2. June 2017, 13:05

Yuiko Ohara / Magic Parade

Used drive : HL-DT-STDVDRAM GH24NS95 Adapter: 1 ID: 0

Read mode : SecureUtilize accurate stream : YesDefeat audio cache : YesMake use of C2 pointers : No

Read offset correction : 6Overread into Lead-In and Lead-Out : NoFill up missing offset samples with silence : YesDelete leading and trailing silent blocks : NoNull samples used in CRC calculations : YesUsed interface : Native Win32 interface for Win NT & 2000Gap handling : Appended to previous track

Used output format : User Defined EncoderSelected bitrate : 768 kBit/sQuality : HighAdd ID3 tag : NoCommand line compressor : C:\Program Files (x86)\Exact Audio Copy\FLAC\FLAC.EXEAdditional command line options : -6 -V -T "ARTIST=%artist%" -T "TITLE=%title%" -T "ALBUM=%albumtitle%" -T "DATE=%year%" -T "TRACKNUMBER=%tracknr%" -T "GENRE=%genre%" -T "COMMENT=%comment%" -T "BAND=%albuminterpret%" -T "ALBUMARTIST=%albuminterpret%" -T "COMPOSER=%composer%" %haslyrics%--tag-from-file=LYRICS="%lyricsfile%"%haslyrics% -T "DISCNUMBER=%cdnumber%" -T "TOTALDISCS=%totalcds%" -T "TOTALTRACKS=%numtracks%" %hascover%--picture="%coverfile%"%hascover% %source% -o %dest%

TOC of the extracted CD

Track | Start | Length | Start sector | End sector --------------------------------------------------------- 1 | 0:00.00 | 5:24.00 | 0 | 24299 2 | 5:24.00 | 5:07.00 | 24300 | 47324 3 | 10:31.00 | 4:04.00 | 47325 | 65624 4 | 14:35.00 | 5:24.00 | 65625 | 89924 5 | 19:59.00 | 5:07.00 | 89925 | 112949 6 | 25:06.00 | 3:59.18 | 112950 | 130892

Track 1

Filename E:\LWA FLAC\Magic Parade\01. Yuiko Ohara - Magic Parade.wav

Pre-gap length 0:00:02.00

Peak level 98.8 % Extraction speed 1.0 X Track quality 99.9 % Test CRC 12C95277 Copy CRC 12C95277 Accurately ripped (confidence 8) [1C4BF2DE] (AR v2) Copy OK

Track 2

Filename E:\LWA FLAC\Magic Parade\02. Yuiko Ohara - Sekai no Dokoka de.wav

Pre-gap length 0:00:02.57

Peak level 98.8 % Extraction speed 1.2 X Track quality 100.0 % Test CRC 8C034FDA Copy CRC 8C034FDA Accurately ripped (confidence 8) [1D47CAA7] (AR v2) Copy OK

Track 3

Filename E:\LWA FLAC\Magic Parade\03. Yuiko Ohara - Hoshi ni Kumo ni Yureru Kigi ni.wav

Pre-gap length 0:00:02.57

Peak level 98.8 % Extraction speed 1.1 X Track quality 99.9 % Test CRC 7387BC1A Copy CRC 7387BC1A Accurately ripped (confidence 8) [1B7C2C3F] (AR v2) Copy OK

Track 4

Filename E:\LWA FLAC\Magic Parade\04. Yuiko Ohara - Magic Parade (Instrumental).wav

Pre-gap length 0:00:04.57

Peak level 98.8 % Extraction speed 1.3 X Track quality 99.9 % Test CRC 3481CB98 Copy CRC 3481CB98 Accurately ripped (confidence 7) [067F8C71] (AR v2) Copy OK

Track 5

Filename E:\LWA FLAC\Magic Parade\05. Yuiko Ohara - Sekai no Dokoka de (Instrumental).wav

Pre-gap length 0:00:02.57

Peak level 98.8 % Extraction speed 1.6 X Track quality 100.0 % Test CRC CAF25204 Copy CRC CAF25204 Accurately ripped (confidence 7) [19735D97] (AR v2) Copy OK

Track 6

Filename E:\LWA FLAC\Magic Parade\06. Yuiko Ohara - Hoshi ni Kumo ni Yureru Kigi ni (Instrumental).wav

Pre-gap length 0:00:02.57

Peak level 98.8 % Extraction speed 1.6 X Track quality 100.0 % Test CRC 241BC09E Copy CRC 241BC09E Accurately ripped (confidence 6) [15DF64B8] (AR v2) Copy OK

All tracks accurately ripped

No errors occurred

End of status report

---- CUETools DB Plugin V2.1.6

[CTDB TOCID: 3Xp5h5lgk2riyjuKD34BJdXfO6c-] foundSubmit result: already submittedTrack | CTDB Status 1 | (33/33) Accurately ripped 2 | (33/33) Accurately ripped 3 | (33/33) Accurately ripped 4 | (33/33) Accurately ripped 5 | (33/33) Accurately ripped 6 | (31/33) Accurately ripped, or (2/33) differs in 3738 samples @03:58:73-03:59:04
REM GENRE AnimeREM DATE 2015REM DISCID 4106D106REM COMMENT "ExactAudioCopy v1.3"PERFORMER "Yuiko Ohara"TITLE "Magic Parade"REM COMPOSER ""FILE "01. Yuiko Ohara - Magic Parade.wav" WAVE TRACK 01 AUDIO TITLE "Magic Parade" PERFORMER "Yuiko Ohara" REM COMPOSER "" INDEX 01 00:00:00 TRACK 02 AUDIO TITLE "Sekai no Dokoka de" PERFORMER "Yuiko Ohara" REM COMPOSER "" INDEX 00 05:21:18FILE "02. Yuiko Ohara - Sekai no Dokoka de.wav" WAVE INDEX 01 00:00:00 TRACK 03 AUDIO TITLE "Hoshi ni Kumo ni Yureru Kigi ni" PERFORMER "Yuiko Ohara" REM COMPOSER "" INDEX 00 05:04:18FILE "03. Yuiko Ohara - Hoshi ni Kumo ni Yureru Kigi ni.wav" WAVE INDEX 01 00:00:00 TRACK 04 AUDIO TITLE "Magic Parade (Instrumental)" PERFORMER "Yuiko Ohara" REM COMPOSER "" INDEX 00 03:59:18FILE "04. Yuiko Ohara - Magic Parade (Instrumental).wav" WAVE INDEX 01 00:00:00 TRACK 05 AUDIO TITLE "Sekai no Dokoka de (Instrumental)" PERFORMER "Yuiko Ohara" REM COMPOSER "" INDEX 00 05:21:18FILE "05. Yuiko Ohara - Sekai no Dokoka de (Instrumental).wav" WAVE INDEX 01 00:00:00 TRACK 06 AUDIO TITLE "Hoshi ni Kumo ni Yureru Kigi ni (Instrumental)" PERFORMER "Yuiko Ohara" REM COMPOSER "" INDEX 00 05:04:18FILE "06. Yuiko Ohara - Hoshi ni Kumo ni Yureru Kigi ni (Instrumental).wav" WAVE INDEX 01 00:00:00
</div>
</div>
Год выпуска: 2017

Исполнитель: YURiKA

Продолжительность: 27:04

Треклист:
1. Shiny Ray
2. AKATSUKI DEPARTURE
3. My Destination
4. Shiny Ray (Instrumental)
5. AKATSUKI DEPARTURE (Instrumental)
6. My Destination (Instrumental)
<div class="sp-wrap">
<div class="sp-head folded">Лог создания рипа</div>
<div class="sp-body">

Exact Audio Copy V1.3 from 2. September 2016

EAC extraction logfile from 2. June 2017, 14:12

YURiKA / Shiny Ray

Used drive : HL-DT-STDVDRAM GH24NS95 Adapter: 1 ID: 0

Read mode : SecureUtilize accurate stream : YesDefeat audio cache : YesMake use of C2 pointers : No

Read offset correction : 6Overread into Lead-In and Lead-Out : NoFill up missing offset samples with silence : YesDelete leading and trailing silent blocks : NoNull samples used in CRC calculations : YesUsed interface : Native Win32 interface for Win NT & 2000Gap handling : Appended to previous track

Used output format : User Defined EncoderSelected bitrate : 768 kBit/sQuality : HighAdd ID3 tag : NoCommand line compressor : C:\Program Files (x86)\Exact Audio Copy\FLAC\FLAC.EXEAdditional command line options : -6 -V -T "ARTIST=%artist%" -T "TITLE=%title%" -T "ALBUM=%albumtitle%" -T "DATE=%year%" -T "TRACKNUMBER=%tracknr%" -T "GENRE=%genre%" -T "COMMENT=%comment%" -T "BAND=%albuminterpret%" -T "ALBUMARTIST=%albuminterpret%" -T "COMPOSER=%composer%" %haslyrics%--tag-from-file=LYRICS="%lyricsfile%"%haslyrics% -T "DISCNUMBER=%cdnumber%" -T "TOTALDISCS=%totalcds%" -T "TOTALTRACKS=%numtracks%" %hascover%--picture="%coverfile%"%hascover% %source% -o %dest%

TOC of the extracted CD

Track | Start | Length | Start sector | End sector --------------------------------------------------------- 1 | 0:00.00 | 3:55.00 | 0 | 17624 2 | 3:55.00 | 4:10.00 | 17625 | 36374 3 | 8:05.00 | 5:37.00 | 36375 | 61649 4 | 13:42.00 | 3:55.00 | 61650 | 79274 5 | 17:37.00 | 4:10.00 | 79275 | 98024 6 | 21:47.00 | 5:33.42 | 98025 | 123041

Track 1

Filename E:\LWA FLAC\Shiny Ray\01. YURiKA - Shiny Ray.wav

Pre-gap length 0:00:02.00

Peak level 99.8 % Extraction speed 1.0 X Track quality 100.0 % Test CRC 8233C724 Copy CRC 8233C724 Accurately ripped (confidence 4) [300C07DC] (AR v2) Copy OK

Track 2

Filename E:\LWA FLAC\Shiny Ray\02. YURiKA - AKATSUKI DEPARTURE.wav

Pre-gap length 0:00:02.35

Peak level 99.8 % Extraction speed 1.1 X Track quality 99.9 % Test CRC 493E0D24 Copy CRC 493E0D24 Accurately ripped (confidence 4) [7936B36A] (AR v2) Copy OK

Track 3

Filename E:\LWA FLAC\Shiny Ray\03. YURiKA - My Destination.wav

Pre-gap length 0:00:02.35

Peak level 99.8 % Extraction speed 1.3 X Track quality 99.9 % Test CRC 08967FA8 Copy CRC 08967FA8 Accurately ripped (confidence 4) [1D261DF7] (AR v2) Copy OK

Track 4

Filename E:\LWA FLAC\Shiny Ray\04. YURiKA - Shiny Ray (Instrumental).wav

Pre-gap length 0:00:03.35

Peak level 99.8 % Extraction speed 1.4 X Track quality 100.0 % Test CRC 6598B292 Copy CRC 6598B292 Accurately ripped (confidence 3) [EFBAD18D] (AR v2) Copy OK

Track 5

Filename E:\LWA FLAC\Shiny Ray\05. YURiKA - AKATSUKI DEPARTURE (Instrsumental).wav

Pre-gap length 0:00:02.35

Peak level 99.8 % Extraction speed 1.4 X Track quality 99.9 % Test CRC E52E23E3 Copy CRC E52E23E3 Accurately ripped (confidence 3) [FDCCFD88] (AR v2) Copy OK

Track 6

Filename E:\LWA FLAC\Shiny Ray\06. YURiKA - My Destination (Instrumental).wav

Pre-gap length 0:00:02.35

Peak level 99.8 % Extraction speed 1.7 X Track quality 100.0 % Test CRC 98367AD4 Copy CRC 98367AD4 Accurately ripped (confidence 3) [65384046] (AR v2) Copy OK

All tracks accurately ripped

No errors occurred

End of status report

---- CUETools DB Plugin V2.1.6

[CTDB TOCID: U1KFGfeB69dgmrKzdI5EY52scuw-] foundSubmit result: already submittedTrack | CTDB Status 1 | (116/116) Accurately ripped 2 | (116/116) Accurately ripped 3 | (116/116) Accurately ripped 4 | (116/116) Accurately ripped 5 | (116/116) Accurately ripped 6 | (111/116) Accurately ripped, or (3/116) differs in 4133 samples @05:33:22-05:33:29
REM GENRE AnimeREM DATE 2017REM DISCID 4B066806REM COMMENT "ExactAudioCopy v1.3"PERFORMER "YURiKA"TITLE "Shiny Ray"REM COMPOSER ""FILE "01. YURiKA - Shiny Ray.wav" WAVE TRACK 01 AUDIO TITLE "Shiny Ray" PERFORMER "YURiKA" REM COMPOSER "" INDEX 01 00:00:00 TRACK 02 AUDIO TITLE "AKATSUKI DEPARTURE" PERFORMER "YURiKA" REM COMPOSER "" INDEX 00 03:52:40FILE "02. YURiKA - AKATSUKI DEPARTURE.wav" WAVE INDEX 01 00:00:00 TRACK 03 AUDIO TITLE "My Destination" PERFORMER "YURiKA" REM COMPOSER "" INDEX 00 04:07:40FILE "03. YURiKA - My Destination.wav" WAVE INDEX 01 00:00:00 TRACK 04 AUDIO TITLE "Shiny Ray (Instrumental)" PERFORMER "YURiKA" REM COMPOSER "" INDEX 00 05:33:40FILE "04. YURiKA - Shiny Ray (Instrumental).wav" WAVE INDEX 01 00:00:00 TRACK 05 AUDIO TITLE "AKATSUKI DEPARTURE (Instrsumental)" PERFORMER "YURiKA" REM COMPOSER "" INDEX 00 03:52:40FILE "05. YURiKA - AKATSUKI DEPARTURE (Instrsumental).wav" WAVE INDEX 01 00:00:00 TRACK 06 AUDIO TITLE "My Destination (Instrumental)" PERFORMER "YURiKA" REM COMPOSER "" INDEX 00 04:07:40FILE "06. YURiKA - My Destination (Instrumental).wav" WAVE INDEX 01 00:00:00
</div>
</div>
Год выпуска: 2017

Исполнитель: Yuiko Ohara

Продолжительность: 26:52

Треклист:
1. Hoshi wo Tadoreba
2. Tsubomi
3. Yubiori
4. Hoshi wo Tadoreba (Instrumental)
5. Tsubomi (Instrumental)
6. Yubiori (Instrumental)
<div class="sp-wrap">
<div class="sp-head folded">Лог создания рипа</div>
<div class="sp-body">

Exact Audio Copy V1.3 from 2. September 2016

EAC extraction logfile from 2. June 2017, 14:57

Yuiko Ohara / Hoshi wo Tadoreba

Used drive : HL-DT-STDVDRAM GH24NS95 Adapter: 1 ID: 0

Read mode : SecureUtilize accurate stream : YesDefeat audio cache : YesMake use of C2 pointers : No

Read offset correction : 6Overread into Lead-In and Lead-Out : NoFill up missing offset samples with silence : YesDelete leading and trailing silent blocks : NoNull samples used in CRC calculations : YesUsed interface : Native Win32 interface for Win NT & 2000Gap handling : Appended to previous track

Used output format : User Defined EncoderSelected bitrate : 768 kBit/sQuality : HighAdd ID3 tag : NoCommand line compressor : C:\Program Files (x86)\Exact Audio Copy\FLAC\FLAC.EXEAdditional command line options : -6 -V -T "ARTIST=%artist%" -T "TITLE=%title%" -T "ALBUM=%albumtitle%" -T "DATE=%year%" -T "TRACKNUMBER=%tracknr%" -T "GENRE=%genre%" -T "COMMENT=%comment%" -T "BAND=%albuminterpret%" -T "ALBUMARTIST=%albuminterpret%" -T "COMPOSER=%composer%" %haslyrics%--tag-from-file=LYRICS="%lyricsfile%"%haslyrics% -T "DISCNUMBER=%cdnumber%" -T "TOTALDISCS=%totalcds%" -T "TOTALTRACKS=%numtracks%" %hascover%--picture="%coverfile%"%hascover% %source% -o %dest%

TOC of the extracted CD

Track | Start | Length | Start sector | End sector --------------------------------------------------------- 1 | 0:00.00 | 4:40.00 | 0 | 20999 2 | 4:40.00 | 3:28.00 | 21000 | 36599 3 | 8:08.00 | 5:28.00 | 36600 | 61199 4 | 13:36.00 | 4:40.00 | 61200 | 82199 5 | 18:16.00 | 3:28.00 | 82200 | 97799 6 | 21:44.00 | 5:24.42 | 97800 | 122141

Track 1

Filename E:\LWA FLAC\Hoshi no Tadoreba\01. Yuiko Ohara - Hoshi wo Tadoreba.wav

Pre-gap length 0:00:02.00

Peak level 99.8 % Extraction speed 1.1 X Track quality 100.0 % Test CRC 9E604592 Copy CRC 9E604592 Accurately ripped (confidence 4) [727B2520] (AR v2) Copy OK

Track 2

Filename E:\LWA FLAC\Hoshi no Tadoreba\02. Yuiko Ohara - Tsubomi.wav

Pre-gap length 0:00:02.35

Peak level 99.8 % Extraction speed 1.2 X Track quality 100.0 % Test CRC 1111A5F3 Copy CRC 1111A5F3 Accurately ripped (confidence 4) [3A216543] (AR v2) Copy OK

Track 3

Filename E:\LWA FLAC\Hoshi no Tadoreba\03. Yuiko Ohara - Yubiori.wav

Pre-gap length 0:00:02.35

Peak level 99.8 % Extraction speed 1.2 X Track quality 99.9 % Test CRC 61C11F69 Copy CRC 61C11F69 Accurately ripped (confidence 4) [D5BF2011] (AR v2) Copy OK

Track 4

Filename E:\LWA FLAC\Hoshi no Tadoreba\04. Yuiko Ohara - Hoshi wo Tadoreba (Instrumental).wav

Pre-gap length 0:00:03.35

Peak level 99.8 % Extraction speed 1.5 X Track quality 100.0 % Test CRC 3EB2E011 Copy CRC 3EB2E011 Accurately ripped (confidence 3) [A2192DCC] (AR v2) Copy OK

Track 5

Filename E:\LWA FLAC\Hoshi no Tadoreba\05. Yuiko Ohara - Tsubomi (Instrsumental).wav

Pre-gap length 0:00:02.35

Peak level 99.8 % Extraction speed 1.5 X Track quality 100.0 % Test CRC 879A0F38 Copy CRC 879A0F38 Accurately ripped (confidence 3) [9D84D637] (AR v2) Copy OK

Track 6

Filename E:\LWA FLAC\Hoshi no Tadoreba\06. Yuiko Ohara - Yubiori (Instrumental).wav

Pre-gap length 0:00:02.35

Peak level 99.8 % Extraction speed 1.7 X Track quality 100.0 % Test CRC 84B44B3A Copy CRC 84B44B3A Accurately ripped (confidence 3) [82EDA938] (AR v2) Copy OK

All tracks accurately ripped

No errors occurred

End of status report

---- CUETools DB Plugin V2.1.6

[CTDB TOCID: NSoON0jH.ATCVoXpWskOIGWmEX4-] foundSubmit result: already submittedTrack | CTDB Status 1 | (110/110) Accurately ripped 2 | (110/110) Accurately ripped 3 | (110/110) Accurately ripped 4 | (110/110) Accurately ripped 5 | (110/110) Accurately ripped 6 | (110/110) Accurately ripped
REM GENRE AnimeREM DATE 2017REM DISCID 48065C06REM COMMENT "ExactAudioCopy v1.3"PERFORMER "Yuiko Ohara"TITLE "Hoshi wo Tadoreba"REM COMPOSER ""FILE "01. Yuiko Ohara - Hoshi wo Tadoreba.wav" WAVE TRACK 01 AUDIO TITLE "Hoshi wo Tadoreba" PERFORMER "Yuiko Ohara" REM COMPOSER "" INDEX 01 00:00:00 TRACK 02 AUDIO TITLE "Tsubomi" PERFORMER "Yuiko Ohara" REM COMPOSER "" INDEX 00 04:37:40FILE "02. Yuiko Ohara - Tsubomi.wav" WAVE INDEX 01 00:00:00 TRACK 03 AUDIO TITLE "Yubiori" PERFORMER "Yuiko Ohara" REM COMPOSER "" INDEX 00 03:25:40FILE "03. Yuiko Ohara - Yubiori.wav" WAVE INDEX 01 00:00:00 TRACK 04 AUDIO TITLE "Hoshi wo Tadoreba (Instrumental)" PERFORMER "Yuiko Ohara" REM COMPOSER "" INDEX 00 05:24:40FILE "04. Yuiko Ohara - Hoshi wo Tadoreba (Instrumental).wav" WAVE INDEX 01 00:00:00 TRACK 05 AUDIO TITLE "Tsubomi (Instrsumental)" PERFORMER "Yuiko Ohara" REM COMPOSER "" INDEX 00 04:37:40FILE "05. Yuiko Ohara - Tsubomi (Instrsumental).wav" WAVE INDEX 01 00:00:00 TRACK 06 AUDIO TITLE "Yubiori (Instrumental)" PERFORMER "Yuiko Ohara" REM COMPOSER "" INDEX 00 03:25:40FILE "06. Yuiko Ohara - Yubiori (Instrumental).wav" WAVE INDEX 01 00:00:00
</div>
</div>
Год выпуска: 2017

Исполнитель: YURiKA

Продолжительность: 23:16

Треклист:
1. MIND CONDUCTOR
2. Fairy Way
3. Beautiful Future
4. MIND CONDUCTOR (Instrumental)
5. Fairy Way (Instrumental)
6. Beautiful Future (Instrumental)
<div class="sp-wrap">
<div class="sp-head folded">Лог создания рипа</div>
<div class="sp-body">

Exact Audio Copy V1.3 from 2. September 2016

EAC extraction logfile from 2. June 2017, 15:38

YURiKA / MIND CONDUCTOR

Used drive : HL-DT-STDVDRAM GH24NS95 Adapter: 1 ID: 0

Read mode : SecureUtilize accurate stream : YesDefeat audio cache : YesMake use of C2 pointers : No

Read offset correction : 6Overread into Lead-In and Lead-Out : NoFill up missing offset samples with silence : YesDelete leading and trailing silent blocks : NoNull samples used in CRC calculations : YesUsed interface : Native Win32 interface for Win NT & 2000Gap handling : Appended to previous track

Used output format : User Defined EncoderSelected bitrate : 768 kBit/sQuality : HighAdd ID3 tag : NoCommand line compressor : C:\Program Files (x86)\Exact Audio Copy\FLAC\FLAC.EXEAdditional command line options : -6 -V -T "ARTIST=%artist%" -T "TITLE=%title%" -T "ALBUM=%albumtitle%" -T "DATE=%year%" -T "TRACKNUMBER=%tracknr%" -T "GENRE=%genre%" -T "COMMENT=%comment%" -T "BAND=%albuminterpret%" -T "ALBUMARTIST=%albuminterpret%" -T "COMPOSER=%composer%" %haslyrics%--tag-from-file=LYRICS="%lyricsfile%"%haslyrics% -T "DISCNUMBER=%cdnumber%" -T "TOTALDISCS=%totalcds%" -T "TOTALTRACKS=%numtracks%" %hascover%--picture="%coverfile%"%hascover% %source% -o %dest%

TOC of the extracted CD

Track | Start | Length | Start sector | End sector --------------------------------------------------------- 1 | 0:00.00 | 3:52.00 | 0 | 17399 2 | 3:52.00 | 3:58.00 | 17400 | 35249 3 | 7:50.00 | 3:58.00 | 35250 | 53099 4 | 11:48.00 | 3:52.00 | 53100 | 70499 5 | 15:40.00 | 3:58.00 | 70500 | 88349 6 | 19:38.00 | 3:54.20 | 88350 | 105919

Track 1

Filename E:\LWA FLAC\MIND CONDUCTOR\01. YURiKA - MIND CONDUCTOR.wav

Pre-gap length 0:00:02.00

Peak level 99.8 % Extraction speed 1.1 X Track quality 100.0 % Test CRC 71D329B1 Copy CRC 71D329B1 Track not present in AccurateRip database Copy OK

Track 2

Filename E:\LWA FLAC\MIND CONDUCTOR\02. YURiKA - Fairy Way.wav

Pre-gap length 0:00:02.56

Peak level 99.8 % Extraction speed 1.2 X Track quality 100.0 % Test CRC EAD6D5C2 Copy CRC EAD6D5C2 Track not present in AccurateRip database Copy OK

Track 3

Filename E:\LWA FLAC\MIND CONDUCTOR\03. YURiKA - Beautiful Future.wav

Pre-gap length 0:00:02.57

Peak level 99.8 % Extraction speed 1.3 X Track quality 100.0 % Test CRC E110FDD8 Copy CRC E110FDD8 Track not present in AccurateRip database Copy OK

Track 4

Filename E:\LWA FLAC\MIND CONDUCTOR\04. YURiKA - MIND CONDUCTOR (Instrumental).wav

Pre-gap length 0:00:03.56

Peak level 99.8 % Extraction speed 1.4 X Track quality 100.0 % Test CRC DFCBCDC7 Copy CRC DFCBCDC7 Track not present in AccurateRip database Copy OK

Track 5

Filename E:\LWA FLAC\MIND CONDUCTOR\05. YURiKA - Fairy Way (Instrumental).wav

Pre-gap length 0:00:02.56

Peak level 99.8 % Extraction speed 1.5 X Track quality 100.0 % Test CRC C784969E Copy CRC C784969E Track not present in AccurateRip database Copy OK

Track 6

Filename E:\LWA FLAC\MIND CONDUCTOR\06. YURiKA - Beautiful Future (Instrumental).wav

Pre-gap length 0:00:02.56

Peak level 99.8 % Extraction speed 1.6 X Track quality 100.0 % Test CRC EB8DEA03 Copy CRC EB8DEA03 Track not present in AccurateRip database Copy OK

None of the tracks are present in the AccurateRip database

No errors occurred

End of status report

---- CUETools DB Plugin V2.1.6

[CTDB TOCID: Fe9kgf09oAMytBTRPGGexpndcUs-] foundSubmit result: already submittedTrack | CTDB Status 1 | (38/38) Accurately ripped 2 | (38/38) Accurately ripped 3 | (38/38) Accurately ripped 4 | (38/38) Accurately ripped 5 | (38/38) Accurately ripped 6 | (37/38) Accurately ripped
REM GENRE AnimeREM DATE 2017REM DISCID 39058406REM COMMENT "ExactAudioCopy v1.3"PERFORMER "YURiKA"TITLE "MIND CONDUCTOR"REM COMPOSER ""FILE "01. YURiKA - MIND CONDUCTOR.wav" WAVE TRACK 01 AUDIO TITLE "MIND CONDUCTOR" PERFORMER "YURiKA" REM COMPOSER "" INDEX 01 00:00:00 TRACK 02 AUDIO TITLE "Fairy Way" PERFORMER "YURiKA" REM COMPOSER "" INDEX 00 03:49:19FILE "02. YURiKA - Fairy Way.wav" WAVE INDEX 01 00:00:00 TRACK 03 AUDIO TITLE "Beautiful Future" PERFORMER "YURiKA" REM COMPOSER "" INDEX 00 03:55:18FILE "03. YURiKA - Beautiful Future.wav" WAVE INDEX 01 00:00:00 TRACK 04 AUDIO TITLE "MIND CONDUCTOR (Instrumental)" PERFORMER "YURiKA" REM COMPOSER "" INDEX 00 03:54:19FILE "04. YURiKA - MIND CONDUCTOR (Instrumental).wav" WAVE INDEX 01 00:00:00 TRACK 05 AUDIO TITLE "Fairy Way (Instrumental)" PERFORMER "YURiKA" REM COMPOSER "" INDEX 00 03:49:19FILE "05. YURiKA - Fairy Way (Instrumental).wav" WAVE INDEX 01 00:00:00 TRACK 06 AUDIO TITLE "Beautiful Future (Instrumental)" PERFORMER "YURiKA" REM COMPOSER "" INDEX 00 03:55:19FILE "06. YURiKA - Beautiful Future (Instrumental).wav" WAVE INDEX 01 00:00:00
</div>
</div>
Год выпуска: 2017

Исполнитель: Yuiko Ohara

Продолжительность: 28:12

Треклист:
1. Toumei no Tsubasa
2. Ne a To
3. No Sutarujia
4. Toumei no Tsubasa (Instrumental)
5. Ne a To (Instrumental)
6. No Sutarujia (Instrumental)
<div class="sp-wrap">
<div class="sp-head folded">Лог создания рипа</div>
<div class="sp-body">

Exact Audio Copy V1.3 from 2. September 2016

EAC extraction logfile from 2. June 2017, 16:20

Yuiko Ohara / Toumei na Tsubasa

Used drive : HL-DT-STDVDRAM GH24NS95 Adapter: 1 ID: 0

Read mode : SecureUtilize accurate stream : YesDefeat audio cache : YesMake use of C2 pointers : No

Read offset correction : 6Overread into Lead-In and Lead-Out : NoFill up missing offset samples with silence : YesDelete leading and trailing silent blocks : NoNull samples used in CRC calculations : YesUsed interface : Native Win32 interface for Win NT & 2000Gap handling : Appended to previous track

Used output format : User Defined EncoderSelected bitrate : 768 kBit/sQuality : HighAdd ID3 tag : NoCommand line compressor : C:\Program Files (x86)\Exact Audio Copy\FLAC\FLAC.EXEAdditional command line options : -6 -V -T "ARTIST=%artist%" -T "TITLE=%title%" -T "ALBUM=%albumtitle%" -T "DATE=%year%" -T "TRACKNUMBER=%tracknr%" -T "GENRE=%genre%" -T "COMMENT=%comment%" -T "BAND=%albuminterpret%" -T "ALBUMARTIST=%albuminterpret%" -T "COMPOSER=%composer%" %haslyrics%--tag-from-file=LYRICS="%lyricsfile%"%haslyrics% -T "DISCNUMBER=%cdnumber%" -T "TOTALDISCS=%totalcds%" -T "TOTALTRACKS=%numtracks%" %hascover%--picture="%coverfile%"%hascover% %source% -o %dest%

TOC of the extracted CD

Track | Start | Length | Start sector | End sector --------------------------------------------------------- 1 | 0:00.00 | 4:13.00 | 0 | 18974 2 | 4:13.00 | 5:02.00 | 18975 | 41624 3 | 9:15.00 | 5:01.00 | 41625 | 64199 4 | 14:16.00 | 4:13.00 | 64200 | 83174 5 | 18:29.00 | 5:02.00 | 83175 | 105824 6 | 23:31.00 | 4:57.20 | 105825 | 128119

Track 1

Filename E:\LWA FLAC\Toumei no Tsubasa\01. Yuiko Ohara - Toumei na Tsubasa.wav

Pre-gap length 0:00:02.00

Peak level 99.8 % Extraction speed 1.1 X Track quality 100.0 % Test CRC CA5EC6ED Copy CRC CA5EC6ED Track not present in AccurateRip database Copy OK

Track 2

Filename E:\LWA FLAC\Toumei no Tsubasa\02. Yuiko Ohara - Ne a To.wav

Pre-gap length 0:00:02.56

Peak level 99.8 % Extraction speed 1.2 X Track quality 100.0 % Test CRC 780A2A7F Copy CRC 780A2A7F Track not present in AccurateRip database Copy OK

Track 3

Filename E:\LWA FLAC\Toumei no Tsubasa\03. Yuiko Ohara - No Sutarujia.wav

Pre-gap length 0:00:02.56

Peak level 99.8 % Extraction speed 1.4 X Track quality 100.0 % Test CRC EAEF16DD Copy CRC EAEF16DD Track not present in AccurateRip database Copy OK

Track 4

Filename E:\LWA FLAC\Toumei no Tsubasa\04. Yuiko Ohara - Toumei na Tsubasa (Instrumental).wav

Pre-gap length 0:00:03.56

Peak level 99.8 % Extraction speed 1.4 X Track quality 100.0 % Test CRC 128178C0 Copy CRC 128178C0 Track not present in AccurateRip database Copy OK

Track 5

Filename E:\LWA FLAC\Toumei no Tsubasa\05. Yuiko Ohara - Ne a To (Instrsumental).wav

Pre-gap length 0:00:02.56

Peak level 99.8 % Extraction speed 1.6 X Track quality 100.0 % Test CRC 9C513470 Copy CRC 9C513470 Track not present in AccurateRip database Copy OK

Track 6

Filename E:\LWA FLAC\Toumei no Tsubasa\06. Yuiko Ohara - No Sutarujia (Instrumental).wav

Pre-gap length 0:00:02.56

Peak level 99.8 % Extraction speed 1.7 X Track quality 100.0 % Test CRC 200DD1CC Copy CRC 200DD1CC Track not present in AccurateRip database Copy OK

None of the tracks are present in the AccurateRip database

No errors occurred

End of status report

---- CUETools DB Plugin V2.1.6

[CTDB TOCID: MeObZGez_t2.RUAO2wJgDAU3Luc-] foundSubmit result: already submittedTrack | CTDB Status 1 | (32/32) Accurately ripped 2 | (32/32) Accurately ripped 3 | (32/32) Accurately ripped 4 | (32/32) Accurately ripped 5 | (32/32) Accurately ripped 6 | (29/32) Accurately ripped
REM GENRE AnimeREM DATE 2017REM DISCID 4106AC06REM COMMENT "ExactAudioCopy v1.3"PERFORMER "Yuiko Ohara"TITLE "Toumei na Tsubasa"REM COMPOSER ""FILE "01. Yuiko Ohara - Toumei na Tsubasa.wav" WAVE TRACK 01 AUDIO TITLE "Toumei na Tsubasa" PERFORMER "Yuiko Ohara" REM COMPOSER "" INDEX 01 00:00:00 TRACK 02 AUDIO TITLE "Ne a To" PERFORMER "Yuiko Ohara" REM COMPOSER "" INDEX 00 04:10:19FILE "02. Yuiko Ohara - Ne a To.wav" WAVE INDEX 01 00:00:00 TRACK 03 AUDIO TITLE "No Sutarujia" PERFORMER "Yuiko Ohara" REM COMPOSER "" INDEX 00 04:59:19FILE "03. Yuiko Ohara - No Sutarujia.wav" WAVE INDEX 01 00:00:00 TRACK 04 AUDIO TITLE "Toumei na Tsubasa (Instrumental)" PERFORMER "Yuiko Ohara" REM COMPOSER "" INDEX 00 04:57:19FILE "04. Yuiko Ohara - Toumei na Tsubasa (Instrumental).wav" WAVE INDEX 01 00:00:00 TRACK 05 AUDIO TITLE "Ne a To (Instrsumental)" PERFORMER "Yuiko Ohara" REM COMPOSER "" INDEX 00 04:10:19FILE "05. Yuiko Ohara - Ne a To (Instrsumental).wav" WAVE INDEX 01 00:00:00 TRACK 06 AUDIO TITLE "No Sutarujia (Instrumental)" PERFORMER "Yuiko Ohara" REM COMPOSER "" INDEX 00 04:59:19FILE "06. Yuiko Ohara - No Sutarujia (Instrumental).wav" WAVE INDEX 01 00:00:00
</div>
</div>

Трекер:  [ 08-Июн-2017 22:12 ]

  

Скачать .torrent

Размер .torrent файла 42 KB


Размер: 945 MB
Хэш (hash) релиза: 491f868c2df4a42311a98880bcfd472a81721c15

Еще никто не оставлял запись к записи скачать торрент Академия Ведьмочек Little Witch Academia . Будь первым!

!Обратная связь