Constantine | Sarodj Bertin | Cesar's Rules

Скачать порно через торрент [Pantyamateur.com] Sapphire Blue Minipack x26 UnionPeer.org бесплатно онлайн HD качество

Скачать новое порно 2015, 2014 новинки через торрент UnionPeer.org

Порно торрент бесплатно ЮнионПир.орг

Статистика раздачи
Размер:  7.7 GB   |    Зарегистрирован:  1 год 1 месяц   |    .torrent скачан:  347 раз   |   
Раздают:  1  
   
загрузка...
 
Автор Сообщение

Galfimbul

avatar Galfimbul


[Pantyamateur.com] Sapphire Blue Minipack PM,SSF,SUG,UKUS x26 4K,1080P / Sapphire Blue Minipack

Год производства: 2017 г.
Жанр: Solo Fetish
Студия: Pantyamateur

В ролях: Sapphire Blue

Описание: http://skirtsupgirls.com/showgal.php?g=groups/5688/26_1&s=138
http://ukupskirts.com/showgal.php?g=groups/7718/51_1&s=225
http://pantymaniacs.com/showgal.php?g=groups/7696/44_1&s=192
http://pantyamateur.com/showgal.php?g=groups/4032/15_1&s=85

Тип HD видео: 1080p
Формат видео: WMV
Видео: Windows Media Video 9 1920x1080 25.00fps 8319 Kbps MPEG-4 3840 x 2160 25.00fps Variable
Аудио: Windows Media Audio 10 stereo Variable AAC Variable
Saphire Blue (1).wmv
Format : Windows Media
File size : 54.5 MiB
Duration : 3mn 17s
Overall bit rate mode : Variable
Overall bit rate : 2 310 Kbps
Maximum Overall bit rate : 4 345 Kbps
Encoded date : UTC 2013-10-24 15:10:34.282

Video
ID : 2
Format : VC-1
Format profile : [email protected]
Codec ID : WMV3
Codec ID/Info : Windows Media Video 9
Codec ID/Hint : WMV3
Description of the codec : Windows Media Video 9 - Professional
Bit rate mode : Variable
Bit rate : 2 000 Kbps
Width : 960 pixels
Height : 540 pixels
Display aspect ratio : 16:9
Frame rate mode : Variable
Nominal frame rate : 25.000 fps
Color space : YUV
Chroma subsampling : 4:2:0
Bit depth : 8 bits
Scan type : Progressive
Compression mode : Lossy
NumberOfFrames : 4933

Audio
ID : 1
Format : WMA
Format profile : Pro
Codec ID : 162
Codec ID/Info : Windows Media Audio
Description of the codec : Windows Media Audio 10 Professional - 440 kbps, 44 kHz, 2 channel 24 bit 2-pass VBR
Duration : 3mn 17s
Bit rate mode : Variable
Bit rate : 309 Kbps
Channel(s) : 2 channels
Sampling rate : 44.1 KHz
Bit depth : 24 bits
Stream size : 7.29 MiB (13%)
NumberOfFrames : 371
hotpantyfun/HPF565_Saphire_Blue.wmv
Format : Windows Media
File size : 87.9 MiB
Duration : 5mn 6s
Overall bit rate mode : Variable
Overall bit rate : 2 403 Kbps
Maximum Overall bit rate : 4 437 Kbps
Encoded date : UTC 2013-10-24 12:56:55.992

Video
ID : 2
Format : VC-1
Format profile : [email protected]
Codec ID : WMV3
Codec ID/Info : Windows Media Video 9
Codec ID/Hint : WMV3
Description of the codec : Windows Media Video 9 - Professional
Bit rate mode : Variable
Bit rate : 2 000 Kbps
Width : 960 pixels
Height : 540 pixels
Display aspect ratio : 16:9
Frame rate mode : Variable
Nominal frame rate : 25.000 fps
Color space : YUV
Chroma subsampling : 4:2:0
Bit depth : 8 bits
Scan type : Progressive
Compression mode : Lossy
NumberOfFrames : 7660

Audio
ID : 1
Format : WMA
Format profile : Pro
Codec ID : 162
Codec ID/Info : Windows Media Audio
Description of the codec : Windows Media Audio 10 Professional - 440 kbps, 44 kHz, 2 channel 24 bit 2-pass VBR
Duration : 5mn 6s
Bit rate mode : Variable
Bit rate : 402 Kbps
Channel(s) : 2 channels
Sampling rate : 44.1 KHz
Bit depth : 24 bits
Stream size : 14.7 MiB (17%)
NumberOfFrames : 749
HPF803_Saphire_Blue.hd.mp4
Format : MPEG-4
Format profile : Base Media / Version 2
Codec ID : mp42 (mp42/mp41)
File size : 587 MiB
Duration : 4mn 56s
Overall bit rate mode : Variable
Overall bit rate : 16.6 Mbps
Encoded date : UTC 2016-11-17 16:50:21
Tagged date : UTC 2016-11-17 16:50:25
©TIM : 00:00:00:00
©TSC : 25
©TSZ : 1

Video
ID : 1
Format : AVC
Format/Info : Advanced Video Codec
Format profile : [email protected]
Format settings, CABAC : Yes
Format settings, ReFrames : 3 frames
Format settings, GOP : M=3, N=25
Codec ID : avc1
Codec ID/Info : Advanced Video Coding
Duration : 4mn 56s
Bit rate mode : Variable
Bit rate : 16.3 Mbps
Maximum bit rate : 20.0 Mbps
Width : 3 840 pixels
Height : 2 160 pixels
Display aspect ratio : 16:9
Frame rate mode : Constant
Frame rate : 25.000 fps
Standard : PAL
Color space : YUV
Chroma subsampling : 4:2:0
Bit depth : 8 bits
Scan type : Progressive
Bits/(Pixel*Frame) : 0.078
Stream size : 576 MiB (98%)
Language : English
Encoded date : UTC 2016-11-17 16:50:21
Tagged date : UTC 2016-11-17 16:50:21
Color range : Limited
Color primaries : BT.709
Transfer characteristics : BT.709
Matrix coefficients : BT.709

Audio
ID : 2
Format : AAC
Format/Info : Advanced Audio Codec
Format profile : LC
Codec ID : 40
Duration : 4mn 56s
Source duration : 4mn 56s
Bit rate mode : Variable
Bit rate : 317 Kbps
Maximum bit rate : 389 Kbps
Channel(s) : 2 channels
Channel positions : Front: L R
Sampling rate : 48.0 KHz
Frame rate : 46.875 fps (1024 spf)
Compression mode : Lossy
Stream size : 11.2 MiB (2%)
Source stream size : 11.2 MiB (2%)
Language : English
Encoded date : UTC 2016-11-17 16:50:21
Tagged date : UTC 2016-11-17 16:50:21


Трекер:  [ 03-Июн-2017 12:00 ]

  

Скачать .torrent

Размер .torrent файла 156 KB


Размер: 7.7 GB
Хэш (hash) релиза: 90121d1655b1d63971e8458869316d2dde385ac8

Еще никто не оставлял запись к записи скачать торрент [Pantyamateur.com] Sapphire Blue Minipack x26 . Будь первым!

!Обратная связь