MasterChef US S09E03 720p HDTV x264-W4F 1 hour | Elements of Matter | Bill Nye the Science Guy Seasnon 05

Скачать через торрент [VIDEO] Оз: Великий и Ужасный Oz the Great and Powerful бесплатно русская версия torrent активатор

Статистика раздачи
Размер:  1.94 GB   |    Зарегистрирован:  1 год 1 месяц   |    .torrent скачан:  37 раз   |   
Раздают:  1  
   
загрузка...
 
Автор Сообщение

Galfimbul

avatar Galfimbul


Оз: Великий и Ужасный / Oz the Great and Powerful«Find yourself in Oz.»
Год выпуска: 2013
Страна: США / Roth Films, Walt Disney Pictures
Жанр: фэнтези, приключения, комедия, семейный
Продолжительность: 02:10:30
Перевод №1: Русский Профессиональный (полное дублирование) Blu-ray CEE [Лицензия]
Перевод №2: Украинский Профессиональный (полное дублирование) Blu-ray CEE [Лицензия]
Оригинальная дорожка: Есть
Субтитры: русские (forced+full+full BD), украинские (forced+full BD), английские (full+ SDH+SDH-Colored)Режиссер: Сэм Рэйми / Sam RaimiВ ролях: Джеймс Франко, Мила Кунис, Рейчел Вайс, Мишель Уильямс, Зак Брафф, Билл Коббс, Джои Кинг, Тони Кокс, Стивен Р. Харт, Эбигейл Спенсер и другие .Описание: Когда ураган забрасывает циркового фокусника Оскара Диггса из пыльного Канзаса в волшебную страну Оз, склонный к мошенничеству циркач полагает, что он поймал удачу за хвост — ведь с помощью своих трюков он с легкостью может добыть в новых землях и славу и богатство.
Однако его ждёт встреча с тремя чародейками, Теодорой, Эванорой и Глиндой, которые сомневаются в том, тот ли это великий волшебник, появления которого ждали легковерные жители страны Оз. Волей-неволей, пришелец оказывается втянутым в противостояние эпического масштаба, и ему приходится использовать весь свой «магический» арсенал, с добавлением толики настоящего волшебства.
В ситуации выбора между Добром и Злом, Оскару Диггсу предстоит не только стать Великим и Ужасным Волшебником из Страны Оз, но и немного измениться к лучшему.
Релиз группы Качество: BDRip / рип с Blu-ray disc 1080p [Лицензия]
Формат: MP4
Видео кодек: H.264
Аудио кодек: AAC
Видео: 960х400 AR:2.40 1740 kbps 23.976 fps
Аудио №1: [Russian] 2ch 48 kHz 128 kbps - Профессиональный (полное дублирование) Blu-ray CEE [Лицензия]
Аудио №2: [Ukrainian] 2ch 48 kHz 128 kbps - Профессиональный (полное дублирование) Blu-ray CEE [Лицензия]
Аудио №3: [English] 2ch 48 kHz 128 kbps - Оригинал
avs [info]: 960x400p 1:1 @ 2997/125 fps (cfr)
x264 [info]: using SAR=1/1
x264 [info]: using cpu capabilities: MMX2 SSE2Fast SSSE3 SSE4.2 AVX FMA3 AVX2 LZCNT BMI2
x264 [info]: profile High, level 4.1

x264 [info]: frame I:1713 Avg QP:14.38 size: 62648
x264 [info]: frame P:49959 Avg QP:19.30 size: 17730
x264 [info]: frame B:136060 Avg QP:21.31 size: 5217
x264 [info]: consecutive B-frames: 5.5% 4.6% 9.7% 33.3% 18.7% 21.1% 3.9% 2.2% 1.0%
x264 [info]: mb I I16..4: 8.1% 65.6% 26.4%
x264 [info]: mb P I16..4: 0.5% 7.4% 1.7% P16..4: 30.2% 34.3% 14.0% 0.0% 0.0% skip:11.8%
x264 [info]: mb B I16..4: 0.1% 1.1% 0.2% B16..8: 29.2% 18.3% 3.5% direct: 4.2% skip:43.4% L0:38.9% L1:43.0% BI:18.1%
x264 [info]: 8x8 transform intra:75.0% inter:53.2%
x264 [info]: direct mvs spatial:95.5% temporal:4.5%
x264 [info]: coded y,uvDC,uvAC intra: 89.4% 76.0% 62.5% inter: 19.5% 17.9% 10.7%
x264 [info]: i16 v,h,dc,p: 36% 8% 4% 53%
x264 [info]: i8 v,h,dc,ddl,ddr,vr,hd,vl,hu: 10% 8% 5% 9% 13% 13% 14% 12% 15%
x264 [info]: i4 v,h,dc,ddl,ddr,vr,hd,vl,hu: 13% 7% 5% 9% 14% 13% 13% 11% 13%
x264 [info]: i8c dc,h,v,p: 34% 30% 16% 20%
x264 [info]: Weighted P-Frames: Y:9.5% UV:5.9%
x264 [info]: ref P L0: 55.9% 11.3% 14.4% 5.9% 4.3% 3.3% 2.8% 1.8% 0.3% 0.0%
x264 [info]: ref B L0: 79.7% 9.9% 4.9% 2.3% 1.7% 1.0% 0.4%
x264 [info]: ref B L1: 95.1% 4.9%
x264 [info]: kb/s:1739.88

encoded 187732 frames, 16.45 fps, 1739.88 kb/s
GeneralComplete name : D:\Torrents\Oz the Great and Powerful.2013.BDRip.x264.960x.rip by Frost O.S.mp4Format : MPEG-4Format profile : Base MediaCodec ID : isom (isom)File size : 1.94 GiBDuration : 2 h 10 minOverall bit rate mode : VariableOverall bit rate : 2 132 kb/sEncoded date : UTC 2017-06-02 14:43:17Tagged date : UTC 2017-06-02 14:43:17Writing application : My MP4Box GUI 0.6.0.6

VideoID : 1Format : AVCFormat/Info : Advanced Video CodecFormat profile : [email protected] settings, CABAC : YesFormat settings, ReFrames : 8 framesCodec ID : avc1Codec ID/Info : Advanced Video CodingDuration : 2 h 10 minBit rate : 1 740 kb/sMaximum bit rate : 11.7 Mb/sWidth : 960 pixelsHeight : 400 pixelsDisplay aspect ratio : 2.40:1Frame rate mode : ConstantFrame rate : 23.976 (23976/1000) FPSColor space : YUVChroma subsampling : 4:2:0Bit depth : 8 bitsScan type : ProgressiveBits/(Pixel*Frame) : 0.189Stream size : 1.59 GiB (82%)Title : Oz the Great and Powerful.2013.BDRip.x264.960x.rip by Frost O.S.mp4Writing library : x264 core 148 r2744 b97ae06Encoding settings : cabac=1 / ref=8 / deblock=1:-1:-1 / analyse=0x3:0x113 / me=umh / subme=11 / psy=1 / psy_rd=0.90:0.00 / mixed_ref=1 / me_range=32 / chroma_me=1 / trellis=2 / 8x8dct=1 / cqm=0 / deadzone=21,11 / fast_pskip=0 / chroma_qp_offset=-2 / threads=6 / lookahead_threads=1 / sliced_threads=0 / nr=0 / decimate=0 / interlaced=0 / bluray_compat=0 / constrained_intra=0 / bframes=8 / b_pyramid=2 / b_adapt=2 / b_bias=0 / direct=3 / weightb=1 / open_gop=0 / weightp=2 / keyint=250 / keyint_min=23 / scenecut=40 / intra_refresh=0 / rc=2pass / mbtree=0 / bitrate=1740 / ratetol=1.0 / qcomp=0.70 / qpmin=0 / qpmax=69 / qpstep=4 / cplxblur=20.0 / qblur=0.5 / ip_ratio=1.40 / pb_ratio=1.30 / aq=3:0.80Encoded date : UTC 2017-06-01 15:53:55Tagged date : UTC 2017-06-02 14:44:03Color range : LimitedColor primaries : BT.709Transfer characteristics : BT.709Matrix coefficients : BT.709

Audio #1ID : 2Format : AACFormat/Info : Advanced Audio CodecFormat profile : LCCodec ID : 40Duration : 2 h 10 minBit rate mode : VariableBit rate : 128 kb/sMaximum bit rate : 138 kb/sChannel(s) : 2 channelsChannel positions : Front: L RSampling rate : 48.0 kHzFrame rate : 46.875 FPS (1024 spf)Compression mode : LossyStream size : 119 MiB (6%)Title : Russian / Dub, Blu-ray CEEEncoded date : UTC 2017-06-02 14:43:46Tagged date : UTC 2017-06-02 14:44:03

Audio #2ID : 3Format : AACFormat/Info : Advanced Audio CodecFormat profile : LCCodec ID : 40Duration : 2 h 10 minBit rate mode : VariableBit rate : 128 kb/sMaximum bit rate : 138 kb/sChannel(s) : 2 channelsChannel positions : Front: L RSampling rate : 48.0 kHzFrame rate : 46.875 FPS (1024 spf)Compression mode : LossyStream size : 119 MiB (6%)Title : Ukrainian / Dub, Blu-ray CEEEncoded date : UTC 2017-06-02 14:43:54Tagged date : UTC 2017-06-02 14:44:03

Audio #3ID : 4Format : AACFormat/Info : Advanced Audio CodecFormat profile : LCCodec ID : 40Duration : 2 h 10 minBit rate mode : VariableBit rate : 128 kb/sMaximum bit rate : 138 kb/sChannel(s) : 2 channelsChannel positions : Front: L RSampling rate : 48.0 kHzFrame rate : 46.875 FPS (1024 spf)Compression mode : LossyStream size : 119 MiB (6%)Title : English / OriginalEncoded date : UTC 2017-06-02 14:43:58Tagged date : UTC 2017-06-02 14:44:03

Text #1ID : 5Format : Timed TextCodec ID : tx3gDuration : 2 h 4 minBit rate mode : VariableBit rate : 0 b/sStream size : 221 Bytes (0%)Title : Russian, ForcedForced : NoEncoded date : UTC 2017-06-02 14:44:02Tagged date : UTC 2017-06-02 14:44:03

Text #2ID : 6Format : Timed TextCodec ID : tx3gDuration : 2 h 4 minBit rate mode : VariableBit rate : 63 b/sStream size : 57.3 KiB (0%)Title : Russian, FullForced : NoEncoded date : UTC 2017-06-02 14:44:02Tagged date : UTC 2017-06-02 14:44:03

Text #3ID : 7Format : Timed TextCodec ID : tx3gDuration : 2 h 4 minBit rate mode : VariableBit rate : 79 b/sStream size : 71.4 KiB (0%)Title : Russian, Full BDForced : NoEncoded date : UTC 2017-06-02 14:44:02Tagged date : UTC 2017-06-02 14:44:03

Text #4ID : 8Format : Timed TextCodec ID : tx3gDuration : 1 h 36 minBit rate mode : VariableBit rate : 0 b/sStream size : 136 Bytes (0%)Title : Ukrainian, ForcedForced : NoEncoded date : UTC 2017-06-02 14:44:02Tagged date : UTC 2017-06-02 14:44:03

Text #5ID : 9Format : Timed TextCodec ID : tx3gDuration : 2 h 4 minBit rate mode : VariableBit rate : 82 b/sStream size : 74.6 KiB (0%)Title : Ukrainian,, FullForced : NoEncoded date : UTC 2017-06-02 14:44:02Tagged date : UTC 2017-06-02 14:44:03

Text #6ID : 10Format : Timed TextCodec ID : tx3gDuration : 2 h 10 minBit rate mode : VariableBit rate : 56 b/sStream size : 53.2 KiB (0%)Title : English, FullForced : NoEncoded date : UTC 2017-06-02 14:44:03Tagged date : UTC 2017-06-02 14:44:03

Text #7ID : 11Format : Timed TextCodec ID : tx3gDuration : 2 h 10 minBit rate mode : VariableBit rate : 64 b/sStream size : 60.5 KiB (0%)Title : English, SDHForced : NoEncoded date : UTC 2017-06-02 14:44:03Tagged date : UTC 2017-06-02 14:44:03

Text #8ID : 12Format : Timed TextCodec ID : tx3gDuration : 2 h 10 minBit rate mode : VariableBit rate : 79 b/sStream size : 75.2 KiB (0%)Title : English,, SDH-COLOREDForced : NoEncoded date : UTC 2017-06-02 14:44:03Tagged date : UTC 2017-06-02 14:44:03


Трекер:  [ 02-Июн-2017 16:30 ]

  

Скачать .torrent

Размер .torrent файла 20 KB


Размер: 1.94 GB
Хэш (hash) релиза: ab53350b6658e0f84553c3833d27e4ef0ed1fff3

Торренты, похожие на [VIDEO] Оз: Великий и Ужасный Oz the Great and Powerful скачать торрент

Форум Название Автор Размер S L Добавлен
Видео (Фильмы/Клипы) ·· [VIDEO] Оз: Великий и Ужасный / Oz the Great and Powerful (Сэм Рэйми / Sam Raimi) [2013, фэнтези, приключения, комедия, семейный, HDRip] [MP4, 480x] Dub Blu-ray CEE Galfimbul 615516987587 MB 0 0 1499424166

13:42

7-Июл-17

Еще никто не оставлял запись к записи скачать торрент [VIDEO] Оз: Великий и Ужасный Oz the Great and Powerful . Будь первым!

!Обратная связь