videók megtekintése | Фильмы для iPod, iPhone, iPad | Jigsaw (2017)

Скачать через торрент [VIDEO] Звонки Rings бесплатно русская версия torrent активатор

Статистика раздачи
Размер:  1.99 GB   |    Зарегистрирован:  1 год 1 месяц   |    .torrent скачан:  42 раза   |   
Раздают:  1  
   
загрузка...
 
Автор Сообщение

Galfimbul

avatar Galfimbul


Звонки / Rings
«Зло переродилось»
Год выпуска: 2017
Оригинальное название: Rings
Страна: США
Жанр: ужасы, драма
Возраст: 18+

Режиссер: Ф. Хавьер Гутьеррес / F. Javier Gutiérrez

В ролях: Матильда Анна Ингрид Лутс, Алекс Роу, Джонни Галэки, Винсент Д`Онофрио, Эйми Тигарден, Бонни Морган, Чак Дэвид Уиллис, Патрик Р. Уокер, Зак Рериг, Лаура Уиггинс

Описание: Молодой человек увлеченно исследует мрачную субкультуру, связанную с таинственной видеокассетой, через 7 дней после просмотра которой гибнет всякий увидевший запись. Однако его девушка уверена, что бойфренду грозит опасность, и чтобы спасти его, она решает принять удар на себя. Её ждет немало чудовищных открытий, но самым страшным станет фильм в фильме, который прежде никто не видел.

Продолжительность: 01:42:11
Перевод: Дублированный [Лицензия]
Оригинальная дорожка: есть

Автор рипа:

Качество видео: BDRip Исходник: Blu-Ray Remux (1080p) Формат: mp4
Видео кодек: MPEG-4 AVC Аудио кодек: AAC
Видео: 1280x720 (16:9) at 23.976 fps, AVC at 2 515 kbps avg, 0.114 bit/pixel
Аудио №1 Rus: 48.0 KHz, AAC, 2 ch, 128.0 Kbps
Аудио №2 Eng: 48.0 KHz, AAC, 2 ch, 128.0 Kbps
Субтитры: русские (форсированные, полные), английские (полные)
Навигация по главам: есть
Размер: 1.99 GiB
avs [info]: 1280x720p 1:1 @ 24000/1001 fps (cfr)
x264 [info]: using SAR=1/1
x264 [info]: using cpu capabilities: MMX2 SSE2Fast SSSE3 Cache64
x264 [info]: profile High, level 4.1
x264 [info]: frame I:884 Avg QP:13.58 size: 96543
x264 [info]: frame P:27141 Avg QP:17.33 size: 25663
x264 [info]: frame B:118974 Avg QP:18.85 size: 9626
x264 [info]: consecutive B-frames: 1.6% 1.5% 3.4% 12.1% 12.8% 39.0% 8.3% 9.5% 2.9% 1.5% 2.7% 3.7% 0.8%
x264 [info]: mb I I16..4: 10.1% 74.5% 15.4%
x264 [info]: mb P I16..4: 2.2% 8.3% 1.1% P16..4: 45.6% 17.8% 14.2% 0.0% 0.0% skip:10.9%
x264 [info]: mb B I16..4: 0.1% 0.6% 0.1% B16..8: 45.0% 6.0% 1.2% direct: 3.8% skip:43.1% L0:46.5% L1:50.4% BI: 3.2%
x264 [info]: 8x8 transform intra:72.7% inter:65.1%
x264 [info]: coded y,uvDC,uvAC intra: 66.9% 69.6% 46.1% inter: 15.9% 18.8% 2.1%
x264 [info]: i16 v,h,dc,p: 31% 16% 6% 47%
x264 [info]: i8 v,h,dc,ddl,ddr,vr,hd,vl,hu: 16% 13% 30% 5% 8% 8% 7% 7% 7%
x264 [info]: i4 v,h,dc,ddl,ddr,vr,hd,vl,hu: 25% 18% 20% 5% 8% 7% 6% 5% 5%
x264 [info]: i8c dc,h,v,p: 58% 16% 17% 9%
x264 [info]: Weighted P-Frames: Y:6.1% UV:4.5%
x264 [info]: ref P L0: 49.9% 6.6% 17.7% 7.6% 5.6% 4.5% 3.7% 2.1% 2.0% 0.2% 0.0%
x264 [info]: ref B L0: 71.2% 12.6% 7.0% 3.3% 2.5% 2.0% 1.2% 0.3%
x264 [info]: ref B L1: 91.8% 8.2%
x264 [info]: kb/s:2514.54
encoded 146999 frames, 1.78 fps, 2514.54 kb/s
GeneralComplete name : ...Zvonki_2017_KinoGadget.mp4Format : MPEG-4Format profile : Base MediaCodec ID : isom (isom)File size : 1.99 GiBDuration : 1 h 42 minOverall bit rate mode : VariableOverall bit rate : 2 782 kb/sMovie name : Звонки | KinoGadgetPerformer : Ф. Хавьер ГутьерресDirector : Ф. Хавьер ГутьерресActor : Матильда Анна Ингрид Лутс / Алекс Роу / Джонни Галэки / Винсент Д`Онофрио / Эйми Тигарден / Бонни Морган / Чак Дэвид Уиллис / Патрик Р. Уокер / Зак Рериг / Лаура УиггинсScreenplay by : Дэвид Лука / Джейкоб Аарон Эстес / Акива ГолдсманProducer : Крис Бендер / Нил Эдельштейн / Эрен КрюгерGenre : Drama, HorrorContentType : Short FilmRecorded date : 2017Encoded date : UTC 2017-05-31 03:03:25Tagged date : UTC 2017-05-31 18:00:16Cover : YesContentRating : mpaa|PG-13|300|LongDescription : Молодой человек увлеченно исследует мрачную субкультуру, связанную с таинственной видеокассетой, через 7 дней после просмотра которой гибнет всякий увидевший запись. Однако его девушка уверена, что бойфренду грозит опасность, и чтобы спасти его, она решает принять удар на себя. Её ждет немало чудовищных открытий, но самым страшным станет фильм в фильме, который прежде никто не видел.HDVideo : Yes

VideoID : 1Format : AVCFormat/Info : Advanced Video CodecFormat profile : [email protected] settings, CABAC : YesFormat settings, ReFrames : 9 framesCodec ID : avc1Codec ID/Info : Advanced Video CodingDuration : 1 h 42 minBit rate : 2 515 kb/sMaximum bit rate : 40.6 Mb/sWidth : 1 280 pixelsHeight : 720 pixelsDisplay aspect ratio : 16:9Frame rate mode : ConstantFrame rate : 23.976 (24000/1001) FPSColor space : YUVChroma subsampling : 4:2:0Bit depth : 8 bitsScan type : ProgressiveBits/(Pixel*Frame) : 0.114Stream size : 1.79 GiB (90%)Writing library : x264 core 148 r2744 b97ae06Encoding settings : cabac=1 / ref=9 / deblock=1:-1:-1 / analyse=0x3:0x113 / me=umh / subme=7 / psy=1 / psy_rd=1.00:0.00 / mixed_ref=1 / me_range=32 / chroma_me=1 / trellis=2 / 8x8dct=1 / cqm=0 / deadzone=21,11 / fast_pskip=0 / chroma_qp_offset=-2 / threads=3 / lookahead_threads=1 / sliced_threads=0 / nr=0 / decimate=1 / interlaced=0 / bluray_compat=0 / constrained_intra=0 / bframes=12 / b_pyramid=2 / b_adapt=2 / b_bias=0 / direct=1 / weightb=1 / open_gop=0 / weightp=2 / keyint=250 / keyint_min=25 / scenecut=40 / intra_refresh=0 / rc_lookahead=60 / rc=crf / mbtree=1 / crf=18.0 / qcomp=0.60 / qpmin=0 / qpmax=69 / qpstep=4 / vbv_maxrate=62500 / vbv_bufsize=78125 / crf_max=0.0 / nal_hrd=none / filler=0 / ip_ratio=1.40 / aq=1:1.00Encoded date : UTC 2017-05-30 17:34:53Tagged date : UTC 2017-05-31 03:04:28

Audio #1ID : 2Format : AACFormat/Info : Advanced Audio CodecFormat profile : LCCodec ID : 40Duration : 1 h 42 minBit rate mode : VariableBit rate : 128 kb/sMaximum bit rate : 135 kb/sChannel(s) : 2 channelsChannel positions : Front: L RSampling rate : 48.0 kHzFrame rate : 46.875 FPS (1024 spf)Compression mode : LossyStream size : 93.6 MiB (5%)Language : RussianEncoded date : UTC 2017-05-30 17:38:34Tagged date : UTC 2017-05-31 03:04:28

Audio #2ID : 3Format : AACFormat/Info : Advanced Audio CodecFormat profile : LCCodec ID : 40Duration : 1 h 42 minBit rate mode : VariableBit rate : 128 kb/sMaximum bit rate : 135 kb/sChannel(s) : 2 channelsChannel positions : Front: L RSampling rate : 48.0 kHzFrame rate : 46.875 FPS (1024 spf)Compression mode : LossyStream size : 93.6 MiB (5%)Language : EnglishEncoded date : UTC 2017-05-30 17:46:30Tagged date : UTC 2017-05-31 03:04:28

Text #1ID : 4Format : Timed TextCodec ID : tx3gDuration : 1 h 42 minBit rate mode : VariableBit rate : 1 b/sStream size : 788 Bytes (0%)Language : RussianForced : NoEncoded date : UTC 2017-05-31 03:04:28Tagged date : UTC 2017-05-31 03:04:28

Text #2ID : 5Format : Timed TextCodec ID : tx3gDuration : 1 h 42 minBit rate mode : VariableBit rate : 52 b/sStream size : 39.1 KiB (0%)Language : RussianForced : NoEncoded date : UTC 2017-05-31 03:04:28Tagged date : UTC 2017-05-31 03:04:28

Text #3ID : 6Format : Timed TextCodec ID : tx3gDuration : 1 h 36 minBit rate mode : VariableBit rate : 34 b/sStream size : 24.1 KiB (0%)Language : EnglishForced : NoEncoded date : UTC 2017-05-31 03:04:28Tagged date : UTC 2017-05-31 03:04:28

Menu00:00:00.000 : 00:00:00.00000:08:42.731 : 00:08:42.73100:15:28.136 : 00:15:28.13600:20:39.989 : 00:20:39.98900:25:25.190 : 00:25:25.19000:32:55.182 : 00:32:55.18200:39:17.855 : 00:39:17.85500:48:53.722 : 00:48:53.72200:55:06.929 : 00:55:06.92901:00:24.371 : 01:00:24.37101:07:38.221 : 01:07:38.22101:18:21.113 : 01:18:21.11301:31:47.210 : 01:31:47.21001:36:37.500 : 01:36:37.500


Трекер:  [ 31-Май-2017 20:30 ]

  

Скачать .torrent

Размер .torrent файла 20 KB


Размер: 1.99 GB
Хэш (hash) релиза: 36bd35a74b5af1c5604b5e0c5a4a4a0b1d8ab007

Еще никто не оставлял запись к записи скачать торрент [VIDEO] Звонки Rings . Будь первым!

!Обратная связь