Đông Phương Chân Long [FULL] | Chapter 23 | La Era de los Tanques (3/4) - 720p - MP4 - Ezpañol

Скачать через торрент [VIDEO] Охотники за привидениями Ghostbusters бесплатно русская версия torrent активатор

Статистика раздачи
Размер:  530 MB   |    Зарегистрирован:  1 год 1 месяц   |    .torrent скачан:  25 раз   |   
Раздают:  1  
   
загрузка...
 
Автор Сообщение

Galfimbul

avatar Galfimbul


Охотники за привидениями / Ghostbusters (Theatrical Cut)
Год выпуска: 2016
Страна: США / Columbia Pictures, Feigco Entertainment, The Montecito Picture Company
Жанр: фантастика, фэнтези, боевик, комедия
Продолжительность: 01:56:35
Перевод: Русский Профессиональный (полное дублирование) Blu-ray CEE
Субтитры: нетРежиссер: Пол Фиг / Paul FeigВ ролях: Мелисса МакКарти, Кристен Уиг, Кейт МакКиннон, Лесли Джонс, Крис Хемсворт, Сесили Стронг, Энди Гарсиа, Нил Кэйси, Чарльз Дэнс, Майкл Кеннет Уильямс и другие .Описание: Тридцать лет назад охотники за привидениями спасли Нью-Йорк от нашествия призраков, но теперь городу вновь угрожает опасность. Былые герои не могут стать на его защиту, но находятся и другие отважные люди, всю свою жизнь посвятившие изучению паранормальных явлений. Эбби Йейтс объединяется с Эрин Гилберт, пожалуй лучшим специалистом в квантовой физике, и вместе они собирают команду новых охотников за привидениями, в которую принимают отличного инженера Джиллиан Хольцман, сотрудницу метрополитена Пэтти Толан, знающую город как свои пять пальцев, и секретаря - настоящего красавчика Кэвина. Вместе они начинают борьбу с нечистой силой, терроризирующей мегаполис... Релиз группы Качество: HDRip / рип с BDRip 1080p
Формат: MP4
Видео кодек: XviD
Аудио кодек: AAC
Видео: 480х200 AR:2.40 500 kbps 23.976 fps
Аудио: [Russian] 2ch 48 kHz 128 kbps - Профессиональный (полное дублирование) Blu-ray CEE
GeneralComplete name : D:\Torrents\Ghostbusters.(Theatrical Cut).2016.HDRip.XviD.480x.rip by Frost O.S.mp4Format : MPEG-4Format profile : Base MediaCodec ID : isom (isom/iso2)File size : 530 MiBDuration : 1 h 56 minOverall bit rate mode : VariableOverall bit rate : 636 kb/sMovie name : Ghostbusters (Theatrical Cut) 2016 HDRip XviD 480x rip by Frost O SDirector : Пол Фиг / Paul FeigActor : Мелисса МакКарти / Кристен Уиг / Кейт МакКиннон / Лесли Джонс / Крис Хемсворт / Сесили Стронг / Энди Гарсиа / Нил Кэйси / Чарльз Дэнс / Майкл Кеннет Уильямс и другие .Genre : FantasyContentType : Short FilmEncoded date : UTC 2017-05-31 09:42:42Tagged date : UTC 2017-05-31 09:43:18Writing application : MkvToMp4 version: 0.224 (x64)Cover : YesComment : rip by Frost O.SLongDescription : Тридцать лет назад охотники за привидениями спасли Нью-Йорк от нашествия призраков, но теперь городу вновь угрожает опасность. Былые герои не могут стать на его защиту, но находятся и другие отважные люди, всю свою жизнь посвятившие изучению паранормальных явлений. Эбби Йейтс объединяется с Эрин Гилберт, пожалуй лучшим специалистом в квантовой физике, и вместе они собирают команду новых охотников за привидениями, в которую принимают отличного инженера Джиллиан Хольцман, сотрудницу метрополитена Пэтти Толан, знающую город как свои пять пальцев, и секретаря - настоящего красавчика Кэвина. Вместе они начинают борьбу с нечистой силой, терроризирующей мегаполис...

VideoID : 1Format : MPEG-4 VisualFormat profile : Advanced [email protected] settings, BVOP : YesFormat settings, QPel : NoFormat settings, GMC : No warppointsFormat settings, Matrix : CustomCodec ID : 20Duration : 1 h 56 minBit rate mode : VariableBit rate : 500 kb/sMaximum bit rate : 3 584 kb/sWidth : 480 pixelsHeight : 200 pixelsDisplay aspect ratio : 2.40:1Frame rate mode : ConstantFrame rate : 23.976 (24000/1001) FPSOriginal frame rate : 23.976 (23976/1000) FPSColor space : YUVChroma subsampling : 4:2:0Bit depth : 8 bitsScan type : ProgressiveCompression mode : LossyBits/(Pixel*Frame) : 0.217Stream size : 417 MiB (79%)Title : avi_GPAC0.5.2_DEV_rev248_g39d5978_masterWriting library : XviD 1.2.1 (UTC 2008-12-04)Language : EnglishTagged date : UTC 2017-05-31 09:42:50

AudioID : 2Format : AACFormat/Info : Advanced Audio CodecFormat profile : LCCodec ID : 40Duration : 1 h 56 minBit rate mode : VariableBit rate : 128 kb/sMaximum bit rate : 135 kb/sChannel(s) : 2 channelsChannel positions : Front: L RSampling rate : 48.0 kHzFrame rate : 46.875 FPS (1024 spf)Compression mode : LossyStream size : 107 MiB (20%)Title : Dub_ Blu_ray CEE / Dub_ Blu_ray CEELanguage : RussianDefault : YesAlternate group : 1Encoded date : UTC 2017-05-31 09:42:47Tagged date : UTC 2017-05-31 09:42:50


Трекер:  [ 31-Май-2017 11:30 ]

  

Скачать .torrent

Размер .torrent файла 11 KB


Размер: 530 MB
Хэш (hash) релиза: 9cfa7ff33b6fa6fc343575181bc0614116852025

Еще никто не оставлял запись к записи скачать торрент [VIDEO] Охотники за привидениями Ghostbusters . Будь первым!

!Обратная связь