La Habitacion Perdida | Gosick (dub) | Naruto SD

Скачать через торрент музыку Exit Trance Collection бесплатно без регистрации torrent

Статистика раздачи
Размер:  19.24 GB   |    Зарегистрирован:  1 год 1 месяц   |    .torrent скачан:  26 раз   |   
Раздают:  1  
   
загрузка...
 
Автор Сообщение

Galfimbul

avatar Galfimbul


EXIT TRANCE PRESENTS

Жанр: Trance / JPop / OST
Год выпуска диска: ~? 2007-2009
Аудио кодек: FLAC
Тип рипа: image+.cue
Битрейт аудио: lossless
Количество дисков: 22
Продолжительность: много
Источник: интернет
Доп. информация: Благодарность Lighter235 и Nomake Wan за некоторые альбомы.
Если не указано обратного, лог ЕАС отсутсвует.

.
.
.
.
.
.
.
.
.
.EXIT TRANCE PRESENTS CMトランス
EXIT TRANCE PRESENTS CM Trance
--- Album: "EXIT TRANCE PRESENTS CMトランス"; Genre: Trance; ## of Tracks: 2001. ポリリズム(NHK環境・リサイクルキャンペーンソング) (4:15) // MAKI02. Life(CM/au Smart Sports/KDDI) (3:34) // YUKI03. CHE.R.RY(CM/LISMO(au)/KDDI) (2:55) // CAMRY04. はじまりの歌(CM/通信教育/ユーキャン) (4:38) // NINE05. たらこ・たらこ・たらこ (4:12) // ミッヒ06. そばにいるね(CM/NTTドコモグループ/春のキャンペーン) (4:37) // CAMRY07. A Perfect Sky(CM/ANESSA/資生堂) (3:47) // MAKI08. WINDING ROAD(CM/キューブ/日産) (4:37) // YUKI+MAKI09. I Love You(CM/ゼクシィ/リクルート) (4:35) // YUKI10. 愛のうた(CM/ピクミン/任天堂) (3:16) // MAKI11. PEPSI MAN(ペプシコーラCM) (2:31) // Cubby-S12. Rusty Nail (4:37) // NINE13. 私のお気に入り (3:42) // DJ東海14. それぞれの夢(CM/レオパレス21) (4:08) // MAKI15. 弦楽セレナーデ(第一楽章) (4:20) // N.O.-SYO16. ハネウマライダー(CM/ポカリスエット/大塚製薬) (3:17) // YUKI17. je t'aime ★ je t'aime(CM/MIRA AVY/ダイハツ) (4:25) // MAKI18. 言葉にできない (4:08) // YUKI19. 雪の華(CM/BODA&GALBO/明治製菓) (4:48) // CAMRY20. 愛唄(CM/BEAUTEEN(ビューティーン)ヘアカラー/ホーユー) (3:17) // NINE--- Info: "EXIT TRANCE PRESENTS CM Trance.flac" - FLAC - 1123kbps 44100Hz stereo

<div class="sp-wrap">
<div class="sp-head folded">Лог EAC</div>
<div class="sp-body">

EAC 展開 ログファイル 日付: 21. 11月 2008, 13:06 for CDEXIT TRANCE PRESENTS / CMトランス

使用ドライブ : HL-DT-STDVDRAM GSA-4163B Adapter: 4 ID: 0読み込みモード : セキュア(C2 : YES / 正確なデータ転送力 : YES / キャッシュ無効 : NO)読み込みオフセット訂正値 : 637リードインとリードアウトをオーバーリードする : Yes

使用出力フォーマット : D:\Program Files\Monkey's Audio\MAC.exe (Monkey's Audio Lossless Encoder) Fast Lossless Compression

その他のオプション : 消失したオフセットサンプルを無音に置き換える : Yes 曲の先頭と末尾の無音部を削除する : No 標準 Win32 の Win NT & 2000 用

展開範囲ステータスとエラー選択された範囲 ファイル名 F:\[EAC][081119][アルバム] EXIT TRANCE PRESENTS SPEED アニメ トランス BEST 5 (ape+cue+jpg+rr3%)\EXIT TRANCE PRESENTS - CMトランス.wav

疑わしい位置 1:19:38

ピークレベル 96.5 % 選択範囲品質 99.9 % CRC 2CA176A9 コピー完了

エラーがありました

ステータスの報告終了
</div>
</div>
EXIT TRANCE PRESENTS ドラマチックトランス Memorial 第一話
EXIT TRANCE PRESENTS Dramatic Trance Memorial Story 1
--- Album: "EXIT TRANCE PRESENTS ドラマチックトランス Memorial 第一話"; Genre: Trance ; ## of Tracks: 2001. Over the rain ~ひかりの橋~ (4:13) // Ryu* feat. SHUN02. First Love (4:13) // Starving Trancer feat. MAKI03. ラブ・ストーリーは突然に (3:28) // B.U.S feat. YUK04. SAY YES (2:43) // DJ Kyon-C feat. NON05. LIFE (2:42) // Dizzi Mystica feat. YURiE06. 空と君のあいだに (4:03) // Acid=Stone Valley feat. YURiE07. POISON ~言いたい事も言えないこんな世の中は~ (4:00) // Dizzi Mystica feat. YURiE08. realize (3:30) // Icon feat. KEIKO09. 交響曲第7番(第一楽章) (4:30) // Ben Reynolds10. かたち あるもの (3:55) // Icon feat. KEIKO11. NO MORE CRY (4:27) // MK feat. CAMRY12. 世界はそれを愛と呼ぶんだぜ (3:45) // Icon feat. NINE13. 気まぐれロマンティック (3:44) // Starving Trancer feat. MAKI14. Love Somebody (4:12) // Hommarju feat. CAMRY15. Everything (4:18) // MK feat. YURiE16. Prisoner Of Love (4:19) // B.U.S feat. MAKI17. I for you (4:32) // Hommarju feat. YURiE18. secret base~君がくれたもの~ (4:03) // DJ Kyon-C feat. CAMRY19. 今夜月の見える丘に (3:24) // Judas feat. YUKI20. キセキ (4:37) // DJ Kyon-C feat. CAMRY--- Info: "EXIT TRANCE PRESENTS Dramatic Trance Memorial Story 1.flac" - FLAC - 1136kbps 44100Hz stereo

<div class="sp-wrap">
<div class="sp-head folded">Лог EAC</div>
<div class="sp-body">

Exact Audio Copy V0.99 prebeta 4 from 23. January 2008

EAC extraction logfile from 20. March 2009, 14:47

Various / EXIT TRANCE PRESENTS ドラマチックトランス Memorial 第一話

Used drive : DVDRW IDE 16X Adapter: 3 ID: 0

Read mode : SecureUtilize accurate stream : YesDefeat audio cache : NoMake use of C2 pointers : No

Combined read/write offset correction : 0Overread into Lead-In and Lead-Out : NoFill up missing offset samples with silence : YesDelete leading and trailing silent blocks : NoNull samples used in CRC calculations : NoUsed interface : Native Win32 interface for Win NT & 2000

Used output format : User Defined EncoderSelected bitrate : 768 kBit/sQuality : HighAdd ID3 tag : NoCommand line compressor : C:\Program Files\Exact Audio Copy\FLAC\FLAC.EXEAdditional command line options : -T "artist=%a" -T "title=%t" -T "album=%g" -T "date=%y" -T "tracknumber=%n" -T "genre=%m" -5 %s

TOC of the extracted CD

Track | Start | Length | Start sector | End sector --------------------------------------------------------- 1 | 0:00.00 | 4:13.15 | 0 | 18989 2 | 4:13.15 | 4:13.34 | 18990 | 37998 3 | 8:26.49 | 3:28.25 | 37999 | 53623 4 | 11:54.74 | 2:43.25 | 53624 | 65873 5 | 14:38.24 | 2:41.50 | 65874 | 77998 6 | 17:19.74 | 4:03.26 | 77999 | 96249 7 | 21:23.25 | 4:00.00 | 96250 | 114249 8 | 25:23.25 | 3:30.00 | 114250 | 129999 9 | 28:53.25 | 4:29.45 | 130000 | 150219 10 | 33:22.70 | 3:55.31 | 150220 | 167875 11 | 37:18.26 | 4:27.05 | 167876 | 187905 12 | 41:45.31 | 3:45.01 | 187906 | 204781 13 | 45:30.32 | 3:44.13 | 204782 | 221594 14 | 49:14.45 | 4:11.62 | 221595 | 240481 15 | 53:26.32 | 4:17.73 | 240482 | 259829 16 | 57:44.30 | 4:19.27 | 259830 | 279281 17 | 62:03.57 | 4:32.00 | 279282 | 299681 18 | 66:35.57 | 4:02.50 | 299682 | 317881 19 | 70:38.32 | 3:24.00 | 317882 | 333181 20 | 74:02.32 | 4:37.25 | 333182 | 353981

Range status and errors

Selected range (Sectors 0-353981)

Filename C:\Documents and Settings\Kain Blueriver\Desktop\EXIT TRANCE PRESENTS ドラマチックトランス Memorial 第一話.wav

Peak level 100.0 % Range quality 100.0 % Copy CRC 3D1565A7 Copy OK

No errors occurred

End of status report
</div>
</div>
EXIT TRANCE PRESENTS ドラマチック・トランス ~Memorial~ 第2話
EXIT TRANCE PRESENTS Dramatic Trance Memorial Story 2
--- Album: "EXIT TRANCE PRESENTS ドラマチック・トランス ~Memorial~ 第2話"; Genre: Trance; ## of Tracks: 2001. 守りたいもの 3:36 // Starving Trancer feat. CAMRY02. ChaNge the WoRLd 3:47 // Hommarju feat. MAKI03. モノクローム 2:52 // Icon feat. Latte04. POP STAR 4:26 // Dizzi Mystica feat. zaki05. キラキラ 3:22 // kinoto feat. YOZU06. サボテンの花 4:00 // MK feat. Brack Rabbit07. Faith 4:05 // Icon feat. MAKI08. WILL 4:50 // Starving Trancer feat. mamiko09. 北風と太陽 4:42 // Dizzi Mystica feat. mamiko10. Forever 3:42 // MK feat. hideki11. 友達でいいから 3:50 // kinoto feat. puchi12. 刹那 3:19 // Ryu* feat. zaki13. My Sunshine 4:22 // B.U.S feat. zaki14. KISSして 3:41 // Icon feat. MAKI15. おかえり 4:21 // B.U.S feat. MAKI16. HOWEVER 4:39 // Acid=Stone Valley feat. TAKANORI17. TRUE LOVE 3:33 // DJ kyon-C feat. Thunder Ace18. Can You Keep A Secret? 4:47 // Starving Trancer feat. MAKI19. 虹 3:44 // Acid=Stone Valley feat. Thunder Ace20. TOMORROW 4:13 // DJ kyon-C feat. MAKI--- Info: "EXIT TRANCE PRESENTS Dramatic Trance Memorial Story 2.flac" - FLAC - 1139kbps - 44100Hz stereo
EXIT TRANCE PRESENTS ニコニコできるトランスを作ってみた
EXIT TRANCE PRESENTS Nico Nico Dekiru Trance wo Tsukutte Mita
--- Album: "EXIT TRANCE PRESENTS ニコニコできるトランスを作ってみた"; Genre: Trance; ## of Tracks: 1601. みくみくにしてあげる♪【してやんよ】 (4:00) // MicH02. あいつこそがテニスの王子様 ミュージカル「テニスの王子様」THE IMPERIAL MATCH TCH氷帝学園より (4:26) // Prince03. パーフェクトスター・パーフェクトスタイル (4:29) // MAKI04. バラライカ (オープニング/きらりん☆レボリューション) (3:36) // Technic05. IEVAN POLKKA (3:12) // Black Man06. SCREW THE PLAN (3:17) // NAKASONE07. 粉雪 (3:42) // NINE08. ドラマチック (オープニング/大きく振りかぶって) (4:17) // Digital Stone09. STAR RISE (エンディング/バンブーブレード[TX系アニメ]) (4:03) // MAKI10. God knows… (涼宮ハルヒの憂鬱より) (5:39) // MAKI11. クリティウスの牙 (遊戯王デュエルモンスターズより) (4:00) // 社長12. GONG (オープニング/第3次スーパーロボット大戦α終焉の銀河へ) (3:41) // KONEKO PROJECT13. 創聖のアクエリオン (オープニング/創聖のアクエリオン【TV東京】) (4:28) // MAKI14. GO MY WAY!! (アイドルマスターより) (4:48) // RinK15. エージェント夜を往く (CM/アイドルマスター/ナムコ) (3:53) // RinK16. レッツゴー!陰陽師 (新豪血寺一族闘婚-MATRIMELEEより) (5:33) // Nico ALLSTARS--- Info: "EXIT TRANCE PRESENTS Nico Nico Dekiru Trance wo Tsukutte Mita.flac" - FLAC - 1135kbps 44100Hz stereo
EXIT TRANCE PRESENTS R25 SPEED アニメトランス BEST
EXIT TRANCE PRESENTS R25 SPEED Anime Trance BEST
--- Album: "EXIT TRANCE PRESENTS R25 SPEED アニメトランス BEST"; Genre: Trance; ## of Tracks: 2001. 夢を信じて (4:50) // MAKI02. ブルーウォーター (3:55) // KANA03. ペガサス幻想 (4:11) // Prince04. 愛・おぼえていますか (3:55) // MAKI05. 想い出がいっぱい (3:25) // YUKI06. 空からこぼれたSTORY (3:43) // MAKI07. Bugってハニー (3:28) // Prince08. _わぴこ元気予報! (2:28) // MAKI09. ヤッターマンの歌 (3:30) // Prince10. 恋の呪文はスキトキメキトキス (3:36) // MAKI11. You Get To Burning (3:55) // KANA12. Get Wild (3:43) // YUKI13. 夢冒険 (3:13) // MAKI14. ダンバインとぶ (4:48) // 先生15. はじめてのチュウ (4:23) // Helium-Chang16. ミラクル・ガール (3:47) // MAKI17. 哀・戦士 (4:50) // YUKI18. 負けないで勇気 (4:25) // MAKI19. 世界が終るまでは・・・ (4:52) // YUKI20. 火の鳥 (3:33) // N.O.-SYO--- Info: "EXIT TRANCE PRESENTS R25 SPEED Anime Trance BEST.flac" - FLAC - 1121kbps 44100Hz stereo
EXIT TRANCE PRESENTS R25 SPEED アニメトランス BEST2
EXIT TRANCE PRESENTS R25 SPEED Anime Trance BEST 2
--- Album: "EXIT TRANCE PRESENTS R25 SPEED アニメトランス BEST 2"; Genre: Trance; ## of Tracks: 2001. 残酷な天使のテーゼ (4:48) // MAKI02. THE GALAXY EXPRESS 999 (2:56) // NINE03. ムーンライト伝説 (3:54) // MAKI04. 最強ロボ・ダイオージャ (3:53) // NINE05. Dang Dang気になる (3:12) // MAKI06. 宇宙戦艦ヤマト (2:45) // NINE07. JUST COMMUNICATION (3:52) // MAKI08. I’ll Come (4:00) // KANA09. 笑顔に会いたい (3:44) // MAKI10. はじめ人間ギャートルズ (2:39) // NINE11. ベートーベンだねRock’n roll (2:37) // MAKI12. よろしくチューニング (3:11) // NINE13. そばかす (4:32) // MAKI14. 夢色チェイサー (3:55) // xue15. ETERNAL WIND~ほほえみは光る風の中~ (4:58) // MAKI16. 陽だまり (3:47) // 先生17. STEP (3:50) // MAKI18. 少年期 (2:26) // NINE19. ドリーム・シフト (4:15) // KANA20. それでも明日はやってくる (3:39) // YURiE--- Info: "EXIT TRANCE PRESENTS R25 SPEED Anime Trance BEST 2.flac" - FLAC - 1147kbps 44100Hz stereo
EXIT TRANCE PRESENTS 学校トランス
EXIT TRANCE PRESENTS School Trance
--- Album: "EXIT TRANCE PRESENTS 学校トランス"; Genre: Trance; ## of Tracks: 1301. 3月9日 (3:12) // Cubby-S02. 旅立ちの日に (4:05) // DJ KYO-TO03. マイバラード (4:11) // Black Man04. 遠い日の歌 (3:07) // Cubby-S05. カリブ夢の旅 (3:33) // S.J.N06. believe (3:51) // DJ NIT-CHOCK07. グリーングリーン (3:50) // S.J.N08. ドナドナ (3:47) // DJ KYO-TO09. もみじ (3:05) // Alex Contact10. モルダウ (3:12) // Cubby-S11. Let's search for Tomorrow (3:31) // DJ kyon-C12. HALLO (OLE VAN DANSK REMIX) (4:44) // BEAMISH13. tomorrow (5:15) // Digital Stone--- Info: "EXIT TRANCE PRESENTS School Trance.flac" - FLAC - 1150kbps 44100Hz stereo
EXIT TRANCE PRESENTS 学校トランス 2時限目
EXIT TRANCE PRESENTS School Trance 2nd Pair
--- Album: "EXIT TRANCE PRESENTS 学校トランス 2時限目"; Genre: Trance; ## of Tracks: 1801. 翼をください 3:46 // MAKI02. 心の瞳 4:45 // EXIT学園合唱部03. さわやか3組テーマ 2:39 // MAKI04. 気球にのってどこまでも 3:12 // KEY TACK BOO05. アマリリス 2:32 // MAKI06. クシコス・ポスト 3:09 // KEY TACK BOO07. 聖者の行進 3:44 // MEMORIES08. 怪獣のバラード 3:04 // DJ NIT-CHOCK09. 時の旅人 3:18 // EXIT学園合唱部10. あの素晴しい愛をもう一度 3:27 // MAKI11. 夢の世界を 4:00 // EXIT学園合唱部12. 花 3:50 // KEY TACK BOO13. 手のひらを太陽に 4:30 // MAKI14. コンドルは飛んで行く 3:10 // DJ NIT-CHOCK15. すいかの名産地 3:27 // P.T.A16. 燃えろよ燃えろ 2:30 // MEMORIES17. 太陽がくれた季節 3:18 // DJ NIT-CHOCK18. COSMOS 4:43 // EXIT学園合唱部--- Info: "EXIT TRANCE PRESENTS School Trance 2nd Pair.flac" - FLAC - 1124kbps - 44100Hz stereo
EXIT TRANCE PRESENTS CODE SPEED アニメトランス BEST
EXIT TRANCE PRESENTS CODE SPEED Anime Trance BEST
--- Album: "EXIT TRANCE PRESENTS CODE SPEED アニメトランス BEST"; Genre: Trance; ## of Tracks: 2001. もってけ!セーラーふく (3:57) // KNEE SOCKS02. ハレ晴レユカイ (3:46) // Ma1503. 創聖のアクエリオン (4:05) // chum04. God Knows… (3:50) // KEIKO05. Butter-fly (4:20) // NINE06. 緋色の空 (4:02) // chum607. 晴れてハレルヤ (2:53) // KEIKO08. ETERNAL BLAZE (4:07) // chum09. 夢想歌 (3:13) // chum10. ゆずれない願い (2:46) // YURiE11. Re-Sublimity (4:07) // chum12. ひぐらしのなく頃に (2:58) // chum13. 最強○×計画 (4:05) // Ma1514. DANZEN!ふたりはプリキュア (3:05) // YURiE15. 宇宙で恋は☆るるんルーン (3:48) // Ma1516. プラチナ (3:53) // chum17. Feeling Heart (2:47) // KEIKO18. 聖少女領域 (3:08) // KONEKO PROJECT19. 真赤な誓い (3:37) // NINE20. アンインストール (4:47) // YURiE--- Info: "EXIT TRANCE PRESENTS CODE SPEED Anime Trance BEST.flac" - FLAC - 1191kbps 44100Hz stereo
EXIT TRANCE PRESENTS SPEED アニメトランス BEST 2
EXIT TRANCE PRESENTS SPEED Anime Trance BEST 2
--- Album: "EXIT TRANCE PRESENTS SPEED アニメトランス BEST 2"; Genre: Trance; ## of Tracks: 2001. Genesis of Aquarion (3:48) // Florence02. クリティウスの牙 (4:22) // 社長03. 雪、無音、窓辺にて。 (4:48) // KANA04. 奈落の花 (3:53) // YURiE05. nowhere (3:52) // MAKI06. First Kiss (4:49) // YURiE07. ヘミソフィア (3:25) // MAKI08. Wind Climbing~風に遊ばれて~ (3:11) // MAKI09. らき☆すたBGM (3:49) // BLACK MAN10. 人として軸がぶれている (3:48) // NINE + MA1511. 恋のミクル伝説 (3:50) // MA1512. 黄色いバカンス (3:55) // MA1513. 友情物語 (4:23) // MA1514. 勇侠青春謳 (4:15) // KONEKO PROJECT15. 嵐の中で輝いて (3:53) // KANA16. Tank! (3:17) // Bucket Stheet17. Give A Reason (3:29) // MAKI18. agape (3:54) // MAKI + KANA19. Silly-Go-Round (4:37) // Mirin20. komm,susser Tod~甘き死よ、来たれ (4:27) // MAKI--- Info: "EXIT TRANCE PRESENTS SPEED Anime Trance BEST 2.flac" - FLAC - 1124kbps 44100Hz stereo
EXIT TRANCE PRESENTS SPEED アニメトランス BEST 3
EXIT TRANCE PRESENTS SPEED Anime Trance BEST 3
--- Album: "EXIT TRANCE PRESENTS SPEED アニメトランス BEST 3"; Genre: Trance; ## of Tracks: 2001. Go Tight! (4:18) // MAKI02. 経験値上昇中☆ (4:11) // NANO03. JOINT (3:49) // MAKI04. Red fraction (4:20) // Florence05. 魂のルフラン (4:58) // YURiE06. 謎 (3:39) // MAKI07. ドラマチック (4:17) // NINE08. STAR RISE (3:38) // MAKI09. innocent starter (4:28) // KANA10. 七転八起☆至上主義! (4:48) // YURiE11. 空色デイズ (3:19) // PIROCO12. Virgin's high! (3:43) // YURiE13. Reckless Fire (3:55) // YUKI14. Shangri-La (3:43) // YURiE15. 1000%SPARKING! (4:01) // NANO16. おジャ魔女カーニバル!! (3:03) // Ma1517. バラライカ (2:39) // Technic18. 童話迷宮 (4:03) // PIROCO19. ハッピー☆マテリアル (3:33) // Ma1520. tune the rainbow (4:59) // MAKI--- Info: "EXIT TRANCE PRESENTS SPEED Anime Trance BEST 3.flac" - FLAC - 1157kbps 44100Hz stereo
EXIT TRANCE PRESENTS SPEED アニメトランス BEST 4
EXIT TRANCE PRESENTS SPEED Anime Trance BEST 4
--- Album: "EXIT TRANCE PRESENTS SPEED アニメトランス BEST 4"; Genre: Trance; ## of Tracks: 2001. トライアングラー (4:39) // MAKI02. Romantic summer (3:29) // Ma1503. 射手座☆午後九時Don't be late (4:29) // MAKI04. 甲賀忍法帖 (3:41) // KANA05. I SAY YES (3:28) // YURiE06. O2~オー・ツー~ (3:47) // NINE07. 片翼のイカロス (3:48) // Ma1508. Dancing in the velvet moon (4:17) // KANA09. 暁の車 (3:43) // CAMRY10. why, or why not (4:05) // YURiE11. SECRET AMBITION (3:58) // KANA12. YOU (3:27) // CAMRY13. Shooting Star (3:53) // MAKI14. clover (4:31) // CAMRY15. dis- (4:29) // MAKI16. 亡國覚醒カタルシス (3:09) // KONEKO PROJECT17. 明日へのbrilliant road (4:23) // YURiE18. 撲殺天使ドクロちゃん (3:31) // Ma1519. いちごコンプリート (3:36) // Ma15+MAKI20. ユーフォリア (4:41) // CAMRY--- Info: "EXIT TRANCE PRESENTS SPEED Anime Trance BEST 4.flac" - FLAC - 1118kbps 44100Hz stereo
EXIT TRANCE PRESENTS SPEED アニメトランス BEST 5
EXIT TRANCE PRESENTS SPEED Anime Trance BEST 5
--- Album: "EXIT TRANCE PRESENTS SPEED アニメトランス BEST5"; Genre: Trance; ## of Tracks: 2001. ライオン/ マクロス FRONTIER OP (4:30) // B.U.S feat.MAKI02. DISCOTHEQUE/ロザリオとバンパイア (3:34) // Acid=Stone Valley feat. Ma1503. セキレイ/セキレイ (3:41) // MK feat. MAKI + YURiE + Ma15 + KANA04. MASSIVE WONDERS/魔法少女リリカルなのは StrikerS (3:09) // Icon feat. KANA05. 冒険でしょでしょ?/涼宮ハルヒの憂鬱 (4:51) // 源屋 feat. NANO06. Over the Future/ 絶対可憐チルドレン (4:16) // DJ Sa9 feat. MAKI07. STRIKE WITCHES~わたしにできること/ ストライクウィッチーズ (4:29) // Icon feat. CAMRY08. .YOU'RE THE ONE/ゼロの使い魔~三美姫の輪舞~ (3:59) // DJ Sa9 feat. たまゆら09. オレンジ/BLEACH (4:28) // Ryu* feat. YURiE10. 恋せよ女の子/極上生徒会 (4:24) // MK feat. Ma1511. 続く世界/劇場版 天元突破グレンラガン (3:53) // N.O.-SYO feat. YURiE12. ひとさしゆびクワイエット!/乃木坂春香の秘密 (4:34) // Hommarju feat. Ma15 + MAKI13. forever we can make it!/ToLOVEる (3:50) // DJ Sa9 feat. YURiE14. Tears Infection/Myself Yourself (3:59) // Ryu* feat. CAMRY15. きらめく涙は星に/Fate/stay night (3:52) // Acid=Stone Valley feat. たまゆら16. Forフルーツバスケット/フルーツバスケット (3:40) // MK feat. CAMRY17. -輪舞-revolution/少女革命ウテナ (3:51) // Acid=Stone Valley feat. KANA18. 君は僕に似ている/機動戦士ガンダムSEED DESTINY (3:19) // Dizzi Mystica feat. たまゆら19. Crystal Energy/舞-乙HiME (3:28) // N.O.-SYO feat. KANA20. ノーザンクロス/マクロス FRONTIER ED (3:50) // B.U.S feat. MAKI--- Info: "EXIT TRANCE PRESENTS SPEED Anime Trance BEST 5.flac" - FLAC - 1112kbps 44100Hz stereo

<div class="sp-wrap">
<div class="sp-head folded">Лог EAC</div>
<div class="sp-body">

EAC 展開 ログファイル 日付: 21. 11月 2008, 12:31 for CDEXIT TUNES / EXIT TRANCE PRESENTS SPEED アニメトランス BEST5

使用ドライブ : HL-DT-STDVDRAM GSA-4163B Adapter: 4 ID: 0読み込みモード : セキュア(C2 : YES / 正確なデータ転送力 : YES / キャッシュ無効 : NO)読み込みオフセット訂正値 : 637リードインとリードアウトをオーバーリードする : Yes

使用出力フォーマット : D:\Program Files\Monkey's Audio\MAC.exe (Monkey's Audio Lossless Encoder) Fast Lossless Compression

その他のオプション : 消失したオフセットサンプルを無音に置き換える : Yes 曲の先頭と末尾の無音部を削除する : No 標準 Win32 の Win NT & 2000 用

展開範囲ステータスとエラー選択された範囲 ファイル名 F:\[EAC][081119][アルバム] EXIT TRANCE PRESENTS SPEED アニメ トランス BEST 5 (ape+cue+jpg+rr3%)\EXIT TUNES - EXIT TRANCE PRESENTS SPEED アニメトランス BEST5.wav

疑わしい位置 1:19:37

ピークレベル 99.0 % 選択範囲品質 99.9 % CRC D62F0120 コピー完了

エラーがありました

ステータスの報告終了
</div>
</div>
EXIT TRANCE PRESENTS SPEED アニメトランス BEST 6
EXIT TRANCE PRESENTS SPEED Anime Trance BEST 6
--- Album: "EXIT TRANCE PRESENTS SPEED アニメトランス BEST 6"; Genre: Trance ; ## of Tracks: 2001. motto☆派手にね! (4:08) // DJ Sa9 feat.CAMRY02. プレパレード (3:23) // MAKI+Ma1503. resonance (3:39) // Acid=Stone Valley feat.YUKI04. 雨が降る (4:11) // MK Feat. MAKI05. Beautiful fighter (3:45) // YURiE06. MY WINGS (4:15) // DJ Sa9 Feat. MAKI07. PSI-missing (3:16) // Icon feat.Latte08. Pray (4:12) // Acid=Stone Valley Feat. KANA09. Lilium (2:17) // judas feat.cherry10. バニラソルト (4:58) // MK Feat. MAKI11. Catch You Catch Me (3:09) // Starving Trancer Feat. CAMRY12. 約束の場所へ (4:03) // Dizzi Mystica feat.KANA13. ニンジーン loves you yeah! (2:21) // B.U.S Feat. MAKI14. CANDY☆POP☆SWEET☆HEART (3:56) // DJ Sa9 feat.CAMRY15. 乙女はDO MY BESTでしょ? (3:01) // Icon Feat. Ma1516. ハヤテのごとく! (3:57) // Hommarju Feat. MAKI17. WORLD END (3:41) // B.U.S feat.TAKANORI+YUKI18. 焔の扉 (4:31) // Ryu* Feat. YURiE19. 宇宙に咲く (3:54) // Acid=Stone Valley Feat. YURiE20. 儚くも永久のカナシ (4:20) // Hommarju feat. NON--- Info: "EXIT TRANCE PRESENTS SPEED Anime Trance BEST 6.flac" - FLAC - 1150kbps 44100Hz stereo

<div class="sp-wrap">
<div class="sp-head folded">Лог EAC</div>
<div class="sp-body">

Exact Audio Copy V0.99 prebeta 4 from 23. January 2008

EAC extraction logfile from 20. March 2009, 13:47

Various / EXIT TRANCE PRESENTS SPEED アニメ トランス BEST 6

Used drive : DVDRW IDE 16X Adapter: 3 ID: 0

Read mode : SecureUtilize accurate stream : YesDefeat audio cache : NoMake use of C2 pointers : No

Combined read/write offset correction : 0Overread into Lead-In and Lead-Out : NoFill up missing offset samples with silence : YesDelete leading and trailing silent blocks : NoNull samples used in CRC calculations : NoUsed interface : Native Win32 interface for Win NT & 2000

Used output format : User Defined EncoderSelected bitrate : 768 kBit/sQuality : HighAdd ID3 tag : NoCommand line compressor : C:\Program Files\Exact Audio Copy\FLAC\FLAC.EXEAdditional command line options : -T "artist=%a" -T "title=%t" -T "album=%g" -T "date=%y" -T "tracknumber=%n" -T "genre=%m" -5 %s

TOC of the extracted CD

Track | Start | Length | Start sector | End sector --------------------------------------------------------- 1 | 0:00.00 | 4:08.18 | 0 | 18617 2 | 4:08.18 | 3:22.49 | 18618 | 33816 3 | 7:30.67 | 3:38.50 | 33817 | 50216 4 | 11:09.42 | 4:10.42 | 50217 | 69008 5 | 15:20.09 | 3:44.52 | 69009 | 85860 6 | 19:04.61 | 4:15.31 | 85861 | 105016 7 | 23:20.17 | 3:15.47 | 105017 | 119688 8 | 26:35.64 | 4:11.58 | 119689 | 138571 9 | 30:47.47 | 2:16.58 | 138572 | 148829 10 | 33:04.30 | 4:57.53 | 148830 | 171157 11 | 38:02.08 | 3:08.71 | 171158 | 185328 12 | 41:11.04 | 4:02.51 | 185329 | 203529 13 | 45:13.55 | 2:21.25 | 203530 | 214129 14 | 47:35.05 | 3:55.73 | 214130 | 231827 15 | 51:31.03 | 3:01.27 | 231828 | 245429 16 | 54:32.30 | 3:57.25 | 245430 | 263229 17 | 58:29.55 | 3:41.05 | 263230 | 279809 18 | 62:10.60 | 4:31.15 | 279810 | 300149 19 | 66:42.00 | 3:54.00 | 300150 | 317699 20 | 70:36.00 | 4:20.30 | 317700 | 337229

Range status and errors

Selected range (Sectors 0-337229)

Filename C:\Documents and Settings\Kain Blueriver\Desktop\EXIT TRANCE PRESENTS SPEED アニメ トランス BEST 6.wav

Peak level 98.8 % Range quality 100.0 % Copy CRC 56B43E7A Copy OK

No errors occurred

End of status report
</div>
</div>
EXIT TRANCE PRESENTS SPEED アニメトランス BEST 7
EXIT TRANCE PRESENTS SPEED Anime Trance BEST 7
--- Album: "EXIT TRANCE PRESENTS SPEED アニメトランス BEST 7"; Genre: Trance; ## of Tracks: 2001. Cagayake!GIRLS 4:32 // Helvetia(DJ Sa9+Hommarju) feat.CAMRY02. キミシニタモウコトナカレ 4:03 // MK feat.R.Cena03. Wonder Wind 3:57 // Hommarju feat. YURiE04. 経験値速上々↑↑ 4:21 // DJ Sa9 feat. MAKI05. Spiral 3:44 // MK feat. YURiE06. SHUT UP AND EXPLODE 4:05 // B.U.S feat.YUKI07. RIDEBACK 3:47 // Icon feat. Latte08. silky heart 3:50 // MK feat. MAKI09. Prototype 4:33 // Icon feat. PECO10. What 'bout my star? 4:22 // B.U.S feat. MAKI + R.Cena11. 天使のゆびきり 4:17 // Dizzi Mystica feat. YAH12. プリズム 3:32 // Starving trancer feat. R.Cena13. being 3:36 // DJ Sa9 vs. Judas feat. PECO14. masterpiece 3:53 // Hommarju feat. Latte15. 笑顔の理由 3:35 // CAMRY16. HANAJI 3:49 // Hommarju feat. MAKI17. ?でわっしょい 3:23 // Ryu* feat. MAKI + Ma15 + CAMRY18. JAP 4:14 // Acid=Stone Valley feat. YUKI19. Don't say 'lazy' 3:57 // Helvetia (DJ Sa9 + Hommarju) feat. Latte20. ずっとみつめていて (Ryu* Remix) 3:31 // DJ UTO vs. Starving Trancer feat. 森永真由美--- Info: "EXIT TRANCE PRESENTS SPEED Anime Trance BEST 7.flac" - FLAC - 1178kbps - 44100Hz stereo
EXIT TRANCE PRESENTS SPEED アニメトランス BEST エクスタシー
EXIT TRANCE PRESENTS SPEED Anime Trance BEST Ecstasy
--- Album: "EXIT TRANCE PRESENTS SPEED アニメトランス BEST エクスタシー"; Genre: ; ## of Tracks: 2001. 同じ空の下で (家族計画より) (3:22) // Judas feat. MAKI02. 悠久の翼 (ef - the first tale.より) (4:17) // Acid=Stone Valley vs. DJ Sa9 feat. misaki03. Fragment ~Shooting star of the origin~ (水夏A.S+ Eternal Nameオープニングテーマ) (3:37) // Starving Trancer feat. CAMRY04. Feeling Heart (テーマ ∕ To Heart) (4:22) // MK feat. Nanaki05. コンプレックス・イマージュ (オープニング ∕ ひぐらしのなく頃に祭「澪尽くし編」) (3:59) // Starving Trancer feat. xue06. Still I love you ~みつめるよりは幸せ~ (School Days-スクールデイズ-より) (3:51) // Dizzi Mystica feat. CAMRY07. 運命 -SADAME- (4:32) // B.U.S feat. Nanaki08. ディアノイア (3:48) // Starving Trancer feat. CAMRY09. I Bless Thy Life (天使ノ二挺拳銃Angelos Armasより) (3:10) // B.U.S feat. xue10. HOLY WORLD (機神咆吼デモンベインより) (3:19) // Acid=Stone Valley feat. NINE11. 君に続く軌跡 (3:25) // MK feat. Nanaki12. You make my day! (処女はお姉さまに恋してるより) (3:31) // Starving Trancer feat. CAMRY13. 沙耶の唄 (3:49) // Judas feat. b14. 悲しみの向こうへ (School Days-スクールデイズ-より) (3:15) // Acid=Stone Valley feat. MAKI15. philosophy (エンディング ∕ 家族計画~絆の響~) (3:30) // Icon feat. misaki16. 凛花 (オープニング ∕ らいむいろ戦奇譚) (3:33) // Acid=Stone Valley feat. Ma1517. スマイル0円 (オープニング ∕ PiaキャロットへようこそG.O.) (3:06) // Ryu feat. Ma1518. Lunatic Tears… (オープニング ∕ 11eyes-罪と罰と贖いの少女-) (4:42) // DJ Sa9 feat. xue19. Find the blue (オープニング ∕ CHAOS;HEAD) (4:25) // Hommarju feat. xue20. 永遠の存在者 (4:07) // DJ Sa9 feat. SHUN--- Info: "EXIT TRANCE PRESENTS SPEED Anime Trance BEST Ecstasy.flac" - FLAC - 1146kbps 44100Hz stereo
EXIT TRANCE PRESENTS SPEED アニメトランスBEST エクスタシーSecond Season
EXIT TRANCE PRESENTS SPEED Anime Trance BEST Ecstasy Second Season
--- Album: "EXIT TRANCE PRESENTS SPEED アニメトランスBEST エクスタシーSecond Season"; Genre: ?; ## of Tracks: 2001. 深愛 4:47 // DJ Sa9 feat.KANA02. 夢想歌 4:28 // Starving Trancer Feat.Latte03. YOU 3:53 // SHO-YA feat.CAMRY04. Hello 4:02 // Starving Trancer feat.R.Cena05. SHINING STARS BLESS☆ 3:45 // Icon feat.MAKI06. 前奏曲(プレリュード) - We are not alone 2:59 // Acid=Stone Valley Feat.Nahoko07. マジカルちょーだいっ 3:58 // Dizzi Mystica feat.Ma1508. 大好きだよ (Into Your Heart) 3:46 // Acid=Stone Valley feat.Latte09. プラスチックスマイル 4:07 // Dizzi Mystica feat.CAMRY10. Fly 3:40 // B.U.S Feat.Cena11. トモシビ 3:57 // Ryu* Feat.Latte12. amulet 3:54 // Dizzi Mystica feat.Ma1513. 舞い落ちる雪のように 3:54 // Hommarju eat.Latte14. AGAIN 4:57 // Acid=Stone Valley Feat.Ma1515. 素直になれない 3:08 // MK feat.Ma1516. ぽぽたん畑でつかまえて 3:15 // Acid=Stone Valley feat.MAKI17. 跪くまで5秒だけ! 4:05 // Icon feat.Ma1518. LOVE POWER 4:05 // Cubby-S feat.MAKI+Ma1519. 片翼のイカロス 4:09 // Acid=Stone Valley Feat.Ma1520. きらめく涙は星に 3:46 // Acid=Stone Valley feay.たまゆら--- Info: "EXIT TRANCE PRESENTS SPEED Anime Trance BEST Ecstasy Second Season.flac" - FLAC - 1131kbps - 44100Hz stereo
EXIT TRANCE PRESENTS SPEED アニメトランス BEST THE MOVIE
EXIT TRANCE PRESENTS SPEED Anime Trance BEST THE MOVIE
--- Album: "EXIT TRANCE PRESENTS SPEED アニメトランス BEST THE MOVIE"; Genre: Trance; ## of Tracks: 2001. beautiful world 3:47 // B.U.S feat. YURiE02. 天壌を翔る者たち 3:58 // MK feat. MAKI + YURiE + Lattedv03. oblivious 4:50 // DJ Sa9 vs. Hommarju feat. YURiE04. THANATOS-IF I CAN'T BE YOURS- 4:41 // Dizzi Mystica feat. mamiko05. 今夜も星に抱かれて… 3:58 // Icon feat. MAKI06. 約束 3:56 // Starving Trancer feat. PECO07. 少年期 2:09 // SHO-YA feat. NINE08. だんごだんごだんご 2:30 // Dizzi Mystica feat. MAKI09. 君が光に変えて行く 4:45 // Starving Trancer feat. YURiE10. マルメロ~FILDYCHROM~ 3:43 // B.U.S feat. CAMRY11. LAST IMPRESSION 4:48 // Starving Trancer feat. puchi12. sprinter 4:17 // Acid=Stone Valley feat. YURiE13. バトルフロンティア 3:23 // Cubby-S feat. puchi14. tune the rainbow 4:55 // Hommarju feat. MAKI15. 或る街の群青 2:49 // Acid=Stone Valley feat. SHUN16. 愛・おぼえていますか 3:36 // Cubby-S feat. MAKI17. 赤い涙 4:16 // Hommarju feat. Latte18. 続く世界 3:39 // B.U.S feat. YURiE19. ETERNAL WIND 4:47 // Icon feat. MAKI20. 風といっしょに 4:35 // Ryu* feat. salamander GOTOH--- Info: "EXIT TRANCE PRESENTS SPEED Anime Trance BEST THE MOVIE.flac" - FLAC - 1136kbps - 44100Hz stereo
EXIT TRANCE PRESENTS THE VERY BEST OF デッドボールP loves 初音ミク
EXIT TRANCE PRESENTS THE VERY BEST OF Dead Ball P loves Hatsune Miku
--- Album: "EXIT TRANCE PRESENTS THE VERY BEST OF デッドボールP loves 初音ミク"; Genre: ?; ## of Tracks: 1601. 私は人間じゃないから。 4:33 // デッドボールP loves 初音ミク02. 曾根崎心中 4:53 // デッドボールP loves 初音ミク + 鏡音リン03. 既成事実 5:38 // デッドボールP loves 初音ミク04. 牛乳飲め! 3:57 // デッドボールP loves 初音ミク05. 木枯らしの朝 4:13 // デッドボールP loves 初音ミク06. Japanese Ninja No.1 3:26 // デッドボールP loves 巡音ルカ07. シュークリームのうた 4:40 // デッドボールP loves 初音ミク08. 椿の花 4:18 // デッドボールP loves 初音ミク09. 続・既成事実 4:03 // デッドボールP loves 初音ミク10. Wash My Blood 4:32 // デッドボールP loves 巡音ルカ11. いつしか、必ず。 4:05 // デッドボールP loves 初音ミク + 鏡音リン12. 1LDK 4:00 // デッドボールP loves 初音ミク + 鏡音リン13. マンドラゴラ 5:23 // デッドボールP loves 初音ミク14. 金の聖夜霜雪に朽ちて 4:03 // デッドボールP loves 初音ミク15. 真・既成事実 4:10 // デッドボールP loves 初音ミク16. 永久に続く五線譜 4:01 // デッドボールP loves 初音ミク--- Info: "EXIT TRANCE PRESENTS THE VERY BEST OF Dead Ball P loves Hatsune Miku.flac" - FLAC - 1057kbps - 44100Hz stereo
EXIT TRANCE PRESENTS 特撮トランス
EXIT TRANCE PRESENTS Tokusatsu Trance
--- Album: "EXIT TRANCE PRESENTS 特撮トランス"; Genre: Trance ; ## of Tracks: 2001. DOUBLE-ACTION (3:37) // Ryu* Feat. NON+SHUN02. 仮面ライダーAGITO (3:06) // Judas Feat. YUKI03. 科学戦隊ダイナマン (3:59) // Starving Trancer Feat. xue04. シークレットカクレンジャー (2:54) // Icon Feat. NINE05. がんばれロボコン (3:33) // MK Feat. xue06. 駆けろ! スパイダーマン (3:33) // Icon Feat. YUKI07. ウルトラマンの歌 (3:07) // Judas Feat. MAKI08. 特捜ロボジャンパーソン (3:09) // Icon Feat. NON09. 星獣戦隊ギンガマン (3:04) // Acid=Stone Valley Feat. PRINCE10. ゴジラ・タイトル (4:11) // Hommarju11. 魔法戦隊マジレンジャー (4:14) // Dizzi Mystica Feat. YUKI12. 宇宙刑事ギャバン (3:30) // Icon Feat. SHUN13. 恐竜戦隊ジュウレンジャー (4:00) // MK Feat. NINE14. 特捜エクシードラフト (3:26) // Acid=Stone Valley Feat. PRINCE15. ガオレンジャー吼えろ!! (3:54) // Icon Feat. TEACHER16. KNIGHT RIDER (BANGBROS REMIX) (4:20) // TV Junkeez17. MAIN THEME/STAR TREK (2:22) // MK18. X-TERMINATE (CLASSIX MIX) (3:20) // Ziggy X19. ギャラクティカスリリング (3:23) // B.U.S Feat. YURiE20. THUNDERBIRDS/THE TV SERIES THUNDERBIRDS (1:53) // SHO-YA Feat. YUKI+MAKI--- Info: "EXIT TRANCE PRESENTS Tokusatsu Trance.flac" - FLAC - 1140kbps 44100Hz stereo

<div class="sp-wrap">
<div class="sp-head folded">Лог EAC</div>
<div class="sp-body">

Exact Audio Copy V0.99 prebeta 4 from 23. January 2008

EAC extraction logfile from 21. March 2009, 16:02

Various / EXIT TRANCE PRESENTS 特撮トランス

Used drive : HIBSXMR 5Q7STERS1QRS Adapter: 1 ID: 0

Read mode : SecureUtilize accurate stream : YesDefeat audio cache : YesMake use of C2 pointers : No

Combined read/write offset correction : 0Overread into Lead-In and Lead-Out : NoFill up missing offset samples with silence : YesDelete leading and trailing silent blocks : NoNull samples used in CRC calculations : NoUsed interface : Native Win32 interface for Win NT & 2000

Used output format : User Defined EncoderSelected bitrate : 768 kBit/sQuality : HighAdd ID3 tag : NoCommand line compressor : C:\Program Files\Exact Audio Copy\FLAC\FLAC.EXEAdditional command line options : -T "artist=%a" -T "title=%t" -T "album=%g" -T "date=%y" -T "tracknumber=%n" -T "genre=%m" -5 %s

TOC of the extracted CD

Track | Start | Length | Start sector | End sector --------------------------------------------------------- 1 | 0:00.00 | 3:37.06 | 0 | 16280 2 | 3:37.06 | 3:06.04 | 16281 | 30234 3 | 6:43.10 | 3:58.38 | 30235 | 48122 4 | 10:41.48 | 2:53.60 | 48123 | 61157 5 | 13:35.33 | 3:33.10 | 61158 | 77142 6 | 17:08.43 | 3:33.29 | 77143 | 93146 7 | 20:41.72 | 3:06.42 | 93147 | 107138 8 | 23:48.39 | 3:09.32 | 107139 | 121345 9 | 26:57.71 | 3:04.02 | 121346 | 135147 10 | 30:01.73 | 4:10.50 | 135148 | 153947 11 | 34:12.48 | 4:13.38 | 153948 | 172960 12 | 38:26.11 | 3:29.74 | 172961 | 188709 13 | 41:56.10 | 3:59.73 | 188710 | 206707 14 | 45:56.08 | 3:25.41 | 206708 | 222123 15 | 49:21.49 | 3:53.73 | 222124 | 239671 16 | 53:15.47 | 4:20.00 | 239672 | 259171 17 | 57:35.47 | 2:21.51 | 259172 | 269797 18 | 59:57.23 | 3:20.00 | 269798 | 284797 19 | 63:17.23 | 3:23.25 | 284798 | 300047 20 | 66:40.48 | 1:53.25 | 300048 | 308547

Range status and errors

Selected range (Sectors 0-308547)

Filename C:\Documents and Settings\Kain Blueriver\Desktop\EXIT TRANCE PRESENTS 特撮トランス.wav

Peak level 96.5 % Range quality 99.9 % Copy CRC 7AF059A8 Copy OK

No errors occurred

End of status report
</div>
</div>
EXIT TRANCE PRESENTS 特撮トランス 弐号機
EXIT TRANCE PRESENTS Tokusatsu Trance 2
--- Album: "EXIT TRANCE PRESENTS 特撮トランス 弐号機"; Genre: Trance; ## of Tracks: 2001. 炎神戦隊ゴーオンジャー 3:34 // Ryu* feat. TAKANORI02. Climax Jump DEN-LINER form 4:19 // Icon feat. TAKANORI + potei + hideki + raita03. 風よ光よ 2:19 // Masoppu feat. Bavil04. ウルトラセブンのうた 2:51 // B.U.S feat. TAKANORI + PRIM05. TRUE DREAM 3:25 // Acid=Stone Valley feat. hideki06. 怪獣大戦争マーチ 3:02 // Hommarju07. ゴーゴー・キカイダー 3:12 // B.U.S feat. Bavil08. 重甲ビーファイター 3:15 // Acid=Stone Valley feat. hideki09. 仮面ライダークウガ! 4:37 // MK feat. zaki10. 進め!ゴレンジャー 4:21 // Starving Trancer feat. TAKANORI11. レッツゴー!!ライダーキック 2:10 // Acid=Stone Valley feat. Black Rabbit12. レッドマン 3:13 // MK feat. Bavil13. 戦え!仮面ライダーV3 3:28 // Starving Trancer feat. Black Rabbit14. ウルトラQ主題曲 2:35 // B.U.S15. マグマ大使 3:22 // Hommarju feat. NINE + PRIM16. 忍者マーチ 3:15 // Starving Trancer feat. PRIM17. 帰ってきたウルトラマン 2:45 // Starving Trancer feat. TAKANORI + PRIM18. ミラーマンの歌 3:18 // Hommarju feat. TAKANORI19. G3プリンセス ラップ ~PRETTY LOVE☆Limited~ 2:37 // Dizzi Mystica feat. 40520. Spirit 3:33 // Dizzi Mystica feat. hideki--- Info: "EXIT TRANCE PRESENTS Tokusatsu Trance 2.flac" - FLAC - 1130kbps - 44100Hz stereo

<div class="sp-wrap">
<div class="sp-head folded">Лог EAC</div>
<div class="sp-body">

Exact Audio Copy V0.99 prebeta 4 from 23. January 2008

EAC extraction logfile from 5. May 2009, 3:37

Various / EXIT TRANCE PRESENTS 特撮トランス 弐号機

Used drive : HL-DT-STDVDRAM GSA-H10N Adapter: 1 ID: 0

Read mode : SecureUtilize accurate stream : YesDefeat audio cache : NoMake use of C2 pointers : No

Combined read/write offset correction : 0Overread into Lead-In and Lead-Out : NoFill up missing offset samples with silence : YesDelete leading and trailing silent blocks : NoNull samples used in CRC calculations : NoUsed interface : Native Win32 interface for Win NT & 2000

Used output format : User Defined EncoderSelected bitrate : 768 kBit/sQuality : HighAdd ID3 tag : NoCommand line compressor : C:\Program Files (x86)\Exact Audio Copy\FLAC\FLAC.EXEAdditional command line options : -6 -V -T "ARTIST=%a" -T "TITLE=%t" -T "ALBUM=%g" -T "DATE=%y" -T "TRACKNUMBER=%n" -T "GENRE=%m" -T "COMMENT=%e" %s -o %d

TOC of the extracted CD

Track | Start | Length | Start sector | End sector --------------------------------------------------------- 1 | 0:00.00 | 3:34.18 | 0 | 16067 2 | 3:34.18 | 4:18.54 | 16068 | 35471 3 | 7:52.72 | 2:18.49 | 35472 | 45870 4 | 10:11.46 | 2:50.53 | 45871 | 58673 5 | 13:02.24 | 3:25.25 | 58674 | 74073 6 | 16:27.49 | 3:01.38 | 74074 | 87686 7 | 19:29.12 | 3:12.03 | 87687 | 102089 8 | 22:41.15 | 3:15.22 | 102090 | 116736 9 | 25:56.37 | 4:36.47 | 116737 | 137483 10 | 30:33.09 | 4:20.55 | 137484 | 157038 11 | 34:53.64 | 2:10.09 | 157039 | 166797 12 | 37:03.73 | 3:13.22 | 166798 | 181294 13 | 40:17.20 | 3:28.26 | 181295 | 196920 14 | 43:45.46 | 2:35.03 | 196921 | 208548 15 | 46:20.49 | 3:21.49 | 208549 | 223672 16 | 49:42.23 | 3:15.01 | 223673 | 238298 17 | 52:57.24 | 2:45.00 | 238299 | 250673 18 | 55:42.24 | 3:18.25 | 250674 | 265548 19 | 59:00.49 | 2:36.50 | 265549 | 277298 20 | 61:37.24 | 3:33.25 | 277299 | 293298

Range status and errors

Selected range (Sectors 0-293298)

Filename C:\Users\Nakahito Kagura\Desktop\EXIT TRANCE PRESENTS 特撮トランス 弐号機.wav

Peak level 96.0 % Range quality 100.0 % Copy CRC 0D5D1EE2 Copy OK

No errors occurred

End of status report
</div>
</div>
EXIT TRANCE PRESENTS TranceMaster 03
EXIT TRANCE PRESENTS TranceMaster 03
--- Album: "EXIT TRANCE PRESENTS TranceMaster 03"; Genre: Trance; ## of Tracks: 1801. SW 4:22 // Starving Trancer feat. MAYUMI MORINAGA02. ING 4:02 // Ryu*03. JUST A MAN IN LOVE 4:02 // DJ KAYA04. Trance Mission (OVERHEAD CHAMPION REMIX) 3:48 // Ben Reynolds05. Skydive 3:50 // DJ SHO-YA06. SPARKLING FUTURE 3:22 // MK07. Prophecy 4:55 // Acid=Stone Valley08. Scarlet Haze (Original Instrumental Mix) 3:58 // DJ Sa909. SHOCK WAVE 4:48 // MK10. Flip Slide 4:58 // Sinon11. ALCOHOL 4:58 // DELACTION12. MMK 4:51 // DJ UTO13. Funk You!! 3:32 // Dizzi Mystica14. efectribE+ 4:08 // Icon15. FOREVER (N.O.-SYO Trance Master RMX) 5:00 // N.O.-SYO16. Lloyd 4:51 // Hommarju17. Crush on this groove 4:18 // B.U.S18. STORY 4:08 // DJ YOSHINORI--- Info: "EXIT TRANCE PRESENTS TranceMaster 03.flac" - FLAC - 1124kbps - 44100Hz stereo

<div class="sp-wrap">
<div class="sp-head folded">Лог EAC</div>
<div class="sp-body">

EAC 展開 ログファイル 日付: 20. 4月 2009, 20:16 for CDVarious / EXIT TRANCE PRESENTS TranceMaster 03

使用ドライブ : HL-DT-STDVDRAM GH22NS40 Adapter: 4 ID: 0読み込みモード : セキュア(C2 : YES / 正確なデータ転送力 : YES / キャッシュ無効 : NO)読み込みオフセット訂正値 : 52リードインとリードアウトをオーバーリードする : No

使用出力フォーマット : C:\Program Files\flacencode\bin\Takc.exe (ユーザー定義 エンコーダー) 320 kBit/s 追加コマンドラインオプション : -e -p2 -v %s %d

その他のオプション : 消失したオフセットサンプルを無音に置き換える : Yes 曲の先頭と末尾の無音部を削除する : No 標準 Win32 の Win NT & 2000 用

展開範囲ステータスとエラー選択された範囲 ファイル名 C:\QWCE-00092.wav

ピークレベル 98.8 % 選択範囲品質 100.0 % CRC 6B1E1D20 コピー OK

エラーは検出されませんでした

ステータスの報告終了
</div>
</div>
EXIT TRANCE PRESENTS ウマウマできるトランスを作ってみた
EXIT TRANCE PRESENTS Uma Uma Dekiru Trance wo Tsukutte Mita
--- Album: "EXIT TRANCE PRESENTS ウマウマできるトランスを作ってみた"; Genre: Trance; ## of Tracks: 2201. ウッーウッーウマウマ(°∀°)(Speedycake Remix) (2:53) // Caramel02. みくみくにしてあげる♪(してやんよ) (3:04) // ミッヒ03. 男女 (3:39) // 先生04. あいつこそがテニスの王子様(ミュージカル「テニスの王子様 THE IMPERIAL MATCH氷帝学園」) (4:40) // PRINCE05. パーフェクトスター・パーフェクトスタイル (4:27) // MAKI06. バラライカ (3:38) // やらまいか07. もすかう(DIGIMIND REMIX) (2:05) // 塩分手生えるんすか08. IEVAN POLKKA(VOCAL MIX) (3:12) // Black Man09. 恋のマイアヒ(EVERYBODY BANZAI MIX) (2:15) // DJ SATOMI10. SCREW THE PLAN (3:17) // NAKASONE11. ガソリーナ(EXTENDED MIX) (3:08) // フロッピー3つ!12. オカマdeマプーカ(CANNON CRACKER REMIX) (1:48) // YAMBOO13. ロッキング サン(DELACTION REMIX) (2:03) // 母さんちょwwww14. ポップ スター (4:12) // ニュース速報15. ドラマチック (4:30) // Digital Stone16. STAR RISE (3:50) // MAKI17. 創聖のアクエリオン (4:43) // Delaction feat. MAKI18. クリティウスの牙 (1:49) // 社長19. 真赤な誓い (4:21) // DJ弾幕20. レッツゴー!陰陽師 (4:10) // Nico ALLSTARS21. エージェント夜を往く (3:32) // DJ TOMONARI KATO feat.YUKO22. GO MY WAY (4:13) // DJ KIYOSHI VS REIKO--- Info: "EXIT TRANCE PRESENTS Uma Uma Dekiru Trance wo Tsukutte Mita.flac" - FLAC - 1145kbps 44100Hz stereo
EXIT TRANCE PRESENTS ウマウマできるトランスを作ってみた 2 作者は病気シリーズ
EXIT TRANCE PRESENTS Uma Uma Dekiru Trance wo Tsukutte Mita 2
--- Album: "EXIT TRANCE PRESENTS ウマウマできるトランスを作ってみた2 作者は病気シリーズ"; Genre: Trance; ## of Tracks: 2001. ぷんちきぱやっぱーヾ(゜∀゜)ノ♪ (2:28) // Carinho02. Under My Skin (3:34) // Claudia03. 俺ら東京さ行ぐだ (3:01) // nordloid04. ウッーウッーウマウマ(゜∀゜) (DJ SHIMAMURA REMIX) (3:04) // キャラメル05. 星間飛行 (3:33) // MAKI06. GOT THE GROOVE (2:27) // Nico ALLSTARS07. くるっと・まわって・いっかいてん (2:55) // ミッヒ08. YATTA! (3:38) // Nico ALLSTARS09. 情熱大陸 (2:17) // KEY TACK BOO10. 盆回り (3:12) // LASER BEAM11. アンインストール (3:35) // LASER BEAM12. 熊蜂の飛行 (1:33) // P.T.A13. 寝・逃・げでリセット! (3:31) // MAKI14. 悲しみの向こうへ (3:12) // MAKI15. 絶望ビリー (3:53) // 先生16. 解読不能 (2:59) // xue17. なのです☆ (3:13) // MAKI18. ハナマル☆センセイション (3:25) // Ma1519. 目が逢う瞬間 (4:48) // xue20. relations (4:22) // DJ NIT-CHOCK--- Info: "EXIT TRANCE PRESENTS Uma Uma Dekiru Trance wo Tsukutte Mita 2.flac" - FLAC - 1171kbps 44100Hz stereo
EXIT TRANCE PRESENTS ウマウマできるトランスを作ってみた 3 サムネで余裕でした
EXIT TRANCE PRESENTS Uma Uma Dekiru Trance wo Tsukutte Mita 3
--- Album: "EXIT TRANCE PRESENTS ウマウマできるトランスを作ってみた 3 サムネで余裕でした"; Genre: Trance; ## of Tracks: 2001. Do-Dai (THE [email protected]より) (3:04) // Acid=Stone Valley feat. MAKI02. ウッーウッーウマウマ(゜∀゜) (IOSYS REMIX) (4:15) // キャラメル03. みくみくにしてあげる♪【してやんよ】 (2:22) // Ryu* feat. ミッヒ04. LOVE & JOY (テーマ/花村大介(フジテレビ系)) (3:44) // Hommarju feat. CAMRY05. タキオのソーラン節 (3:47) // Icon feat. SHE KNEE TIE06. 崖の上のポニョ (主題歌/崖の上のポニョ) (3:02) // Ryu* feat. マキおねえさんとプリンスおにいさん07. チョコレイト・ディスコ (3:32) // Acid=Stone Valley feat. MAKI08. にんげんっていいな (エンディング/まんが日本昔ばなし) (2:06) // Ryu* feat. 棒歌ロイド09. まっがーれ↓スペクタクル (涼宮ハルヒの憂鬱より) (3:15) // Starving Trancer feat. YUKI10. ULTRA SOUL (2:56) // Icon feat. YUKI11. 俺の忘れ物 (らき☆すたより(TVアニメ)) (3:53) // B.U.S feat. NINE12. DAYS (オープニング/交響詩篇エウレカセブン(TBS系アニメ)) (4:16) // Hommarju feat. NON+SHUN13. Can't Take My Eyes Off Of You (君の瞳に恋してる) (3:17) // SHO-YA feat. MAKI14. アゲハ蝶 (CM/ティセラ/エフティ資生堂) (3:46) // Dizzi Mystica feat. YUKI15. こんなに近くで… (エンディング/のだめカンタービレ(フジテレビ系アニメ)) (4:00) // Starving Trancer feat. MAKI16. もう恋なんてしない (3:37) // Dizzi Mystica feat. CAMRY17. promise (3:41) // B.U.S feat. MAKI18. 覚えてていいよ (4:00) // Icon feat. MAKI19. 日本ブレイク工業社歌 (3:33) // B.U.S feat. NINE20. キラメキラリ (THE [email protected]より) (3:54) // Icon feat. Ma15--- Info: "EXIT TRANCE PRESENTS Uma Uma Dekiru Trance wo Tsukutte Mita 3.flac" - FLAC - 1126kbps 44100Hz stereo
EXIT TRANCE PRESENTS ウマウマできるトランスを作ってみた4 ごらんの有様だよ
EXIT TRANCE PRESENTS Uma Uma Dekiru Trance wo Tsukutte Mita 4
--- Album: "EXIT TRANCE PRESENTS ウマウマできるトランスを作ってみた4 ごらんの有様だよ"; Genre: Trance; ## of Tracks: 2001. ウッーウッーウマウマ(゜∀゜) (IOSYS feat. ビートまりお 自重しないREMIX) 5:55 // キャラメル02. エアーマンが倒せない 3:40 // Ryu* Feat. Zaki03. きみのためなら死ねる 4:54 // Hommarju Feat. Thunder Ace04. キューティーハニー 3:03 // B.U.S Feat. MAKI05. あんなに一緒だったのに 3:48 // Starving Trancer Feat. CAMRY06. brave heart 3:11 // Sho-Ya Feat. Yuki07. Dream Fighter 4:14 // Dizzi Mystica Feat. MAKI08. Prototype 4:45 // Icon Feat. Peco09. Over Soul 2:52 // Acid=Stone Valley Feat. MAKI10. Catch You Catch Me 3:23 // Starving Trancer Feat. CAMRY11. 撲殺天使ドクロちゃん 3:57 // Acid=Stone Valley Feat. Ma1512. 空想ルンバ 3:43 // Icon Feat. Takanori + Maki13. One more time,One more chance 3:52 // MK Feat. NINE14. ココロオドル 4:37 // Acid=Stone Valley Feat. TAKANORI15. ウィーアー! 3:19 // Icon Feat. CAMRY16. World End 3:37 // B.U.S Feat. TAKANORI + YUKI17. being 3:37 // DJ Sa9 Vs. Judas Feat. Peco18. ライオン 4:21 // B.U.S Feat. MAKI19. 私はアイドル 4:39 // Icon Feat. 40520. オーバーマスター 4:20 // S-Mushroom Feat. Xue--- Info: "EXIT TRANCE PRESENTS Uma Uma Dekiru Trance wo Tsukutte Mita 4.flac" - FLAC - 1127kbps - 44100Hz stereo

<div class="sp-wrap">
<div class="sp-head folded">Лог EAC</div>
<div class="sp-body">

Exact Audio Copy V0.99 prebeta 4 from 23. January 2008

EAC extraction logfile from 5. May 2009, 2:50

Various / EXIT TRANCE PRESENTS ウマウマできるトランスを作ってみた4 ごらんの有様だよ

Used drive : HL-DT-STDVDRAM GSA-H10N Adapter: 1 ID: 0

Read mode : SecureUtilize accurate stream : YesDefeat audio cache : NoMake use of C2 pointers : No

Combined read/write offset correction : 0Overread into Lead-In and Lead-Out : NoFill up missing offset samples with silence : YesDelete leading and trailing silent blocks : NoNull samples used in CRC calculations : NoUsed interface : Native Win32 interface for Win NT & 2000

Used output format : User Defined EncoderSelected bitrate : 768 kBit/sQuality : HighAdd ID3 tag : NoCommand line compressor : C:\Program Files (x86)\Exact Audio Copy\FLAC\FLAC.EXEAdditional command line options : -6 -V -T "ARTIST=%a" -T "TITLE=%t" -T "ALBUM=%g" -T "DATE=%y" -T "TRACKNUMBER=%n" -T "GENRE=%m" -T "COMMENT=%e" %s -o %d

TOC of the extracted CD

Track | Start | Length | Start sector | End sector --------------------------------------------------------- 1 | 0:00.00 | 5:55.11 | 0 | 26635 2 | 5:55.11 | 3:40.18 | 26636 | 43153 3 | 9:35.29 | 4:54.02 | 43154 | 65205 4 | 14:29.31 | 3:03.01 | 65206 | 78931 5 | 17:32.32 | 3:48.25 | 78932 | 96056 6 | 21:20.57 | 3:11.15 | 96057 | 110396 7 | 24:31.72 | 4:13.59 | 110397 | 129430 8 | 28:45.56 | 4:44.74 | 129431 | 150804 9 | 33:30.55 | 2:51.49 | 150805 | 163678 10 | 36:22.29 | 3:23.25 | 163679 | 178928 11 | 39:45.54 | 3:57.24 | 178929 | 196727 12 | 43:43.03 | 3:43.00 | 196728 | 213452 13 | 47:26.03 | 3:51.41 | 213453 | 230818 14 | 51:17.44 | 4:37.36 | 230819 | 251629 15 | 55:55.05 | 3:19.02 | 251630 | 266556 16 | 59:14.07 | 3:37.12 | 266557 | 282843 17 | 62:51.19 | 3:37.37 | 282844 | 299155 18 | 66:28.56 | 4:20.63 | 299156 | 318718 19 | 70:49.44 | 4:38.48 | 318719 | 339616 20 | 75:28.17 | 4:20.03 | 339617 | 359119

Range status and errors

Selected range (Sectors 0-359119)

Filename C:\Users\Nakahito Kagura\Desktop\EXIT TRANCE PRESENTS ウマウマできるトランスを作ってみた4 ごらんの有様だよ.wav

Peak level 100.0 % Range quality 100.0 % Copy CRC 5D74DAA2 Copy OK

No errors occurred

End of status report
</div>
</div>

Трекер:  [ 30-Май-2017 21:30 ]

  

Скачать .torrent

Размер .torrent файла 230 KB


Размер: 19.24 GB
Хэш (hash) релиза: f5281e49e24a5f44cca14465e7cc1e6232e1e24a

Торренты, похожие на Exit Trance Collection скачать торрент

Форум Название Автор Размер S L Добавлен
Электронная музыка (mp3) ·· (JTrance, Vocal Trance, House, JPop, Vocaloid) EXIT TUNES, Quake Records, EXIT TRANCE PRESENTS Collection - 139 альбомов [2004-2010, MP3, ~278 kbps] Galfimbul 2464101976122.95 GB 0 0 1294349356

00:29

7-Янв-11

Еще никто не оставлял запись к записи скачать торрент Exit Trance Collection . Будь первым!

!Обратная связь