Murder Calls | Israel , USA | • Fairy Tail (Anime) 7.5

Скачать через торрент [VIDEO] Охотники за привидениями Ghostbusters бесплатно русская версия torrent активатор

Статистика раздачи
Размер:  1.74 GB   |    Зарегистрирован:  1 год 1 месяц   |    .torrent скачан:  35 раз   |   
Раздают:  1  
   
загрузка...
 
Автор Сообщение

Galfimbul

avatar Galfimbul


Охотники за привидениями / Ghostbusters (Theatrical Cut)
Год выпуска: 2016
Страна: США / Columbia Pictures, Feigco Entertainment, The Montecito Picture Company
Жанр: фантастика, фэнтези, боевик, комедия
Продолжительность: 01:56:35
Перевод №1: Русский Профессиональный (полное дублирование) Blu-ray CEE
Перевод №2: Украинский Профессиональный (полное дублирование) Blu-ray CEE
Оригинальная дорожка: Есть
Субтитры: русские (форсированные, полные), украинские (полные), английские (полные)Режиссер: Пол Фиг / Paul FeigВ ролях: Мелисса МакКарти, Кристен Уиг, Кейт МакКиннон, Лесли Джонс, Крис Хемсворт, Сесили Стронг, Энди Гарсиа, Нил Кэйси, Чарльз Дэнс, Майкл Кеннет Уильямс и другие .Описание: Тридцать лет назад охотники за привидениями спасли Нью-Йорк от нашествия призраков, но теперь городу вновь угрожает опасность. Былые герои не могут стать на его защиту, но находятся и другие отважные люди, всю свою жизнь посвятившие изучению паранормальных явлений. Эбби Йейтс объединяется с Эрин Гилберт, пожалуй лучшим специалистом в квантовой физике, и вместе они собирают команду новых охотников за привидениями, в которую принимают отличного инженера Джиллиан Хольцман, сотрудницу метрополитена Пэтти Толан, знающую город как свои пять пальцев, и секретаря - настоящего красавчика Кэвина. Вместе они начинают борьбу с нечистой силой, терроризирующей мегаполис... Релиз группы Качество: BDRip / рип с Blu-ray disc 1080p 2-in-1: Theatrical & Extended Cut
Формат: MP4
Видео кодек: H.264
Аудио кодек: AAC
Видео: 960х402 AR:2.39 1740 kbps 23.976 fps
Аудио №1: [Russian] 2ch 48 kHz 128 kbps - Профессиональный (полное дублирование) Blu-ray CEE
Аудио №2: [Ukrainian] 2ch 48 kHz 128 kbps - Профессиональный (полное дублирование) Blu-ray CEE
Аудио №3: [English] 2ch 48 kHz 128 kbps - Оригинал
avs [info]: 960x402p 1:1 @ 2997/125 fps (cfr)
x264 [info]: using SAR=1/1
x264 [info]: using cpu capabilities: MMX2 SSE2Fast SSSE3 SSE4.2 AVX FMA3 AVX2 LZCNT BMI2
x264 [info]: profile High, level 4.1

x264 [info]: frame I:2242 Avg QP:18.62 size: 63152
x264 [info]: frame P:42771 Avg QP:22.41 size: 17431
x264 [info]: frame B:122699 Avg QP:24.44 size: 5170
x264 [info]: consecutive B-frames: 4.0% 4.4% 9.3% 42.9% 15.5% 17.6% 3.0% 2.6% 0.9%
x264 [info]: mb I I16..4: 4.1% 61.4% 34.5%
x264 [info]: mb P I16..4: 1.6% 9.0% 2.9% P16..4: 33.9% 34.6% 11.8% 0.0% 0.0% skip: 6.3%
x264 [info]: mb B I16..4: 0.3% 1.2% 0.4% B16..8: 30.6% 16.9% 3.2% direct: 4.6% skip:42.8% L0:39.0% L1:44.2% BI:16.7%
x264 [info]: 8x8 transform intra:65.6% inter:60.5%
x264 [info]: direct mvs spatial:96.0% temporal:4.0%
x264 [info]: coded y,uvDC,uvAC intra: 78.0% 89.0% 69.3% inter: 18.9% 22.1% 11.1%
x264 [info]: i16 v,h,dc,p: 15% 31% 4% 50%
x264 [info]: i8 v,h,dc,ddl,ddr,vr,hd,vl,hu: 11% 9% 5% 9% 13% 13% 14% 12% 14%
x264 [info]: i4 v,h,dc,ddl,ddr,vr,hd,vl,hu: 23% 12% 4% 7% 11% 11% 11% 9% 11%
x264 [info]: i8c dc,h,v,p: 33% 24% 21% 22%
x264 [info]: Weighted P-Frames: Y:8.9% UV:7.0%
x264 [info]: ref P L0: 53.8% 13.1% 14.3% 5.7% 4.4% 3.5% 2.8% 2.0% 0.3% 0.0%
x264 [info]: ref B L0: 82.0% 8.5% 4.3% 2.0% 1.7% 1.0% 0.5%
x264 [info]: ref B L1: 95.6% 4.4%
x264 [info]: kb/s:1740.13

encoded 167712 frames, 16.38 fps, 1740.13 kb/s
GeneralComplete name : D:\Torrents\Ghostbusters.(Theatrical Cut).2016.BDRip.x264.960x.rip by Frost O.S.mp4Format : MPEG-4Format profile : Base MediaCodec ID : isom (isom/avc1/iso2)File size : 1.74 GiBDuration : 1 h 56 minOverall bit rate mode : VariableOverall bit rate : 2 140 kb/sMovie name : Ghostbusters (Theatrical Cut) 2016 BDRip x264 960x rip by Frost O SDirector : Пол Фиг / Paul FeigActor : Мелисса МакКарти / Кристен Уиг / Кейт МакКиннон / Лесли Джонс / Крис Хемсворт / Сесили Стронг / Энди Гарсиа / Нил Кэйси / Чарльз Дэнс / Майкл Кеннет Уильямс и другие .Genre : FantasyContentType : Short FilmEncoded date : UTC 2017-05-30 18:49:06Tagged date : UTC 2017-05-30 18:54:05Writing application : MkvToMp4 version: 0.224 (x64)Cover : YesComment : rip by Frost O.SLongDescription : Тридцать лет назад охотники за привидениями спасли Нью-Йорк от нашествия призраков, но теперь городу вновь угрожает опасность. Былые герои не могут стать на его защиту, но находятся и другие отважные люди, всю свою жизнь посвятившие изучению паранормальных явлений. Эбби Йейтс объединяется с Эрин Гилберт, пожалуй лучшим специалистом в квантовой физике, и вместе они собирают команду новых охотников за привидениями, в которую принимают отличного инженера Джиллиан Хольцман, сотрудницу метрополитена Пэтти Толан, знающую город как свои пять пальцев, и секретаря - настоящего красавчика Кэвина. Вместе они начинают борьбу с нечистой силой, терроризирующей мегаполис...

VideoID : 1Format : AVCFormat/Info : Advanced Video CodecFormat profile : [email protected] settings, CABAC : YesFormat settings, ReFrames : 8 framesCodec ID : avc1Codec ID/Info : Advanced Video CodingDuration : 1 h 56 minBit rate : 1 740 kb/sMaximum bit rate : 7 694 kb/sWidth : 960 pixelsHeight : 402 pixelsDisplay aspect ratio : 2.40:1Frame rate mode : ConstantFrame rate : 23.976 (24000/1001) FPSOriginal frame rate : 23.976 (23976/1000) FPSColor space : YUVChroma subsampling : 4:2:0Bit depth : 8 bitsScan type : ProgressiveBits/(Pixel*Frame) : 0.188Stream size : 1.42 GiB (81%)Writing library : x264 core 148 r2744 b97ae06Encoding settings : cabac=1 / ref=8 / deblock=1:-1:-1 / analyse=0x3:0x113 / me=umh / subme=11 / psy=1 / psy_rd=0.90:0.00 / mixed_ref=1 / me_range=32 / chroma_me=1 / trellis=2 / 8x8dct=1 / cqm=0 / deadzone=21,11 / fast_pskip=0 / chroma_qp_offset=-2 / threads=6 / lookahead_threads=1 / sliced_threads=0 / nr=0 / decimate=0 / interlaced=0 / bluray_compat=0 / constrained_intra=0 / bframes=8 / b_pyramid=2 / b_adapt=2 / b_bias=0 / direct=3 / weightb=1 / open_gop=0 / weightp=2 / keyint=250 / keyint_min=23 / scenecut=40 / intra_refresh=0 / rc=2pass / mbtree=0 / bitrate=1740 / ratetol=1.0 / qcomp=0.70 / qpmin=0 / qpmax=69 / qpstep=4 / cplxblur=20.0 / qblur=0.5 / ip_ratio=1.40 / pb_ratio=1.30 / aq=2:0.90Language : EnglishEncoded date : UTC 2017-05-30 18:49:06Tagged date : UTC 2017-05-30 18:51:16Color range : LimitedColor primaries : BT.709Transfer characteristics : BT.709Matrix coefficients : BT.709

Audio #1ID : 2Format : AACFormat/Info : Advanced Audio CodecFormat profile : LCCodec ID : 40Duration : 1 h 56 minBit rate mode : VariableBit rate : 128 kb/sMaximum bit rate : 135 kb/sChannel(s) : 2 channelsChannel positions : Front: L RSampling rate : 48.0 kHzFrame rate : 46.875 FPS (1024 spf)Compression mode : LossyStream size : 107 MiB (6%)Title : Dub_ Blu_ray CEE / Dub_ Blu_ray CEELanguage : RussianDefault : YesAlternate group : 1Encoded date : UTC 2017-05-30 18:50:43Tagged date : UTC 2017-05-30 18:51:16

Audio #2ID : 3Format : AACFormat/Info : Advanced Audio CodecFormat profile : LCCodec ID : 40Duration : 1 h 56 minBit rate mode : VariableBit rate : 128 kb/sMaximum bit rate : 135 kb/sChannel(s) : 2 channelsChannel positions : Front: L RSampling rate : 48.0 kHzFrame rate : 46.875 FPS (1024 spf)Compression mode : LossyStream size : 107 MiB (6%)Title : Dub_ Blu_ray CEE / Dub_ Blu_ray CEELanguage : UkrainianDefault : NoAlternate group : 1Encoded date : UTC 2017-05-30 18:50:52Tagged date : UTC 2017-05-30 18:51:16

Audio #3ID : 4Format : AACFormat/Info : Advanced Audio CodecFormat profile : LCCodec ID : 40Duration : 1 h 56 minBit rate mode : VariableBit rate : 128 kb/sMaximum bit rate : 135 kb/sChannel(s) : 2 channelsChannel positions : Front: L RSampling rate : 48.0 kHzFrame rate : 46.875 FPS (1024 spf)Compression mode : LossyStream size : 107 MiB (6%)Title : Original / OriginalLanguage : EnglishDefault : NoAlternate group : 1Encoded date : UTC 2017-05-30 18:51:07Tagged date : UTC 2017-05-30 18:51:16

Text #1ID : 5Format : Timed TextMuxing mode : sbtlCodec ID : tx3gDuration : 1 h 49 minBit rate mode : VariableBit rate : 2 b/sStream size : 1.53 KiB (0%)Title : Forced_ Blu_ray CEE / Forced_ Blu_ray CEELanguage : RussianDefault : YesForced : NoAlternate group : 2Encoded date : UTC 2017-05-30 18:51:16Tagged date : UTC 2017-05-30 18:51:16

Text #2ID : 6Format : Timed TextMuxing mode : sbtlCodec ID : tx3gDuration : 1 h 56 minBit rate mode : VariableBit rate : 126 b/sStream size : 108 KiB (0%)Title : Full_ Blu_ray CEE / Full_ Blu_ray CEELanguage : RussianDefault : NoForced : NoAlternate group : 2Encoded date : UTC 2017-05-30 18:51:16Tagged date : UTC 2017-05-30 18:51:16

Text #3ID : 7Format : Timed TextMuxing mode : sbtlCodec ID : tx3gDuration : 1 h 56 minBit rate mode : VariableBit rate : 129 b/sStream size : 110 KiB (0%)Title : Full_ Blu_ray CEE / Full_ Blu_ray CEELanguage : UkrainianDefault : NoForced : NoAlternate group : 2Encoded date : UTC 2017-05-30 18:51:16Tagged date : UTC 2017-05-30 18:51:16

Text #4ID : 8Format : Timed TextMuxing mode : sbtlCodec ID : tx3gDuration : 1 h 56 minBit rate mode : VariableBit rate : 88 b/sStream size : 75.0 KiB (0%)Title : Full / FullLanguage : EnglishDefault : NoForced : NoAlternate group : 2Encoded date : UTC 2017-05-30 18:51:16Tagged date : UTC 2017-05-30 18:51:16


Трекер:  [ 30-Май-2017 21:30 ]

  

Скачать .torrent

Размер .torrent файла 18 KB


Размер: 1.74 GB
Хэш (hash) релиза: 4b7809cd7cb1071ea38305345597d4c34967dd4f

Еще никто не оставлял запись к записи скачать торрент [VIDEO] Охотники за привидениями Ghostbusters . Будь первым!

!Обратная связь