Chapter Thirty-Four: Judgment Night | Initial D | Little Women: LA

Скачать через торрент [VIDEO] На пятьдесят оттенков темнее Fifty Shades Darker бесплатно русская версия torrent активатор

Статистика раздачи
Размер:  1.16 GB   |    Зарегистрирован:  1 год 1 месяц   |    .torrent скачан:  30 раз   |   
Раздают:  1  
   
загрузка...
 
Автор Сообщение

Galfimbul

avatar Galfimbul


На пятьдесят оттенков темнее / Fifty Shades Darker (Extended Cut)
Год выпуска: 2017
Страна: США / Universal Pictures
Жанр: драма, мелодрама
Продолжительность: 02:11:28
Перевод: Русский Профессиональный (полное дублирование) Blu-ray CEE
Оригинальная дорожка: Есть
Субтитры: русские (форсированные, полные), английские (полные)Режиссер: Джеймс Фоули / James FoleyВ ролях: Дакота Джонсон, Джейми Дорнан, Эрик Джонсон, Элоиза Мамфорд, Белла Хиткот, Рита Ора, Люк Граймс, Виктор Расук, Макс Мартини, Брюс Олтмен и другие .Описание: Пока Кристиан Грей борется со своими внутренними демонами, Анастейша Стил вынуждена противостоять гневу и зависти тех женщин, что были с Кристианом до нее. Релиз группы Качество: BDRip / рип с BDRemux 1080p
Формат: MP4
Видео кодек: H.264
Аудио кодек: AAC
Видео: 960х400 AR:2.40 1000 kbps 23.976 fps
Аудио №1: [Russian] 2ch 48 kHz 128 kbps - Профессиональный (полное дублирование) Blu-ray CEE
Аудио №2: [English] 2ch 48 kHz 128 kbps - Оригинал
avs [info]: 960x400p 1:1 @ 2997/125 fps (cfr)
x264 [info]: using SAR=1/1
x264 [info]: using cpu capabilities: MMX2 SSE2Fast SSSE3 SSE4.2 AVX FMA3 AVX2 LZCNT BMI2
x264 [info]: profile High, level 4.1

x264 [info]: frame I:1517 Avg QP:15.41 size: 46678
x264 [info]: frame P:40455 Avg QP:19.51 size: 11802
x264 [info]: frame B:147172 Avg QP:21.81 size: 2972
x264 [info]: consecutive B-frames: 2.0% 2.6% 8.5% 15.5% 18.2% 42.4% 7.1% 3.8%
x264 [info]: mb I I16..4: 6.2% 73.8% 20.0%
x264 [info]: mb P I16..4: 0.6% 5.2% 0.9% P16..4: 36.4% 38.1% 10.4% 0.0% 0.0% skip: 8.3%
x264 [info]: mb B I16..4: 0.0% 0.3% 0.1% B16..8: 34.7% 15.1% 1.8% direct: 2.0% skip:46.0% L0:43.2% L1:46.0% BI:10.8%
x264 [info]: 8x8 transform intra:76.2% inter:62.8%
x264 [info]: direct mvs spatial:97.0% temporal:3.0%
x264 [info]: coded y,uvDC,uvAC intra: 82.6% 82.2% 63.9% inter: 11.4% 10.4% 5.5%
x264 [info]: i16 v,h,dc,p: 30% 11% 6% 53%
x264 [info]: i8 v,h,dc,ddl,ddr,vr,hd,vl,hu: 11% 7% 7% 9% 13% 14% 12% 13% 12%
x264 [info]: i4 v,h,dc,ddl,ddr,vr,hd,vl,hu: 14% 8% 6% 9% 15% 14% 12% 11% 11%
x264 [info]: i8c dc,h,v,p: 39% 22% 21% 18%
x264 [info]: Weighted P-Frames: Y:5.5% UV:2.9%
x264 [info]: ref P L0: 51.8% 9.2% 17.4% 6.6% 5.2% 3.9% 3.5% 2.3% 0.1% 0.0%
x264 [info]: ref B L0: 75.5% 11.8% 6.0% 2.8% 2.2% 1.2% 0.5%
x264 [info]: ref B L1: 93.7% 6.3%
x264 [info]: kb/s:999.52

encoded 189144 frames, 18.18 fps, 999.52 kb/s
GeneralComplete name : D:\Torrents\Fifty Shades Darker.(Extended Cut).2017.BDRip.x264.960x.rip by Frost O.S.mp4Format : MPEG-4Format profile : Base MediaCodec ID : isom (isom/avc1/iso2)File size : 1.16 GiBDuration : 2 h 11 minOverall bit rate mode : VariableOverall bit rate : 1 267 kb/sMovie name : Fifty Shades Darker (Extended Cut) 2017 BDRip x264 960x rip by Frost O SDirector : Джеймс Фоули / James FoleyActor : Дакота Джонсон / Джейми Дорнан / Эрик Джонсон / Элоиза Мамфорд / Белла Хиткот / Рита Ора / Люк Граймс / Виктор Расук / Макс Мартини / Брюс ОлтменGenre : DramaContentType : Short FilmEncoded date : UTC 2017-05-29 14:41:43Tagged date : UTC 2017-05-29 14:49:40Writing application : MkvToMp4 version: 0.224 (x64)Cover : YesComment : rip by Frost O.SLongDescription : Пока Кристиан Грей борется со своими внутренними демонами, Анастейша Стил вынуждена противостоять гневу и зависти тех женщин, что были с Кристианом до нее.

VideoID : 1Format : AVCFormat/Info : Advanced Video CodecFormat profile : [email protected] settings, CABAC : YesFormat settings, ReFrames : 8 framesCodec ID : avc1Codec ID/Info : Advanced Video CodingDuration : 2 h 11 minBit rate : 1 000 kb/sMaximum bit rate : 8 153 kb/sWidth : 960 pixelsHeight : 400 pixelsDisplay aspect ratio : 2.40:1Frame rate mode : ConstantFrame rate : 23.976 (24000/1001) FPSOriginal frame rate : 23.976 (23976/1000) FPSColor space : YUVChroma subsampling : 4:2:0Bit depth : 8 bitsScan type : ProgressiveBits/(Pixel*Frame) : 0.109Stream size : 940 MiB (79%)Writing library : x264 core 148 r2744 b97ae06Encoding settings : cabac=1 / ref=8 / deblock=1:-3:-3 / analyse=0x3:0x113 / me=umh / subme=11 / psy=1 / psy_rd=0.90:0.00 / mixed_ref=1 / me_range=32 / chroma_me=1 / trellis=2 / 8x8dct=1 / cqm=0 / deadzone=21,11 / fast_pskip=0 / chroma_qp_offset=-2 / threads=6 / lookahead_threads=1 / sliced_threads=0 / nr=0 / decimate=0 / interlaced=0 / bluray_compat=0 / constrained_intra=0 / bframes=7 / b_pyramid=2 / b_adapt=2 / b_bias=0 / direct=3 / weightb=1 / open_gop=0 / weightp=2 / keyint=250 / keyint_min=23 / scenecut=40 / intra_refresh=0 / rc=2pass / mbtree=0 / bitrate=1000 / ratetol=1.0 / qcomp=0.75 / qpmin=0 / qpmax=69 / qpstep=4 / cplxblur=20.0 / qblur=0.5 / ip_ratio=1.40 / pb_ratio=1.30 / aq=1:0.70Language : EnglishEncoded date : UTC 2017-05-29 14:41:43Tagged date : UTC 2017-05-29 14:45:28Color range : LimitedColor primaries : BT.709Transfer characteristics : BT.709Matrix coefficients : BT.709

Audio #1ID : 2Format : AACFormat/Info : Advanced Audio CodecFormat profile : LCCodec ID : 40Duration : 2 h 11 minBit rate mode : VariableBit rate : 128 kb/sMaximum bit rate : 135 kb/sChannel(s) : 2 channelsChannel positions : Front: L RSampling rate : 48.0 kHzFrame rate : 46.875 FPS (1024 spf)Compression mode : LossyStream size : 120 MiB (10%)Title : Dub_ Blu_ray CEE / Dub_ Blu_ray CEELanguage : RussianDefault : YesAlternate group : 1Encoded date : UTC 2017-05-29 14:44:18Tagged date : UTC 2017-05-29 14:45:28

Audio #2ID : 3Format : AACFormat/Info : Advanced Audio CodecFormat profile : LCCodec ID : 40Duration : 2 h 11 minBit rate mode : VariableBit rate : 128 kb/sMaximum bit rate : 135 kb/sChannel(s) : 2 channelsChannel positions : Front: L RSampling rate : 48.0 kHzFrame rate : 46.875 FPS (1024 spf)Compression mode : LossyStream size : 120 MiB (10%)Title : Original / OriginalLanguage : EnglishDefault : NoAlternate group : 1Encoded date : UTC 2017-05-29 14:44:49Tagged date : UTC 2017-05-29 14:45:28

Text #1ID : 4Format : Timed TextMuxing mode : sbtlCodec ID : tx3gDuration : 2 h 11 minBit rate mode : VariableBit rate : 2 b/sStream size : 1.66 KiB (0%)Title : Forced / ForcedLanguage : RussianDefault : YesForced : NoAlternate group : 2Encoded date : UTC 2017-05-29 14:45:28Tagged date : UTC 2017-05-29 14:45:28

Text #2ID : 5Format : Timed TextMuxing mode : sbtlCodec ID : tx3gDuration : 2 h 11 minBit rate mode : VariableBit rate : 62 b/sStream size : 60.0 KiB (0%)Title : Full / FullLanguage : RussianDefault : NoForced : NoAlternate group : 2Encoded date : UTC 2017-05-29 14:45:28Tagged date : UTC 2017-05-29 14:45:28

Text #3ID : 6Format : Timed TextMuxing mode : sbtlCodec ID : tx3gDuration : 2 h 9 minBit rate mode : VariableBit rate : 54 b/sStream size : 51.3 KiB (0%)Title : Full / FullLanguage : EnglishDefault : NoForced : NoAlternate group : 2Encoded date : UTC 2017-05-29 14:45:28Tagged date : UTC 2017-05-29 14:45:28


Трекер:  [ 29-Май-2017 17:00 ]

  

Скачать .torrent

Размер .torrent файла 12 KB


Размер: 1.16 GB
Хэш (hash) релиза: cddb908051ea94cdf854fcbc79719ec5a5b9774c

Еще никто не оставлял запись к записи скачать торрент [VIDEO] На пятьдесят оттенков темнее Fifty Shades Darker . Будь первым!

!Обратная связь