DIRECT DOWNLOAD LINKS | Chosen Jacobs | Chapter 5: A Child's Trick

Скачать через торрент [VIDEO] На пятьдесят оттенков темнее Fifty Shades Darker бесплатно русская версия torrent активатор

Статистика раздачи
Размер:  1.04 GB   |    Зарегистрирован:  1 год 2 месяца   |    .torrent скачан:  29 раз   |   
Раздают:  1  
   
загрузка...
 
Автор Сообщение

Galfimbul

avatar Galfimbul


На пятьдесят оттенков темнее / Fifty Shades Darker (Theatrical Cut)
Год выпуска: 2017
Страна: США / Universal Pictures
Жанр: драма, мелодрама
Продолжительность: 01:57:48
Перевод: Русский Профессиональный (полное дублирование) Blu-ray CEE
Оригинальная дорожка: Есть
Субтитры: русские (форсированные, полные), английские (полные)Режиссер: Джеймс Фоули / James FoleyВ ролях: Дакота Джонсон, Джейми Дорнан, Эрик Джонсон, Элоиза Мамфорд, Белла Хиткот, Рита Ора, Люк Граймс, Виктор Расук, Макс Мартини, Брюс Олтмен и другие .Описание: Пока Кристиан Грей борется со своими внутренними демонами, Анастейша Стил вынуждена противостоять гневу и зависти тех женщин, что были с Кристианом до нее. Релиз группы Качество: BDRip / рип с BDRemux 1080p
Формат: MP4
Видео кодек: H.264
Аудио кодек: AAC
Видео: 960х400 AR:2.40 1000 kbps 23.976 fps
Аудио №1: [Russian] 2ch 48 kHz 128 kbps - Профессиональный (полное дублирование) Blu-ray CEE
Аудио №2: [English] 2ch 48 kHz 128 kbps - Оригинал
avs [info]: 960x400p 1:1 @ 2997/125 fps (cfr)
x264 [info]: using SAR=1/1
x264 [info]: using cpu capabilities: MMX2 SSE2Fast SSSE3 SSE4.2 AVX FMA3 AVX2 LZCNT BMI2
x264 [info]: profile High, level 4.1

x264 [info]: frame I:1334 Avg QP:15.30 size: 46326
x264 [info]: frame P:35949 Avg QP:19.43 size: 11864
x264 [info]: frame B:132186 Avg QP:21.68 size: 2984
x264 [info]: consecutive B-frames: 1.9% 2.3% 8.7% 16.1% 18.3% 39.8% 6.6% 2.9% 3.3%
x264 [info]: mb I I16..4: 6.4% 73.8% 19.8%
x264 [info]: mb P I16..4: 0.7% 5.3% 1.0% P16..4: 36.3% 38.0% 10.3% 0.0% 0.0% skip: 8.5%
x264 [info]: mb B I16..4: 0.0% 0.3% 0.1% B16..8: 34.6% 15.1% 1.8% direct: 2.1% skip:46.0% L0:42.9% L1:46.2% BI:10.9%
x264 [info]: 8x8 transform intra:76.0% inter:62.9%
x264 [info]: direct mvs spatial:97.0% temporal:3.0%
x264 [info]: coded y,uvDC,uvAC intra: 82.2% 82.0% 63.7% inter: 11.5% 10.5% 5.5%
x264 [info]: i16 v,h,dc,p: 30% 11% 6% 53%
x264 [info]: i8 v,h,dc,ddl,ddr,vr,hd,vl,hu: 11% 7% 7% 9% 13% 14% 12% 13% 12%
x264 [info]: i4 v,h,dc,ddl,ddr,vr,hd,vl,hu: 14% 8% 6% 9% 15% 14% 12% 11% 11%
x264 [info]: i8c dc,h,v,p: 39% 23% 21% 18%
x264 [info]: Weighted P-Frames: Y:5.4% UV:2.9%
x264 [info]: ref P L0: 52.4% 9.2% 17.8% 6.7% 5.7% 4.1% 4.1% 0.2% 0.0%
x264 [info]: ref B L0: 76.4% 12.1% 6.5% 2.9% 1.6% 0.6%
x264 [info]: ref B L1: 93.7% 6.3%
x264 [info]: kb/s:999.03

encoded 169469 frames, 19.73 fps, 999.04 kb/s
GeneralComplete name : D:\Torrents\Fifty Shades Darker.(Theatrical Cut).2017.BDRip.x264.960x.rip by Frost O.S.mp4Format : MPEG-4Format profile : Base MediaCodec ID : isom (isom/avc1/iso2)File size : 1.04 GiBDuration : 1 h 57 minOverall bit rate mode : VariableOverall bit rate : 1 267 kb/sMovie name : Fifty Shades Darker (Theatrical Cut) 2017 BDRip x264 960x rip by Frost O SDirector : Джеймс Фоули / James FoleyActor : Дакота Джонсон / Джейми Дорнан / Эрик Джонсон / Элоиза Мамфорд / Белла Хиткот / Рита Ора / Люк Граймс / Виктор Расук / Макс Мартини / Брюс ОлтменGenre : DramaContentType : Short FilmEncoded date : UTC 2017-05-29 14:25:35Tagged date : UTC 2017-05-29 14:30:43Writing application : MkvToMp4 version: 0.224 (x64)Cover : YesComment : rip by Frost O.SLongDescription : Пока Кристиан Грей борется со своими внутренними демонами, Анастейша Стил вынуждена противостоять гневу и зависти тех женщин, что были с Кристианом до нее.

VideoID : 1Format : AVCFormat/Info : Advanced Video CodecFormat profile : [email protected] settings, CABAC : YesFormat settings, ReFrames : 7 framesCodec ID : avc1Codec ID/Info : Advanced Video CodingDuration : 1 h 57 minBit rate : 1 000 kb/sMaximum bit rate : 8 214 kb/sWidth : 960 pixelsHeight : 400 pixelsDisplay aspect ratio : 2.40:1Frame rate mode : ConstantFrame rate : 23.976 (24000/1001) FPSOriginal frame rate : 23.976 (23976/1000) FPSColor space : YUVChroma subsampling : 4:2:0Bit depth : 8 bitsScan type : ProgressiveBits/(Pixel*Frame) : 0.109Stream size : 842 MiB (79%)Writing library : x264 core 148 r2744 b97ae06Encoding settings : cabac=1 / ref=7 / deblock=1:-3:-3 / analyse=0x3:0x113 / me=umh / subme=11 / psy=1 / psy_rd=0.90:0.00 / mixed_ref=1 / me_range=32 / chroma_me=1 / trellis=2 / 8x8dct=1 / cqm=0 / deadzone=21,11 / fast_pskip=0 / chroma_qp_offset=-2 / threads=6 / lookahead_threads=1 / sliced_threads=0 / nr=0 / decimate=0 / interlaced=0 / bluray_compat=0 / constrained_intra=0 / bframes=8 / b_pyramid=2 / b_adapt=2 / b_bias=0 / direct=3 / weightb=1 / open_gop=0 / weightp=2 / keyint=250 / keyint_min=23 / scenecut=40 / intra_refresh=0 / rc=2pass / mbtree=0 / bitrate=1000 / ratetol=1.0 / qcomp=0.75 / qpmin=0 / qpmax=69 / qpstep=4 / cplxblur=20.0 / qblur=0.5 / ip_ratio=1.40 / pb_ratio=1.30 / aq=1:0.70Language : EnglishEncoded date : UTC 2017-05-29 14:25:35Tagged date : UTC 2017-05-29 14:28:41Color range : LimitedColor primaries : BT.709Transfer characteristics : BT.709Matrix coefficients : BT.709

Audio #1ID : 2Format : AACFormat/Info : Advanced Audio CodecFormat profile : LCCodec ID : 40Duration : 1 h 57 minBit rate mode : VariableBit rate : 128 kb/sMaximum bit rate : 135 kb/sChannel(s) : 2 channelsChannel positions : Front: L RSampling rate : 48.0 kHzFrame rate : 46.875 FPS (1024 spf)Compression mode : LossyStream size : 108 MiB (10%)Title : Dub_ Blu_ray CEE / Dub_ Blu_ray CEELanguage : RussianDefault : YesAlternate group : 1Encoded date : UTC 2017-05-29 14:28:14Tagged date : UTC 2017-05-29 14:28:41

Audio #2ID : 3Format : AACFormat/Info : Advanced Audio CodecFormat profile : LCCodec ID : 40Duration : 1 h 57 minBit rate mode : VariableBit rate : 128 kb/sMaximum bit rate : 135 kb/sChannel(s) : 2 channelsChannel positions : Front: L RSampling rate : 48.0 kHzFrame rate : 46.875 FPS (1024 spf)Compression mode : LossyStream size : 108 MiB (10%)Title : Original / OriginalLanguage : EnglishDefault : NoAlternate group : 1Encoded date : UTC 2017-05-29 14:28:25Tagged date : UTC 2017-05-29 14:28:41

Text #1ID : 4Format : Timed TextMuxing mode : sbtlCodec ID : tx3gDuration : 1 h 57 minBit rate mode : VariableBit rate : 2 b/sStream size : 1.73 KiB (0%)Title : Forced / ForcedLanguage : RussianDefault : YesForced : NoAlternate group : 2Encoded date : UTC 2017-05-29 14:28:41Tagged date : UTC 2017-05-29 14:28:41

Text #2ID : 5Format : Timed TextMuxing mode : sbtlCodec ID : tx3gDuration : 1 h 57 minBit rate mode : VariableBit rate : 64 b/sStream size : 55.3 KiB (0%)Title : Full / FullLanguage : RussianDefault : NoForced : NoAlternate group : 2Encoded date : UTC 2017-05-29 14:28:41Tagged date : UTC 2017-05-29 14:28:41

Text #3ID : 6Format : Timed TextMuxing mode : sbtlCodec ID : tx3gDuration : 1 h 55 minBit rate mode : VariableBit rate : 56 b/sStream size : 47.3 KiB (0%)Title : Full / FullLanguage : EnglishDefault : NoForced : NoAlternate group : 2Encoded date : UTC 2017-05-29 14:28:41Tagged date : UTC 2017-05-29 14:28:41


Трекер:  [ 29-Май-2017 17:00 ]

  

Скачать .torrent

Размер .torrent файла 11 KB


Размер: 1.04 GB
Хэш (hash) релиза: e2af271961627e1fe32760983d28ed5d07623a26

Еще никто не оставлял запись к записи скачать торрент [VIDEO] На пятьдесят оттенков темнее Fifty Shades Darker . Будь первым!

!Обратная связь