Kiniro no Corda: Blue♪Sky | Adventure Time | By editors of haynes manuals mazda 323 & protegt 1990 thru 2003 haynes repair manual 1st edition

Скачать через торрент [VIDEO] На пятьдесят оттенков темнее Fifty Shades Darker бесплатно русская версия torrent активатор

Статистика раздачи
Размер:  421 MB   |    Зарегистрирован:  1 год 1 месяц   |    .torrent скачан:  22 раза   |   
Раздают:  1  
   
загрузка...
 
Автор Сообщение

Galfimbul

avatar Galfimbul


На пятьдесят оттенков темнее / Fifty Shades Darker (Theatrical Cut)
Год выпуска: 2017
Страна: США / Universal Pictures
Жанр: драма, мелодрама
Продолжительность: 01:57:48
Перевод: Русский Профессиональный (полное дублирование) Blu-ray CEE
Субтитры: нетРежиссер: Джеймс Фоули / James FoleyВ ролях: Дакота Джонсон, Джейми Дорнан, Эрик Джонсон, Элоиза Мамфорд, Белла Хиткот, Рита Ора, Люк Граймс, Виктор Расук, Макс Мартини, Брюс Олтмен и другие .Описание: Пока Кристиан Грей борется со своими внутренними демонами, Анастейша Стил вынуждена противостоять гневу и зависти тех женщин, что были с Кристианом до нее. Релиз группы Качество: HDRip / рип с BDRip 1080p
Формат: MP4
Видео кодек: XviD
Аудио кодек: AAC
Видео: 480х200 AR:2.40 364 kbps 23.976 fps
Аудио: [Russian] 2ch 48 kHz 128 kbps - Профессиональный (полное дублирование) Blu-ray CEE
GeneralComplete name : D:\Torrents\Fifty Shades Darker.(Theatrical Cut).2017.HDRip.XviD.480x.rip by Frost O.S.mp4Format : MPEG-4Format profile : Base MediaCodec ID : isom (isom/iso2)File size : 421 MiBDuration : 1 h 57 minOverall bit rate mode : VariableOverall bit rate : 499 kb/sMovie name : Fifty Shades Darker (Theatrical Cut) 2017 HDRip XviD 480x rip by Frost O SDirector : Джеймс Фоули / James FoleyActor : Дакота Джонсон / Джейми Дорнан / Эрик Джонсон / Элоиза Мамфорд / Белла Хиткот / Рита Ора / Люк Граймс / Виктор Расук / Макс Мартини / Брюс ОлтменGenre : DramaContentType : Short FilmEncoded date : UTC 2017-05-29 14:34:03Tagged date : UTC 2017-05-29 14:35:16Writing application : MkvToMp4 version: 0.224 (x64)Cover : YesComment : rip by Frost O.SLongDescription : Пока Кристиан Грей борется со своими внутренними демонами, Анастейша Стил вынуждена противостоять гневу и зависти тех женщин, что были с Кристианом до нее.

VideoID : 1Format : MPEG-4 VisualFormat profile : Advanced [email protected] settings, BVOP : YesFormat settings, QPel : NoFormat settings, GMC : No warppointsFormat settings, Matrix : CustomCodec ID : 20Duration : 1 h 57 minBit rate mode : VariableBit rate : 364 kb/sMaximum bit rate : 194 Mb/sWidth : 480 pixelsHeight : 200 pixelsDisplay aspect ratio : 2.40:1Frame rate mode : VariableFrame rate : 23.976 (23976/1000) FPSMinimum frame rate : 11.988 FPSMaximum frame rate : 23.976 FPSColor space : YUVChroma subsampling : 4:2:0Bit depth : 8 bitsScan type : ProgressiveCompression mode : LossyBits/(Pixel*Frame) : 0.158Stream size : 306 MiB (73%)Title : avi_GPAC0.5.2_DEV_rev248_g39d5978_masterWriting library : XviD 1.2.1 (UTC 2008-12-04)Language : EnglishTagged date : UTC 2017-05-29 14:34:31

AudioID : 2Format : AACFormat/Info : Advanced Audio CodecFormat profile : LCCodec ID : 40Duration : 1 h 57 minBit rate mode : VariableBit rate : 128 kb/sMaximum bit rate : 135 kb/sChannel(s) : 2 channelsChannel positions : Front: L RSampling rate : 48.0 kHzFrame rate : 46.875 FPS (1024 spf)Compression mode : LossyStream size : 108 MiB (26%)Title : Dub_ Blu_ray CEE / Dub_ Blu_ray CEELanguage : RussianDefault : YesAlternate group : 1Encoded date : UTC 2017-05-29 14:34:27Tagged date : UTC 2017-05-29 14:34:31


Трекер:  [ 29-Май-2017 17:00 ]

  

Скачать .torrent

Размер .torrent файла 17 KB


Размер: 421 MB
Хэш (hash) релиза: bb5180890f606b0850a2d68d1d59e1613c02fa59

Еще никто не оставлял запись к записи скачать торрент [VIDEO] На пятьдесят оттенков темнее Fifty Shades Darker . Будь первым!

!Обратная связь