The God Of Cookery | First Class 2 | Peace (2016)

Скачать через торрент [VIDEO] Ла-Ла Ленд La La Land бесплатно русская версия torrent активатор

Статистика раздачи
Размер:  2.5 GB   |    Зарегистрирован:  1 год 1 месяц   |    .torrent скачан:  69 раз   |   
Раздают:  1  
   
загрузка...
 
Автор Сообщение

Galfimbul

avatar Galfimbul


Ла-Ла Ленд / La La Land
«Бесстрашным мечтателям посвящается…»
Год выпуска: 2016
Оригинальное название: La La Land
Страна: США, Гонконг
Жанр: мюзикл, драма, мелодрама, комедия, музыка
Возраст: 16+

Режиссер: Дэмьен Шазелл / Damien Chazelle

В ролях: Райан Гослинг, Эмма Стоун, Джон Ледженд, Дж.К. Симмонс, Розмари ДеУитт, Финн Уиттрок, Калли Эрнандес, Соноя Мидзуно, Джессика Рот, Том Эверетт Скотт, Джошуа Пенс, Терри Уолтерс

Описание: Это история любви старлетки, которая между прослушиваниями подает кофе состоявшимся кинозвездам, и фанатичного джазового музыканта, вынужденного подрабатывать в заштатных барах. Но пришедший к влюбленным успех начинает подтачивать их отношения.

Продолжительность: 02:08:06
Перевод: Дублированный [Лицензия]
Оригинальная дорожка: есть

Автор рипа:

Качество видео: BDRip Исходник: Blu-Ray Remux (1080p) Формат: mp4
Видео кодек: MPEG-4 AVC Аудио кодек: AAC
Видео: 1280x504 (2.540) at 23.976 fps, AVC at 2 531 kbps avg, 0.164 bit/pixel
Аудио №1 Rus: 48.0 KHz, AAC, 2 ch, 128.0 Kbps
Аудио №2 Eng: 48.0 KHz, AAC, 2 ch, 128.0 Kbps
Субтитры: русские (форсированные, полные), английские (полные)
Навигация по главам: есть
Размер: 2.50 GiB
avs [info]: 1280x504p 1:1 @ 24000/1001 fps (cfr)
x264 [info]: using SAR=1/1
x264 [info]: using cpu capabilities: MMX2 SSE2Fast SSSE3 Cache64
x264 [info]: profile High, level 4.1
x264 [info]: frame I:1021 Avg QP:13.83 size: 93780
x264 [info]: frame P:35149 Avg QP:17.51 size: 29834
x264 [info]: frame B:147681 Avg QP:19.78 size: 8675
x264 [info]: consecutive B-frames: 1.2% 1.3% 4.2% 13.8% 18.9% 39.2% 9.9% 3.3% 2.8% 2.4% 3.0%
x264 [info]: mb I I16..4: 9.7% 70.9% 19.4%
x264 [info]: mb P I16..4: 1.4% 8.0% 1.1% P16..4: 40.7% 24.5% 14.9% 0.0% 0.0% skip: 9.4%
x264 [info]: mb B I16..4: 0.1% 0.8% 0.1% B16..8: 40.9% 7.9% 2.0% direct: 4.8% skip:43.4% L0:45.4% L1:46.7% BI: 7.9%
x264 [info]: 8x8 transform intra:76.9% inter:63.1%
x264 [info]: coded y,uvDC,uvAC intra: 75.8% 82.9% 67.8% inter: 19.2% 26.3% 7.2%
x264 [info]: i16 v,h,dc,p: 43% 17% 8% 33%
x264 [info]: i8 v,h,dc,ddl,ddr,vr,hd,vl,hu: 17% 12% 30% 5% 7% 7% 7% 7% 7%
x264 [info]: i4 v,h,dc,ddl,ddr,vr,hd,vl,hu: 24% 16% 16% 6% 9% 9% 8% 6% 6%
x264 [info]: i8c dc,h,v,p: 52% 18% 19% 11%
x264 [info]: Weighted P-Frames: Y:6.6% UV:4.6%
x264 [info]: ref P L0: 45.4% 10.0% 16.5% 6.7% 5.4% 4.1% 3.6% 1.9% 1.8% 1.6% 1.5% 1.4% 0.1% 0.0%
x264 [info]: ref B L0: 70.0% 11.3% 6.4% 3.2% 2.5% 2.1% 1.7% 1.1% 0.9% 0.6% 0.2%
x264 [info]: ref B L1: 93.3% 6.7%
x264 [info]: kb/s:2530.56
encoded 183851 frames, 2.00 fps, 2530.56 kb/s
GeneralComplete name : ...La-la_lend_2016_KinoGadget.mp4Format : MPEG-4Format profile : Base MediaCodec ID : isom (isom)File size : 2.50 GiBDuration : 2 h 8 minOverall bit rate mode : VariableOverall bit rate : 2 792 kb/sMovie name : Ла-Ла Ленд | KinoGadgetPerformer : Дэмьен ШазеллDirector : Дэмьен ШазеллActor : Райан Гослинг / Эмма Стоун / Джон Ледженд / Дж.К. Симмонс / Розмари ДеУитт / Финн Уиттрок / Калли Эрнандес / Соноя Мидзуно / Джессика Рот / Том Эверетт Скотт / Джошуа Пенс / Терри УолтерсScreenplay by : Дэмьен ШазеллProducer : Фред Бергер / Гари Гилберт / Джордан ХоровицGenre : Comedy, Drama, MusicContentType : Short FilmRecorded date : 2016Encoded date : UTC 2017-05-28 09:02:28Tagged date : UTC 2017-05-28 09:31:18Cover : YesContentRating : mpaa|PG-13|300|LongDescription : Это история любви старлетки, которая между прослушиваниями подает кофе состоявшимся кинозвездам, и фанатичного джазового музыканта, вынужденного подрабатывать в заштатных барах. Но пришедший к влюбленным успех начинает подтачивать их отношения.HDVideo : Yes

VideoID : 1Format : AVCFormat/Info : Advanced Video CodecFormat profile : [email protected] settings, CABAC : YesFormat settings, ReFrames : 12 framesCodec ID : avc1Codec ID/Info : Advanced Video CodingDuration : 2 h 7 minBit rate : 2 531 kb/sMaximum bit rate : 18.7 Mb/sWidth : 1 280 pixelsHeight : 504 pixelsDisplay aspect ratio : 2.540Frame rate mode : ConstantFrame rate : 23.976 (24000/1001) FPSColor space : YUVChroma subsampling : 4:2:0Bit depth : 8 bitsScan type : ProgressiveBits/(Pixel*Frame) : 0.164Stream size : 2.26 GiB (90%)Writing library : x264 core 148 r2744 b97ae06Encoding settings : cabac=1 / ref=12 / deblock=1:-1:-1 / analyse=0x3:0x113 / me=umh / subme=7 / psy=1 / psy_rd=1.00:0.00 / mixed_ref=1 / me_range=32 / chroma_me=1 / trellis=2 / 8x8dct=1 / cqm=0 / deadzone=21,11 / fast_pskip=0 / chroma_qp_offset=-2 / threads=3 / lookahead_threads=1 / sliced_threads=0 / nr=0 / decimate=1 / interlaced=0 / bluray_compat=0 / constrained_intra=0 / bframes=10 / b_pyramid=2 / b_adapt=2 / b_bias=0 / direct=1 / weightb=1 / open_gop=0 / weightp=2 / keyint=250 / keyint_min=25 / scenecut=40 / intra_refresh=0 / rc_lookahead=60 / rc=crf / mbtree=1 / crf=18.0 / qcomp=0.60 / qpmin=0 / qpmax=69 / qpstep=4 / vbv_maxrate=62500 / vbv_bufsize=78125 / crf_max=0.0 / nal_hrd=none / filler=0 / ip_ratio=1.40 / aq=1:1.00Encoded date : UTC 2017-05-28 07:51:15Tagged date : UTC 2017-05-28 09:03:32

Audio #1ID : 2Format : AACFormat/Info : Advanced Audio CodecFormat profile : LCCodec ID : 40Duration : 2 h 8 minBit rate mode : VariableBit rate : 128 kb/sMaximum bit rate : 135 kb/sChannel(s) : 2 channelsChannel positions : Front: L RSampling rate : 48.0 kHzFrame rate : 46.875 FPS (1024 spf)Compression mode : LossyStream size : 117 MiB (5%)Language : RussianEncoded date : UTC 2017-05-26 22:04:13Tagged date : UTC 2017-05-28 09:03:32

Audio #2ID : 3Format : AACFormat/Info : Advanced Audio CodecFormat profile : LCCodec ID : 40Duration : 2 h 7 minBit rate mode : VariableBit rate : 128 kb/sMaximum bit rate : 134 kb/sChannel(s) : 2 channelsChannel positions : Front: L RSampling rate : 48.0 kHzFrame rate : 46.875 FPS (1024 spf)Compression mode : LossyStream size : 117 MiB (5%)Language : EnglishEncoded date : UTC 2017-05-26 22:12:51Tagged date : UTC 2017-05-28 09:03:32

Text #1ID : 4Format : Timed TextCodec ID : tx3gDuration : 1 h 46 minBit rate mode : VariableBit rate : 16 b/sStream size : 12.3 KiB (0%)Language : RussianForced : NoEncoded date : UTC 2017-05-28 09:03:32Tagged date : UTC 2017-05-28 09:03:32

Text #2ID : 5Format : Timed TextCodec ID : tx3gDuration : 2 h 0 minBit rate mode : VariableBit rate : 66 b/sStream size : 57.7 KiB (0%)Language : RussianForced : NoEncoded date : UTC 2017-05-28 09:03:32Tagged date : UTC 2017-05-28 09:03:32

Text #3ID : 6Format : Timed TextCodec ID : tx3gDuration : 1 h 59 minBit rate mode : VariableBit rate : 41 b/sStream size : 36.1 KiB (0%)Language : EnglishForced : NoEncoded date : UTC 2017-05-28 09:03:32Tagged date : UTC 2017-05-28 09:03:32

Menu00:00:00.000 : 00:00:00.00000:07:06.926 : 00:07:06.92600:17:30.883 : 00:17:30.88300:26:05.856 : 00:26:05.85600:31:14.039 : 00:31:14.03900:39:29.075 : 00:39:29.07500:46:17.566 : 00:46:17.56600:52:11.170 : 00:52:11.17000:58:50.360 : 00:58:50.36001:05:58.580 : 01:05:58.58001:13:01.293 : 01:13:01.29301:24:16.301 : 01:24:16.30101:31:50.880 : 01:31:50.88001:41:10.981 : 01:41:10.98101:46:07.611 : 01:46:07.61101:56:19.598 : 01:56:19.598


Трекер:  [ 28-Май-2017 12:00 ]

  

Скачать .torrent

Размер .torrent файла 13 KB


Размер: 2.5 GB
Хэш (hash) релиза: c7aa1a529b472bf11cc9ea896544cdc00b18b86e

Еще никто не оставлял запись к записи скачать торрент [VIDEO] Ла-Ла Ленд La La Land . Будь первым!

!Обратная связь