1x11 Gwitsongmal | тег Ангелы и Демоны | The Pirate Ladies Cove

Скачать через торрент [VIDEO] Коммандос Коммандо бесплатно русская версия torrent активатор

Статистика раздачи
Размер:  410 MB   |    Зарегистрирован:  1 год 1 месяц   |    .torrent скачан:  29 раз   |   
Раздают:  1  
   
загрузка...
 
Автор Сообщение

Galfimbul

avatar Galfimbul


Коммандос / Коммандо / Commando
Год выпуска: 1985
Страна: США
Жанр: боевик, триллер, комедия, приключения
Продолжительность: 01:30:16
Перевод: русский Профессиональный (многоголосый, закадровый) R5
Субтитры: нетРежиссер: Марк Л. Лестер / Mark L. LesterВ ролях: Арнольд Шварценеггер, Рей Дон Чон, Дэн Хедайя, Вернон Уэллс, Джеймс Олсон, Дэвид Патрик Келли, Алисса Милано, Билл Дьюк, Дрю Снайдер, Шарон Виатт, Майкл Делано, Боб Майнор, Майкл Адамс, Гэри Сервантес, Ленни Джулиано, Чарльз Мешак, Челси Филд, Джули Хайек, Хэнк Калиа, Уолтер Скотт и другие .Описание: Полковник в отставке Джон Матрикс — бывший командир спецотряда, участвовавшего в секретных операциях на Ближнем Востоке, СССР и Центральной Америке. Находясь в отличной физической форме и владея знаниями, которые делают его супер-солдатом, полковник в отставке Джон Матрикс живет под другим именем в большом доме со своей дочерью вдали от города.
Но спокойную жизнь нарушает его старый враг, похищая 11-ти летнюю дочь полковника. И вспыхнувший ненавистью Джон Матрикс безжалостно убивает всех, кто становится у него на пути к спасению любимой дочери…
Релиз группы Качество: HDRip / рип с BDRip 720p
Формат: MP4
Видео кодек: XviD
Аудио кодек: AAC
Видео: 480x256 AR:1.88 499 kbps 23.976 fps
Аудио: [Russian] 2ch 48 kHz 128 kbps - [MVO] Профессиональный (многоголосый, закадровый) R5
GeneralComplete name : D:\Torrents\Commando.1985.HDRip.XviD.480x.rip by Frost O.S.mp4Format : MPEG-4Format profile : Base MediaCodec ID : isom (isom/iso2)File size : 410 MiBDuration : 1 h 30 minOverall bit rate mode : VariableOverall bit rate : 635 kb/sMovie name : Commando 1985 HDRip XviD 480x rip by Frost O SDirector : Марк Л. Лестер / Mark L. LesterActor : Арнольд Шварценеггер / Рей Дон Чон / Дэн Хедайя / Вернон Уэллс / Джеймс Олсон / Дэвид Патрик Келли / Алисса Милано / Билл Дьюк / Дрю Снайдер / Шарон Виатт / Майкл Делано / Боб Майнор / Майкл Адамс / Гэри Сервантес / Ленни Джулиано / Чарльз Мешак / Челси Филд / Джули Хайек / Хэнк Калиа / Уолтер СкоттGenre : ActionContentType : Short FilmEncoded date : UTC 2017-05-28 08:05:44Tagged date : UTC 2017-05-28 08:06:08Writing application : MkvToMp4 version: 0.224 (x64)Cover : YesComment : rip by Frost O.SLongDescription : Полковник в отставке Джон Матрикс — бывший командир спецотряда, участвовавшего в секретных операциях на Ближнем Востоке, СССР и Центральной Америке. Находясь в отличной физической форме и владея знаниями, которые делают его супер-солдатом, полковник в отставке Джон Матрикс живет под другим именем в большом доме со своей дочерью вдали от города. Но спокойную жизнь нарушает его старый враг, похищая 11-ти летнюю дочь полковника. И вспыхнувший ненавистью Джон Матрикс безжалостно убивает всех, кто становится у него на пути к спасению любимой дочери…

VideoID : 1Format : MPEG-4 VisualFormat profile : Advanced [email protected] settings, BVOP : YesFormat settings, QPel : YesFormat settings, GMC : No warppointsFormat settings, Matrix : CustomCodec ID : 20Duration : 1 h 30 minBit rate mode : VariableBit rate : 499 kb/sMaximum bit rate : 4 841 kb/sWidth : 480 pixelsHeight : 256 pixelsDisplay aspect ratio : 1.85:1Frame rate mode : ConstantFrame rate : 23.976 (24000/1001) FPSOriginal frame rate : 23.976 (23976/1000) FPSColor space : YUVChroma subsampling : 4:2:0Bit depth : 8 bitsScan type : ProgressiveCompression mode : LossyBits/(Pixel*Frame) : 0.169Stream size : 322 MiB (79%)Title : avi_GPAC0.5.2_DEV_rev248_g39d5978_masterWriting library : XviD 1.2.1 (UTC 2008-12-04)Language : EnglishTagged date : UTC 2017-05-28 08:05:53

AudioID : 2Format : AACFormat/Info : Advanced Audio CodecFormat profile : LCCodec ID : 40Duration : 1 h 30 minBit rate mode : VariableBit rate : 128 kb/sMaximum bit rate : 135 kb/sChannel(s) : 2 channelsChannel positions : Front: L RSampling rate : 48.0 kHzFrame rate : 46.875 FPS (1024 spf)Compression mode : LossyStream size : 82.6 MiB (20%)Title : MVO_ R5 / MVO_ R5Language : RussianDefault : YesAlternate group : 1Encoded date : UTC 2017-05-28 08:05:51Tagged date : UTC 2017-05-28 08:05:53


Трекер:  [ 28-Май-2017 10:30 ]

  

Скачать .torrent

Размер .torrent файла 16 KB


Размер: 410 MB
Хэш (hash) релиза: edf564531f993cd5aefd616e14aede28ec022f47

Торренты, похожие на [VIDEO] Коммандос Коммандо скачать торрент

Форум Название Автор Размер S L Добавлен
Видео (Фильмы/Клипы) ·· [VIDEO] Коммандос / Коммандо / Commando (Марк Л. Лестер / Mark L. Lester) [1985, боевик, триллер, комедия, приключения, BDRip] [MP4, 960x] Galfimbul 22383068342.08 GB 0 0 1495958905

11:08

28-Май-17

Еще никто не оставлял запись к записи скачать торрент [VIDEO] Коммандос Коммандо . Будь первым!

!Обратная связь