NCIS: Los Angeles 7. Sezon | The Orville S01E09 VOSTFR HDTV | Redux Presents: The Vocal Selection Vol.1

Скачать через торрент [VIDEO] Коммандос Коммандо бесплатно русская версия torrent активатор

Статистика раздачи
Размер:  2.08 GB   |    Зарегистрирован:  1 год 1 месяц   |    .torrent скачан:  30 раз   |   
Раздают:  1  
   
загрузка...
 
Автор Сообщение

Galfimbul

avatar Galfimbul


Коммандос / Коммандо / Commando
Год выпуска: 1985
Страна: США
Жанр: боевик, триллер, комедия, приключения
Продолжительность: 01:30:16
Перевод №1: русский Профессиональный (многоголосый, закадровый) R5
Перевод №2: русский Профессиональный (многоголосый, закадровый) Киномания
Перевод №3: русский Профессиональный (многоголосый, закадровый) ОРТ
Перевод №4: украинский Профессиональный (многоголосый, закадровый) 1+1
Перевод №5: русский Профессиональный (двухголосый, закадровый) П.Гланц и И.Королева
Перевод №6: русский Авторский (одноголосый, закадровый) Дмитрий «Гоблин» Пучков
Перевод №7: русский Авторский (одноголосый, закадровый) А. Гаврилов
Перевод №8: русский Авторский (одноголосый, закадровый) В.Горчаков
Перевод №9: русский Авторский (одноголосый, закадровый) Ю.Товбин
Перевод №10: русский Авторский (одноголосый, закадровый) Б.Федоров
Оригинальная дорожка: Есть
Субтитры: Русские (полные по Гоблину), Английские (полные)Режиссер: Марк Л. Лестер / Mark L. LesterВ ролях: Арнольд Шварценеггер, Рей Дон Чон, Дэн Хедайя, Вернон Уэллс, Джеймс Олсон, Дэвид Патрик Келли, Алисса Милано, Билл Дьюк, Дрю Снайдер, Шарон Виатт, Майкл Делано, Боб Майнор, Майкл Адамс, Гэри Сервантес, Ленни Джулиано, Чарльз Мешак, Челси Филд, Джули Хайек, Хэнк Калиа, Уолтер Скотт и другие .Описание: Полковник в отставке Джон Матрикс — бывший командир спецотряда, участвовавшего в секретных операциях на Ближнем Востоке, СССР и Центральной Америке. Находясь в отличной физической форме и владея знаниями, которые делают его супер-солдатом, полковник в отставке Джон Матрикс живет под другим именем в большом доме со своей дочерью вдали от города.
Но спокойную жизнь нарушает его старый враг, похищая 11-ти летнюю дочь полковника. И вспыхнувший ненавистью Джон Матрикс безжалостно убивает всех, кто становится у него на пути к спасению любимой дочери…
Релиз группы Качество: BDRip / рип с Blu-ray disc (custom) 1080p
Формат: MP4
Видео кодек: H.264
Аудио кодек: AAC
Видео: 960x520 AR:1.85 1855 kbps 23.976 fps
Аудио №1: [Russian] 2ch 48 kHz 128 kbps - [MVO] Профессиональный (многоголосый, закадровый) R5
Аудио №2: [Russian] 2ch 48 kHz 128 kbps - [MVO] Профессиональный (многоголосый, закадровый) Киномания
Аудио №3: [Russian] 2ch 48 kHz 128 kbps - [MVO] Профессиональный (многоголосый, закадровый) ОРТ
Аудио №4: [Ukrainian] 2ch 48 kHz 128 kbps - [MVO] Профессиональный (многоголосый, закадровый) 1+1
Аудио №5: [Russian] 2ch 48 kHz 128 kbps - [DVO] Профессиональный (двухголосый, закадровый) П.Гланц и И.Королева
Аудио №6: [Russian] 2ch 48 kHz 128 kbps - [VO] Авторский (одноголосый, закадровый) Дмитрий Пучков (Гоблин)
Аудио №7: [Russian] 2ch 48 kHz 128 kbps - [VO] Авторский (одноголосый, закадровый) А. Гаврилов
Аудио №8: [Russian] 2ch 48 kHz 128 kbps - [VO] Авторский (одноголосый, закадровый) В.Горчаков
Аудио №9: [Russian] 2ch 48 kHz 128 kbps - [VO] Авторский (одноголосый, закадровый) Ю.Товбин
Аудио №10: [Russian] 2ch 48 kHz 128 kbps - [VO] Авторский (одноголосый, закадровый) Б.Федоров
Аудио №11: [English] 2ch 48 kHz 128 kbps - Оригинал (английский)
avs [info]: 960x520p 1:1 @ 24000/1001 fps (cfr)
x264 [info]: using SAR=1/1
x264 [info]: using cpu capabilities: MMX2 SSE2Fast SSSE3 SSE4.2 AVX FMA3 AVX2 LZCNT BMI2
x264 [info]: profile High, level 4.1

x264 [info]: frame I:1253 Avg QP:22.29 size: 45895
x264 [info]: frame P:25546 Avg QP:23.78 size: 20087
x264 [info]: frame B:103051 Avg QP:26.10 size: 6648
x264 [info]: consecutive B-frames: 1.8% 1.6% 4.7% 17.7% 15.6% 39.4% 7.9% 3.9% 3.6% 3.8%
x264 [info]: mb I I16..4: 4.4% 84.2% 11.4%
x264 [info]: mb P I16..4: 0.4% 10.5% 1.1% P16..4: 34.9% 39.2% 8.5% 0.0% 0.0% skip: 5.5%
x264 [info]: mb B I16..4: 0.0% 0.8% 0.1% B16..8: 45.3% 16.8% 2.1% direct: 4.0% skip:30.9% L0:44.9% L1:49.8% BI: 5.2%
x264 [info]: 8x8 transform intra:87.0% inter:67.6%
x264 [info]: coded y,uvDC,uvAC intra: 93.6% 70.3% 21.6% inter: 23.3% 18.1% 0.3%
x264 [info]: i16 v,h,dc,p: 23% 30% 3% 45%
x264 [info]: i8 v,h,dc,ddl,ddr,vr,hd,vl,hu: 9% 6% 5% 11% 16% 14% 15% 11% 13%
x264 [info]: i4 v,h,dc,ddl,ddr,vr,hd,vl,hu: 10% 7% 2% 10% 16% 15% 15% 12% 14%
x264 [info]: i8c dc,h,v,p: 31% 31% 20% 19%
x264 [info]: Weighted P-Frames: Y:27.3% UV:18.3%
x264 [info]: ref P L0: 44.0% 11.9% 18.2% 7.1% 5.6% 3.9% 3.5% 1.9% 1.8% 1.6% 0.5% 0.0%
x264 [info]: ref B L0: 73.6% 11.9% 6.0% 2.9% 2.0% 1.6% 1.3% 0.5% 0.2%
x264 [info]: ref B L1: 93.8% 6.2%
x264 [info]: kb/s:1854.91

encoded 129850 frames, 10.04 fps, 1854.91 kb/s
GeneralComplete name : D:\Torrents\Commando.1985.BDRip.x264.960x.rip by Frost O.S.mp4Format : MPEG-4Format profile : Base MediaCodec ID : isom (isom/avc1/iso2)File size : 2.08 GiBDuration : 1 h 30 minOverall bit rate mode : VariableOverall bit rate : 3 306 kb/sMovie name : Commando 1985 BDRip x264 960x rip by Frost O SDirector : Марк Л. Лестер / Mark L. LesterActor : Арнольд Шварценеггер / Рей Дон Чон / Дэн Хедайя / Вернон Уэллс / Джеймс Олсон / Дэвид Патрик Келли / Алисса Милано / Билл Дьюк / Дрю Снайдер / Шарон Виатт / Майкл Делано / Боб Майнор / Майкл Адамс / Гэри Сервантес / Ленни Джулиано / Чарльз Мешак / Челси Филд / Джули Хайек / Хэнк Калиа / Уолтер СкоттGenre : ActionContentType : Short FilmEncoded date : UTC 2017-05-28 07:46:32Tagged date : UTC 2017-05-28 07:55:16Writing application : MkvToMp4 version: 0.224 (x64)Cover : YesComment : rip by Frost O.SLongDescription : Полковник в отставке Джон Матрикс — бывший командир спецотряда, участвовавшего в секретных операциях на Ближнем Востоке, СССР и Центральной Америке. Находясь в отличной физической форме и владея знаниями, которые делают его супер-солдатом, полковник в отставке Джон Матрикс живет под другим именем в большом доме со своей дочерью вдали от города. Но спокойную жизнь нарушает его старый враг, похищая 11-ти летнюю дочь полковника. И вспыхнувший ненавистью Джон Матрикс безжалостно убивает всех, кто становится у него на пути к спасению любимой дочери…

VideoID : 1Format : AVCFormat/Info : Advanced Video CodecFormat profile : [email protected] settings, CABAC : YesFormat settings, ReFrames : 10 framesCodec ID : avc1Codec ID/Info : Advanced Video CodingDuration : 1 h 30 minBit rate : 1 855 kb/sMaximum bit rate : 7 260 kb/sWidth : 960 pixelsHeight : 520 pixelsDisplay aspect ratio : 1.85:1Frame rate mode : ConstantFrame rate : 23.976 (24000/1001) FPSColor space : YUVChroma subsampling : 4:2:0Bit depth : 8 bitsScan type : ProgressiveBits/(Pixel*Frame) : 0.155Stream size : 1.17 GiB (56%)Writing library : x264 core 148 r2744 b97ae06Encoding settings : cabac=1 / ref=10 / deblock=1:-3:-2 / analyse=0x3:0x113 / me=umh / subme=11 / psy=1 / psy_rd=1.10:0.15 / mixed_ref=1 / me_range=32 / chroma_me=1 / trellis=2 / 8x8dct=1 / cqm=0 / deadzone=21,11 / fast_pskip=1 / chroma_qp_offset=-3 / threads=6 / lookahead_threads=1 / sliced_threads=0 / nr=0 / decimate=1 / interlaced=0 / bluray_compat=0 / constrained_intra=0 / bframes=9 / b_pyramid=2 / b_adapt=2 / b_bias=0 / direct=1 / weightb=1 / open_gop=0 / weightp=2 / keyint=250 / keyint_min=23 / scenecut=40 / intra_refresh=0 / rc=crf / mbtree=0 / crf=22.2 / qcomp=0.60 / qpmin=0 / qpmax=69 / qpstep=4 / ip_ratio=1.40 / pb_ratio=1.30 / aq=2:1.00Language : EnglishEncoded date : UTC 2017-05-28 07:46:32Tagged date : UTC 2017-05-28 07:49:36Color range : LimitedColor primaries : BT.709Transfer characteristics : BT.709Matrix coefficients : BT.709

Audio #1ID : 2Format : AACFormat/Info : Advanced Audio CodecFormat profile : LCCodec ID : 40Duration : 1 h 30 minBit rate mode : VariableBit rate : 128 kb/sMaximum bit rate : 135 kb/sChannel(s) : 2 channelsChannel positions : Front: L RSampling rate : 48.0 kHzFrame rate : 46.875 FPS (1024 spf)Compression mode : LossyStream size : 82.6 MiB (4%)Title : MVO_ R5 / MVO_ R5Language : RussianDefault : YesAlternate group : 1Encoded date : UTC 2017-05-28 07:48:03Tagged date : UTC 2017-05-28 07:49:36

Audio #2ID : 3Format : AACFormat/Info : Advanced Audio CodecFormat profile : LCCodec ID : 40Duration : 1 h 30 minBit rate mode : VariableBit rate : 128 kb/sMaximum bit rate : 135 kb/sChannel(s) : 2 channelsChannel positions : Front: L RSampling rate : 48.0 kHzFrame rate : 46.875 FPS (1024 spf)Compression mode : LossyStream size : 82.6 MiB (4%)Title : MVO_ Kinomaniya / MVO_ KinomaniyaLanguage : RussianDefault : NoAlternate group : 1Encoded date : UTC 2017-05-28 07:48:10Tagged date : UTC 2017-05-28 07:49:36

Audio #3ID : 4Format : AACFormat/Info : Advanced Audio CodecFormat profile : LCCodec ID : 40Duration : 1 h 30 minBit rate mode : VariableBit rate : 128 kb/sMaximum bit rate : 135 kb/sChannel(s) : 2 channelsChannel positions : Front: L RSampling rate : 48.0 kHzFrame rate : 46.875 FPS (1024 spf)Compression mode : LossyStream size : 82.6 MiB (4%)Title : MVO_ OPT / MVO_ OPTLanguage : RussianDefault : NoAlternate group : 1Encoded date : UTC 2017-05-28 07:48:17Tagged date : UTC 2017-05-28 07:49:36

Audio #4ID : 5Format : AACFormat/Info : Advanced Audio CodecFormat profile : LCCodec ID : 40Duration : 1 h 30 minBit rate mode : VariableBit rate : 128 kb/sMaximum bit rate : 135 kb/sChannel(s) : 2 channelsChannel positions : Front: L RSampling rate : 48.0 kHzFrame rate : 46.875 FPS (1024 spf)Compression mode : LossyStream size : 82.6 MiB (4%)Title : MVO_ 1_1 / MVO_ 1_1Language : UkrainianDefault : NoAlternate group : 1Encoded date : UTC 2017-05-28 07:48:24Tagged date : UTC 2017-05-28 07:49:36

Audio #5ID : 6Format : AACFormat/Info : Advanced Audio CodecFormat profile : LCCodec ID : 40Duration : 1 h 30 minBit rate mode : VariableBit rate : 128 kb/sMaximum bit rate : 135 kb/sChannel(s) : 2 channelsChannel positions : Front: L RSampling rate : 48.0 kHzFrame rate : 46.875 FPS (1024 spf)Compression mode : LossyStream size : 82.6 MiB (4%)Title : DVO_ Glanz_Koroleva / DVO_ Glanz_KorolevaLanguage : RussianDefault : NoAlternate group : 1Encoded date : UTC 2017-05-28 07:48:38Tagged date : UTC 2017-05-28 07:49:36

Audio #6ID : 7Format : AACFormat/Info : Advanced Audio CodecFormat profile : LCCodec ID : 40Duration : 1 h 30 minBit rate mode : VariableBit rate : 128 kb/sMaximum bit rate : 135 kb/sChannel(s) : 2 channelsChannel positions : Front: L RSampling rate : 48.0 kHzFrame rate : 46.875 FPS (1024 spf)Compression mode : LossyStream size : 82.6 MiB (4%)Title : VO_ Goblin / VO_ GoblinLanguage : RussianDefault : NoAlternate group : 1Encoded date : UTC 2017-05-28 07:48:44Tagged date : UTC 2017-05-28 07:49:36

Audio #7ID : 8Format : AACFormat/Info : Advanced Audio CodecFormat profile : LCCodec ID : 40Duration : 1 h 30 minBit rate mode : VariableBit rate : 128 kb/sMaximum bit rate : 135 kb/sChannel(s) : 2 channelsChannel positions : Front: L RSampling rate : 48.0 kHzFrame rate : 46.875 FPS (1024 spf)Compression mode : LossyStream size : 82.6 MiB (4%)Title : VO_ Gavrilov / VO_ GavrilovLanguage : RussianDefault : NoAlternate group : 1Encoded date : UTC 2017-05-28 07:48:51Tagged date : UTC 2017-05-28 07:49:36

Audio #8ID : 9Format : AACFormat/Info : Advanced Audio CodecFormat profile : LCCodec ID : 40Duration : 1 h 30 minBit rate mode : VariableBit rate : 128 kb/sMaximum bit rate : 135 kb/sChannel(s) : 2 channelsChannel positions : Front: L RSampling rate : 48.0 kHzFrame rate : 46.875 FPS (1024 spf)Compression mode : LossyStream size : 82.6 MiB (4%)Title : VO_ Gorchakov / VO_ GorchakovLanguage : RussianDefault : NoAlternate group : 1Encoded date : UTC 2017-05-28 07:49:00Tagged date : UTC 2017-05-28 07:49:36

Audio #9ID : 10Format : AACFormat/Info : Advanced Audio CodecFormat profile : LCCodec ID : 40Duration : 1 h 30 minBit rate mode : VariableBit rate : 128 kb/sMaximum bit rate : 135 kb/sChannel(s) : 2 channelsChannel positions : Front: L RSampling rate : 48.0 kHzFrame rate : 46.875 FPS (1024 spf)Compression mode : LossyStream size : 82.6 MiB (4%)Title : VO_ Tovbin / VO_ TovbinLanguage : RussianDefault : NoAlternate group : 1Encoded date : UTC 2017-05-28 07:49:08Tagged date : UTC 2017-05-28 07:49:36

Audio #10ID : 11Format : AACFormat/Info : Advanced Audio CodecFormat profile : LCCodec ID : 40Duration : 1 h 30 minBit rate mode : VariableBit rate : 128 kb/sMaximum bit rate : 135 kb/sChannel(s) : 2 channelsChannel positions : Front: L RSampling rate : 48.0 kHzFrame rate : 46.875 FPS (1024 spf)Compression mode : LossyStream size : 82.6 MiB (4%)Title : VO_ Fedorov / VO_ FedorovLanguage : RussianDefault : NoAlternate group : 1Encoded date : UTC 2017-05-28 07:49:21Tagged date : UTC 2017-05-28 07:49:36

Audio #11ID : 12Format : AACFormat/Info : Advanced Audio CodecFormat profile : LCCodec ID : 40Duration : 1 h 30 minBit rate mode : VariableBit rate : 128 kb/sMaximum bit rate : 135 kb/sChannel(s) : 2 channelsChannel positions : Front: L RSampling rate : 48.0 kHzFrame rate : 46.875 FPS (1024 spf)Compression mode : LossyStream size : 82.6 MiB (4%)Title : Original / OriginalLanguage : EnglishDefault : NoAlternate group : 1Encoded date : UTC 2017-05-28 07:49:27Tagged date : UTC 2017-05-28 07:49:36

Text #1ID : 13Format : Timed TextMuxing mode : sbtlCodec ID : tx3gDuration : 1 h 26 minBit rate mode : VariableBit rate : 49 b/sStream size : 30.7 KiB (0%)Title : Full_ Goblin / Full_ GoblinLanguage : RussianDefault : YesForced : NoAlternate group : 2Encoded date : UTC 2017-05-28 07:49:36Tagged date : UTC 2017-05-28 07:49:36

Text #2ID : 14Format : Timed TextMuxing mode : sbtlCodec ID : tx3gDuration : 1 h 30 minBit rate mode : VariableBit rate : 30 b/sStream size : 20.0 KiB (0%)Title : Full / FullLanguage : EnglishDefault : NoForced : NoAlternate group : 2Encoded date : UTC 2017-05-28 07:49:36Tagged date : UTC 2017-05-28 07:49:36


Трекер:  [ 28-Май-2017 10:00 ]

  

Скачать .torrent

Размер .torrent файла 11 KB


Размер: 2.08 GB
Хэш (hash) релиза: 1ff9bafa0b2bcd9d7371ddeef13b6783b2c5b3fe

Торренты, похожие на [VIDEO] Коммандос Коммандо скачать торрент

Форум Название Автор Размер S L Добавлен
Видео (Фильмы/Клипы) ·· [VIDEO] Коммандос / Коммандо / Commando (Марк Л. Лестер / Mark L. Lester) [1985, боевик, триллер, комедия, приключения, HDRip] [MP4, 480x] MVO R5 Galfimbul 430135370410 MB 0 0 1495960776

11:39

28-Май-17

Еще никто не оставлял запись к записи скачать торрент [VIDEO] Коммандос Коммандо . Будь первым!

!Обратная связь