Сверхъестественное / Supernatural [S11] (2015) BDRip-HEVC 720p | NovaFilm
Copy Protect v2 0 5 + Crack

Скачать через торрент [VIDEO] Три икса: Мировое господство xXx: Return of Xander Cage бесплатно русская версия torrent активатор

Статистика раздачи
Размер:  1.5 GB   |    Зарегистрирован:  10 месяцев   |    .torrent скачан:  38 раз   |   
Раздают:  1  
   
загрузка...
 
Автор Сообщение

Galfimbul

avatar Galfimbul


Три икса: Мировое господство / xXx: Return of Xander Cage
Год выпуска: 2017
Страна: США / Maple Cage Productions, One Race Films
Жанр: боевик, триллер, приключения
Продолжительность: 01:46:46
Перевод: Русский Профессиональный (полное дублирование) Blu-ray EUR
Оригинальная дорожка: Есть
Субтитры: русские (форсированные, полные), английские (форсированные, полные)Режиссер: Ди Джей Карузо / D.J. CarusoВ ролях: Вин Дизель, Донни Йен, Дипика Падукон, Крис У, Руби Роуз, Тони Джа, Нина Добрев, Рори МакКанн, Тони Коллетт, Сэмюэл Л. Джексон и другие .Описание: Ксандер Кейдж спустя годы возвращается из добровольного изгнания и попадает в безумный водоворот событий. Он собирает команду безбашенных экстремалов, вместе с которыми ему предстоит найти мощнейшее секретное оружие — «Ящик Пандоры». Действовать нужно быстро: за разработкой охотятся опасные головорезы. Ставки в смертельной игре повышаются, когда выясняется, что мировые правительства вовлечены в кровавый заговор, а на кону — судьба мира. Релиз группы Качество: BDRip / рип с Blu-ray Disc 2D [EUR]
Формат: MP4
Видео кодек: H.264
Аудио кодек: AAC
Видео: 960х400 AR:2.40 1740 kbps 23.976 fps
Аудио №1: [Russian] 2ch 48 kHz 128 kbps - Профессиональный (полное дублирование) Blu-ray EUR
Аудио №2: [English] 2ch 48 kHz 128 kbps - Оригинал
avs [info]: 960x400p 1:1 @ 2997/125 fps (cfr)
x264 [info]: using SAR=1/1
x264 [info]: using cpu capabilities: MMX2 SSE2Fast SSSE3 SSE4.2 AVX FMA3 AVX2 LZCNT BMI2
x264 [info]: profile High, level 4.1

x264 [info]: frame I:1748 Avg QP:17.52 size: 59321
x264 [info]: frame P:42384 Avg QP:21.29 size: 16229
x264 [info]: frame B:109465 Avg QP:23.34 size: 5497
x264 [info]: consecutive B-frames: 6.1% 6.0% 13.9% 28.3% 16.1% 22.4% 3.9% 1.9% 1.4%
x264 [info]: mb I I16..4: 6.1% 68.0% 25.9%
x264 [info]: mb P I16..4: 1.5% 11.4% 2.3% P16..4: 32.9% 34.6% 9.7% 0.0% 0.0% skip: 7.5%
x264 [info]: mb B I16..4: 0.1% 1.3% 0.3% B16..8: 33.6% 18.0% 2.9% direct: 4.4% skip:39.4% L0:44.1% L1:43.9% BI:12.0%
x264 [info]: 8x8 transform intra:73.8% inter:61.9%
x264 [info]: direct mvs spatial:96.8% temporal:3.2%
x264 [info]: coded y,uvDC,uvAC intra: 84.3% 84.0% 60.4% inter: 21.3% 20.6% 9.4%
x264 [info]: i16 v,h,dc,p: 17% 18% 6% 59%
x264 [info]: i8 v,h,dc,ddl,ddr,vr,hd,vl,hu: 7% 8% 5% 10% 15% 14% 15% 12% 14%
x264 [info]: i4 v,h,dc,ddl,ddr,vr,hd,vl,hu: 9% 10% 5% 9% 15% 13% 14% 11% 14%
x264 [info]: i8c dc,h,v,p: 37% 25% 18% 20%
x264 [info]: Weighted P-Frames: Y:15.6% UV:11.0%
x264 [info]: ref P L0: 52.0% 10.6% 16.8% 6.8% 4.6% 3.4% 2.9% 2.5% 0.4% 0.1%
x264 [info]: ref B L0: 76.8% 10.5% 5.2% 3.7% 2.2% 1.1% 0.4%
x264 [info]: ref B L1: 95.0% 5.0%
x264 [info]: kb/s:1739.83

encoded 153597 frames, 15.87 fps, 1739.83 kb/s
GeneralComplete name : D:\Torrents\xXx Return of Xander Cage.2017.BDRip.x264.960x.rip by Frost O.S.mp4Format : MPEG-4Format profile : Base MediaCodec ID : isom (isom/avc1/iso2)File size : 1.50 GiBDuration : 1 h 46 minOverall bit rate mode : VariableOverall bit rate : 2 008 kb/sMovie name : xXx Return of Xander Cage 2017 BDRip x264 960x rip by Frost O SDirector : Ди Джей Карузо / D.J. CarusoActor : Вин Дизель / Донни Йен / Дипика Падукон / Крис У / Руби Роуз / Тони Джа / Нина Добрев / Рори МакКанн / Тони Коллетт / Сэмюэл Л. ДжексонGenre : ActionContentType : Short FilmEncoded date : UTC 2017-05-26 16:55:26Tagged date : UTC 2017-05-26 16:57:52Writing application : MkvToMp4 version: 0.224 (x64)Cover : YesComment : rip by Frost O.SLongDescription : Ксандер Кейдж спустя годы возвращается из добровольного изгнания и попадает в безумный водоворот событий. Он собирает команду безбашенных экстремалов, вместе с которыми ему предстоит найти мощнейшее секретное оружие — «Ящик Пандоры». Действовать нужно быстро: за разработкой охотятся опасные головорезы. Ставки в смертельной игре повышаются, когда выясняется, что мировые правительства вовлечены в кровавый заговор, а на кону — судьба мира.

VideoID : 1Format : AVCFormat/Info : Advanced Video CodecFormat profile : [email protected] settings, CABAC : YesFormat settings, ReFrames : 8 framesCodec ID : avc1Codec ID/Info : Advanced Video CodingDuration : 1 h 46 minBit rate : 1 740 kb/sMaximum bit rate : 10.3 Mb/sWidth : 960 pixelsHeight : 400 pixelsDisplay aspect ratio : 2.40:1Frame rate mode : ConstantFrame rate : 23.976 (24000/1001) FPSOriginal frame rate : 23.976 (23976/1000) FPSColor space : YUVChroma subsampling : 4:2:0Bit depth : 8 bitsScan type : ProgressiveBits/(Pixel*Frame) : 0.189Stream size : 1.30 GiB (87%)Writing library : x264 core 148 r2744 b97ae06Encoding settings : cabac=1 / ref=8 / deblock=1:-1:-1 / analyse=0x3:0x113 / me=umh / subme=11 / psy=1 / psy_rd=0.90:0.00 / mixed_ref=1 / me_range=32 / chroma_me=1 / trellis=2 / 8x8dct=1 / cqm=0 / deadzone=21,11 / fast_pskip=0 / chroma_qp_offset=-2 / threads=6 / lookahead_threads=1 / sliced_threads=0 / nr=0 / decimate=0 / interlaced=0 / bluray_compat=0 / constrained_intra=0 / bframes=8 / b_pyramid=2 / b_adapt=2 / b_bias=0 / direct=3 / weightb=1 / open_gop=0 / weightp=2 / keyint=250 / keyint_min=23 / scenecut=40 / intra_refresh=0 / rc=2pass / mbtree=0 / bitrate=1740 / ratetol=1.0 / qcomp=0.70 / qpmin=0 / qpmax=69 / qpstep=4 / cplxblur=20.0 / qblur=0.5 / ip_ratio=1.40 / pb_ratio=1.30 / aq=2:0.90Language : EnglishEncoded date : UTC 2017-05-26 16:55:26Tagged date : UTC 2017-05-26 16:56:27Color range : LimitedColor primaries : BT.709Transfer characteristics : BT.709Matrix coefficients : BT.709

Audio #1ID : 2Format : AACFormat/Info : Advanced Audio CodecFormat profile : LCCodec ID : 40Duration : 1 h 46 minBit rate mode : VariableBit rate : 128 kb/sMaximum bit rate : 135 kb/sChannel(s) : 2 channelsChannel positions : Front: L RSampling rate : 48.0 kHzFrame rate : 46.875 FPS (1024 spf)Compression mode : LossyStream size : 97.8 MiB (6%)Title : Dub_ Blu_ray EUR / Dub_ Blu_ray EURLanguage : RussianDefault : YesAlternate group : 1Encoded date : UTC 2017-05-26 16:56:12Tagged date : UTC 2017-05-26 16:56:27

Audio #2ID : 3Format : AACFormat/Info : Advanced Audio CodecFormat profile : LCCodec ID : 40Duration : 1 h 46 minBit rate mode : VariableBit rate : 128 kb/sMaximum bit rate : 135 kb/sChannel(s) : 2 channelsChannel positions : Front: L RSampling rate : 48.0 kHzFrame rate : 46.875 FPS (1024 spf)Compression mode : LossyStream size : 97.8 MiB (6%)Title : Original / OriginalLanguage : EnglishDefault : NoAlternate group : 1Encoded date : UTC 2017-05-26 16:56:20Tagged date : UTC 2017-05-26 16:56:27

Text #1ID : 4Format : Timed TextMuxing mode : sbtlCodec ID : tx3gDuration : 1 h 28 minBit rate mode : VariableBit rate : 4 b/sStream size : 2.30 KiB (0%)Title : forced / forcedLanguage : RussianDefault : YesForced : NoAlternate group : 2Encoded date : UTC 2017-05-26 16:56:27Tagged date : UTC 2017-05-26 16:56:27

Text #2ID : 5Format : Timed TextMuxing mode : sbtlCodec ID : tx3gDuration : 1 h 39 minBit rate mode : VariableBit rate : 78 b/sStream size : 56.9 KiB (0%)Title : full / fullLanguage : RussianDefault : NoForced : NoAlternate group : 2Encoded date : UTC 2017-05-26 16:56:27Tagged date : UTC 2017-05-26 16:56:27

Text #3ID : 6Format : Timed TextMuxing mode : sbtlCodec ID : tx3gDuration : 50 min 57 sBit rate mode : VariableBit rate : 1 b/sStream size : 352 Bytes (0%)Title : forced / forcedLanguage : EnglishDefault : NoForced : NoAlternate group : 2Encoded date : UTC 2017-05-26 16:56:27Tagged date : UTC 2017-05-26 16:56:27

Text #4ID : 7Format : Timed TextMuxing mode : sbtlCodec ID : tx3gDuration : 1 h 39 minBit rate mode : VariableBit rate : 55 b/sStream size : 39.9 KiB (0%)Title : full / fullLanguage : EnglishDefault : NoForced : NoAlternate group : 2Encoded date : UTC 2017-05-26 16:56:27Tagged date : UTC 2017-05-26 16:56:27


Трекер:  [ 26-Май-2017 20:00 ]

  

Скачать .torrent

Размер .torrent файла 15 KB


Размер: 1.5 GB
Хэш (hash) релиза: c06776c9e8f7f759138c39a3a491fb2a63bad1f1

Торренты, похожие на [VIDEO] Три икса: Мировое господство xXx: Return of Xander Cage скачать торрент

Форум Название Автор Размер S L Добавлен
Видео (Фильмы/Клипы) ·· [VIDEO] Три икса: Мировое господство / xXx: Return of Xander Cage (Ди Джей Карузо / D.J. Caruso) [2017, боевик, триллер, приключения, HDRip] [MP4, 480x] Dub Blu-ray CEE Galfimbul 508267489485 MB 0 0 1495822963

21:22

26-Май-17

Еще никто не оставлял запись к записи скачать торрент [VIDEO] Три икса: Мировое господство xXx: Return of Xander Cage . Будь первым!

!Обратная связь