ios White Boy Rick (2018) descarga | Photography and Spirit Reaktion Books Exposures by John Harvey | Health Fitness

Скачать через торрент [VIDEO] Три икса: Мировое господство xXx: Return of Xander Cage бесплатно русская версия torrent активатор

Статистика раздачи
Размер:  485 MB   |    Зарегистрирован:  1 год 1 месяц   |    .torrent скачан:  27 раз   |   
Раздают:  1  
   
загрузка...
 
Автор Сообщение

Galfimbul

avatar Galfimbul


Три икса: Мировое господство / xXx: Return of Xander Cage
Год выпуска: 2017
Страна: США / Maple Cage Productions, One Race Films
Жанр: боевик, триллер, приключения
Продолжительность: 01:46:46
Перевод: Русский Профессиональный (полное дублирование) Blu-ray CEE
Субтитры: нетРежиссер: Ди Джей Карузо / D.J. CarusoВ ролях: Вин Дизель, Донни Йен, Дипика Падукон, Крис У, Руби Роуз, Тони Джа, Нина Добрев, Рори МакКанн, Тони Коллетт, Сэмюэл Л. Джексон и другие .Описание: Ксандер Кейдж спустя годы возвращается из добровольного изгнания и попадает в безумный водоворот событий. Он собирает команду безбашенных экстремалов, вместе с которыми ему предстоит найти мощнейшее секретное оружие — «Ящик Пандоры». Действовать нужно быстро: за разработкой охотятся опасные головорезы. Ставки в смертельной игре повышаются, когда выясняется, что мировые правительства вовлечены в кровавый заговор, а на кону — судьба мира. Релиз группы Качество: HDRip / рип с BDRip 720p
Формат: MP4
Видео кодек: XviD
Аудио кодек: AAC
Видео: 480х200 AR:2.40 499 kbps 23.976 fps
Аудио: [Russian] 2ch 48 kHz 128 kbps - Профессиональный (полное дублирование) Blu-ray CEE
GeneralComplete name : D:\Torrents\xXx Return of Xander Cage.2017.HDRip.XviD.480x.rip by Frost O.S.mp4Format : MPEG-4Format profile : Base MediaCodec ID : isom (isom/iso2)File size : 485 MiBDuration : 1 h 46 minOverall bit rate mode : VariableOverall bit rate : 635 kb/sMovie name : xXx Return of Xander Cage 2017 HDRip XviD 480x rip by Frost O SDirector : Ди Джей Карузо / D.J. CarusoActor : Вин Дизель / Донни Йен / Дипика Падукон / Крис У / Руби Роуз / Тони Джа / Нина Добрев / Рори МакКанн / Тони Коллетт / Сэмюэл Л. ДжексонGenre : ActionContentType : Short FilmEncoded date : UTC 2017-05-26 17:04:17Tagged date : UTC 2017-05-26 17:04:55Writing application : MkvToMp4 version: 0.224 (x64)Cover : YesComment : rip by Frost O.SLongDescription : Ксандер Кейдж спустя годы возвращается из добровольного изгнания и попадает в безумный водоворот событий. Он собирает команду безбашенных экстремалов, вместе с которыми ему предстоит найти мощнейшее секретное оружие — «Ящик Пандоры». Действовать нужно быстро: за разработкой охотятся опасные головорезы. Ставки в смертельной игре повышаются, когда выясняется, что мировые правительства вовлечены в кровавый заговор, а на кону — судьба мира.

VideoID : 1Format : MPEG-4 VisualFormat profile : Advanced [email protected] settings, BVOP : YesFormat settings, QPel : YesFormat settings, GMC : No warppointsFormat settings, Matrix : CustomCodec ID : 20Duration : 1 h 46 minBit rate mode : VariableBit rate : 499 kb/sMaximum bit rate : 193 Mb/sWidth : 480 pixelsHeight : 200 pixelsDisplay aspect ratio : 2.40:1Frame rate mode : VariableFrame rate : 23.976 (23976/1000) FPSMinimum frame rate : 11.988 FPSMaximum frame rate : 23.976 FPSColor space : YUVChroma subsampling : 4:2:0Bit depth : 8 bitsScan type : ProgressiveCompression mode : LossyBits/(Pixel*Frame) : 0.217Stream size : 381 MiB (79%)Title : avi_GPAC0.5.2_DEV_rev248_g39d5978_masterWriting library : XviD 1.2.1 (UTC 2008-12-04)Language : EnglishTagged date : UTC 2017-05-26 17:04:27

AudioID : 2Format : AACFormat/Info : Advanced Audio CodecFormat profile : LCCodec ID : 40Duration : 1 h 46 minBit rate mode : VariableBit rate : 128 kb/sMaximum bit rate : 135 kb/sChannel(s) : 2 channelsChannel positions : Front: L RSampling rate : 48.0 kHzFrame rate : 46.875 FPS (1024 spf)Compression mode : LossyStream size : 97.8 MiB (20%)Title : Dub_ Blu_ray CEE / Dub_ Blu_ray CEELanguage : RussianDefault : YesAlternate group : 1Encoded date : UTC 2017-05-26 17:04:25Tagged date : UTC 2017-05-26 17:04:27


Трекер:  [ 26-Май-2017 20:00 ]

  

Скачать .torrent

Размер .torrent файла 19 KB


Размер: 485 MB
Хэш (hash) релиза: fe266f2968d8387f7b9214288f3987c778100618

Торренты, похожие на [VIDEO] Три икса: Мировое господство xXx: Return of Xander Cage скачать торрент

Форум Название Автор Размер S L Добавлен
Видео (Фильмы/Клипы) ·· [VIDEO] Три икса: Мировое господство / xXx: Return of Xander Cage (Ди Джей Карузо / D.J. Caruso) [2017, боевик, триллер, приключения, BDRip] [MP4, 960x] Dub Blu-ray EUR, Original, Sub (rus, eng) Galfimbul 16076496331.5 GB 0 0 1495822977

21:22

26-Май-17

Еще никто не оставлял запись к записи скачать торрент [VIDEO] Три икса: Мировое господство xXx: Return of Xander Cage . Будь первым!

!Обратная связь