Un passo di troppo | Matt Houston | 99 Cahaya di Langit Eropa: the Final Edition (2014)

Скачать через торрент [MULT] Три богатыря: Коллекция бесплатно русская версия torrent активатор

Статистика раздачи
Размер:  7.74 GB   |    Зарегистрирован:  1 год 1 месяц   |    .torrent скачан:  75 раз   |   
Раздают:  1  
   
загрузка...
 
Автор Сообщение

Galfimbul

avatar Galfimbul


Три богатыря: Коллекция
Алеша Попович и Тугарин Змей
Год выпуска: 2004
Страна: Россия
Жанр: мультфильм
Продолжительность: 01:18:51
Перевод: не требуется
Cубтитры: нетРежиссер: Константин БронзитРоли озвучивали: Олег Куликович, Лия Медведева, Дмитрий Высоцкий, Анатолий Петров, Наталья Данилова, Сергей Маковецкий, Иван Краско, Татьяна Иванова, Михаил Черняк, Константин Бронзит, Елена ШульманОписание: В древнем русском городе Ростове родился в поповской семье сын. Назвали его родители Алешей. А когда он вырос и стал богатырем, то совершил такие подвиги, что стал героем русских былин Алешей Поповичем. Только подвиги его начались с конфуза… Подступила к Ростову тугарская вражеская орда во главе с Тугарином Змеем и потребовала, чтобы жители города выплатили дань. Поповский сын предложил план действий. Народ этот план одобрил и собрал гору золота. Алеша же умудрился собственный план "благополучно" провалить, да с каким треском! И золото упустил, и полгорода разрушил. После чего поклялся — Тугарина Змея изловить и золото вернуть. Отправился Алеша Попович в путь вместе с дедом Тихоном, который мальчика вырастил и воспитал, а чуть позже компанию им составили говорящий конь Юлий, купленный у цыган, почти 16-летняя красавица Любава, ее бабка и их ослик Моисей… Релиз группы Качество: BDRip / рип с Blu-ray Disc 1080p
Формат: MP4
Видео кодек: H.264
Аудио кодек: AAC
Видео: 1280x690 AR:1.86 1700 kbps 23.976 fps
Аудио: 2ch 48 kHz 128 kbps
<div class="sp-wrap">
<div class="sp-head folded">Logx264</div>
<div class="sp-body">avs [info]: 1280x690p 1:1 @ 2997/125 fps (cfr)
x264 [info]: using SAR=1/1
x264 [warning]: DPB size (11 frames, 38720 mbs) > level limit (9 frames, 32768 mbs)
x264 [info]: using cpu capabilities: MMX2 SSE2Fast SSSE3 SSE4.2 AVX FMA3 AVX2 LZCNT BMI2
x264 [info]: profile High, level 4.1

x264 [info]: frame I:1046 Avg QP: 9.73 size:137650
x264 [info]: frame P:31023 Avg QP:18.06 size: 17398
x264 [info]: frame B:81253 Avg QP:21.34 size: 3945
x264 [info]: consecutive B-frames: 5.8% 5.1% 12.7% 40.0% 14.5% 7.4% 3.0% 2.1% 2.9% 2.3% 1.8% 2.4%
x264 [info]: mb I I16..4: 21.9% 18.9% 59.2%
x264 [info]: mb P I16..4: 0.9% 2.7% 3.0% P16..4: 18.1% 11.3% 5.9% 0.0% 0.0% skip:58.1%
x264 [info]: mb B I16..4: 0.1% 0.3% 0.3% B16..8: 12.5% 3.9% 1.3% direct: 0.6% skip:80.9% L0:50.2% L1:43.6% BI: 6.2%
x264 [info]: 8x8 transform intra:35.3% inter:24.0%
x264 [info]: direct mvs spatial:92.8% temporal:7.2%
x264 [info]: coded y,uvDC,uvAC intra: 47.5% 61.3% 54.2% inter: 4.6% 5.4% 4.4%
x264 [info]: i16 v,h,dc,p: 59% 29% 5% 7%
x264 [info]: i8 v,h,dc,ddl,ddr,vr,hd,vl,hu: 17% 18% 34% 4% 5% 5% 5% 5% 7%
x264 [info]: i4 v,h,dc,ddl,ddr,vr,hd,vl,hu: 23% 18% 20% 6% 7% 7% 6% 6% 7%
x264 [info]: i8c dc,h,v,p: 36% 41% 17% 7%
x264 [info]: Weighted P-Frames: Y:0.9% UV:0.7%
x264 [info]: ref P L0: 47.6% 3.4% 16.8% 9.0% 5.5% 5.0% 3.5% 2.7% 2.0% 2.2% 2.0% 0.4% 0.0%
x264 [info]: ref B L0: 64.7% 13.6% 7.7% 4.0% 3.0% 2.1% 2.1% 1.3% 1.0% 0.6%
x264 [info]: ref B L1: 93.9% 6.1%
x264 [info]: kb/s:1699.78

encoded 113322 frames, 13.00 fps, 1699.78 kb/s
GeneralComplete name : D:\Torrents\Три богатыря Коллекция.2004-2016.BDRip,WEB-DLRip.x264.1280x\Алеша Попович и Тугарин Змей.2004.BDRip.x264.1280x.rip by Frost O.S.mp4Format : MPEG-4Format profile : Base MediaCodec ID : isom (isom/avc1)File size : 1.01 GiBDuration : 1 h 18 minOverall bit rate mode : VariableOverall bit rate : 1 834 kb/sMovie name : Алеша Попович и Тугарин Змей 2004 BDRip x264 1280x rip by Frost O SGenre : AnimationContentType : Short FilmEncoded date : UTC 2017-05-22 07:08:05Tagged date : UTC 2017-05-22 07:09:22Writing application : MkvToMp4 version: 0.224 (x64)Cover : YesComment : rip by Frost O.SHDVideo : Yes

VideoID : 1Format : AVCFormat/Info : Advanced Video CodecFormat profile : [email protected] settings, CABAC : YesFormat settings, ReFrames : 11 framesCodec ID : avc1Codec ID/Info : Advanced Video CodingDuration : 1 h 18 minBit rate : 1 700 kb/sMaximum bit rate : 37.2 Mb/sWidth : 1 280 pixelsHeight : 690 pixelsDisplay aspect ratio : 1.85:1Frame rate mode : ConstantFrame rate : 23.976 (24000/1001) FPSOriginal frame rate : 23.976 (23976/1000) FPSColor space : YUVChroma subsampling : 4:2:0Bit depth : 8 bitsScan type : ProgressiveBits/(Pixel*Frame) : 0.080Stream size : 958 MiB (93%)Writing library : x264 core 148 r2744 b97ae06Encoding settings : cabac=1 / ref=11 / deblock=1:-1:-1 / analyse=0x3:0x113 / me=umh / subme=11 / psy=1 / psy_rd=0.60:0.00 / mixed_ref=1 / me_range=32 / chroma_me=1 / trellis=2 / 8x8dct=1 / cqm=0 / deadzone=21,11 / fast_pskip=0 / chroma_qp_offset=-2 / threads=6 / lookahead_threads=1 / sliced_threads=0 / nr=0 / decimate=0 / interlaced=0 / bluray_compat=0 / constrained_intra=0 / bframes=11 / b_pyramid=2 / b_adapt=2 / b_bias=0 / direct=3 / weightb=1 / open_gop=0 / weightp=2 / keyint=250 / keyint_min=23 / scenecut=40 / intra_refresh=0 / rc_lookahead=60 / rc=2pass / mbtree=1 / bitrate=1700 / ratetol=1.0 / qcomp=0.70 / qpmin=0 / qpmax=69 / qpstep=4 / cplxblur=20.0 / qblur=0.5 / ip_ratio=1.40 / aq=1:1.00Language : EnglishEncoded date : UTC 2017-05-22 07:08:05Tagged date : UTC 2017-05-22 07:08:30Color range : LimitedColor primaries : BT.709Transfer characteristics : BT.709Matrix coefficients : BT.709

AudioID : 2Format : AACFormat/Info : Advanced Audio CodecFormat profile : LCCodec ID : 40Duration : 1 h 18 minBit rate mode : VariableBit rate : 128 kb/sMaximum bit rate : 135 kb/sChannel(s) : 2 channelsChannel positions : Front: L RSampling rate : 48.0 kHzFrame rate : 46.875 FPS (1024 spf)Compression mode : LossyStream size : 72.2 MiB (7%)Language : RussianDefault : YesAlternate group : 1Encoded date : UTC 2017-05-22 07:08:19Tagged date : UTC 2017-05-22 07:08:30
</div>
</div>
Добрыня Никитич и Змей Горыныч
Год выпуска: 2006
Страна: Россия
Жанр: мультфильм
Продолжительность: 01:08:08
Перевод: не требуется
Cубтитры: нетРежиссер: Илья МаксимовРоли озвучивали: Сергей Маковецкий, Валерий Соловьев, Юрий Тарасов, Андрей Толубеев, Екатерина Гороховская, Наталья ДаниловаОписание: Не перевелись еще богатыри на земле русской! И один из них - доблестный воин Добрыня Никитич, состоящий на службе у Князя Киевского. И, казалось бы, кому, как не Добрыне Никитичу, должен поручить Князь непростую задачу - спасти Забаву из когтистых лап похитившего ее Змея Горыныча? Но не отпускает Князь Добрыню на поиски племянницы. Нелегко, ох, нелегко придется Добрыне и его юному ученику Елисею. Тем более, что не знает Добрыня, и даже не догадывается, что Князь сам поставлен в безвыходное положение, и что он вовсе не заинтересован в возвращении племянницы. Тяжкое испытание предстоит Добрыне - познать горечь предательства. Но не суждено будет сбыться злодейским планам - и даже коварная Баба Яга окажется бессильна перед прямым и честным Добрыней и другом его Елисеем! Релиз группы Качество: BDRip / рип с Blu-ray Disc 1080p
Формат: MP4
Видео кодек: H.264
Аудио кодек: AAC
Видео: 1280x690 AR:1.86 2100 kbps 23.976 fps
Аудио: 2ch 48 kHz 128 kbps
<div class="sp-wrap">
<div class="sp-head folded">Logx264</div>
<div class="sp-body">avs [info]: 1280x690p 1:1 @ 2997/125 fps (cfr)
x264 [info]: using SAR=1/1
x264 [warning]: DPB size (11 frames, 38720 mbs) > level limit (9 frames, 32768 mbs)
x264 [info]: using cpu capabilities: MMX2 SSE2Fast SSSE3 SSE4.2 AVX FMA3 AVX2 LZCNT BMI2
x264 [info]: profile High, level 4.1

x264 [info]: frame I:1146 Avg QP:10.42 size:143549
x264 [info]: frame P:28611 Avg QP:18.04 size: 19706
x264 [info]: frame B:68265 Avg QP:20.79 size: 5045
x264 [info]: consecutive B-frames: 6.2% 5.1% 17.4% 41.5% 17.0% 6.7% 6.0%
x264 [info]: mb I I16..4: 15.2% 25.3% 59.4%
x264 [info]: mb P I16..4: 1.1% 3.7% 3.8% P16..4: 17.0% 12.7% 6.4% 0.0% 0.0% skip:55.3%
x264 [info]: mb B I16..4: 0.2% 0.6% 0.5% B16..8: 13.1% 5.4% 1.7% direct: 1.0% skip:77.7% L0:51.9% L1:41.7% BI: 6.4%
x264 [info]: 8x8 transform intra:39.2% inter:27.3%
x264 [info]: direct mvs spatial:94.4% temporal:5.6%
x264 [info]: coded y,uvDC,uvAC intra: 52.6% 64.1% 54.6% inter: 6.2% 6.1% 4.5%
x264 [info]: i16 v,h,dc,p: 49% 33% 5% 13%
x264 [info]: i8 v,h,dc,ddl,ddr,vr,hd,vl,hu: 16% 21% 27% 5% 5% 5% 6% 6% 9%
x264 [info]: i4 v,h,dc,ddl,ddr,vr,hd,vl,hu: 23% 17% 18% 6% 7% 7% 7% 6% 8%
x264 [info]: i8c dc,h,v,p: 34% 41% 18% 7%
x264 [info]: Weighted P-Frames: Y:1.7% UV:1.4%
x264 [info]: ref P L0: 47.6% 3.8% 16.4% 8.4% 5.7% 4.9% 3.7% 2.5% 2.0% 2.5% 2.0% 0.3% 0.0%
x264 [info]: ref B L0: 63.3% 13.5% 7.8% 3.8% 3.1% 2.4% 2.0% 2.0% 1.4% 0.7%
x264 [info]: ref B L1: 95.1% 4.9%
x264 [info]: kb/s:2099.08

encoded 98022 frames, 12.09 fps, 2099.08 kb/s
GeneralComplete name : D:\Torrents\Три богатыря Коллекция.2004-2016.BDRip,WEB-DLRip.x264.1280x\Добрыня Никитич и Змей Горыныч.2006.BDRip.x264.1280x.rip by Frost O.S.mp4Format : MPEG-4Format profile : Base MediaCodec ID : isom (isom/avc1)File size : 1.06 GiBDuration : 1 h 8 minOverall bit rate mode : VariableOverall bit rate : 2 235 kb/sMovie name : Добрыня Никитич и Змей Горыныч 2006 BDRip x264 1280x rip by Frost O SGenre : AnimationContentType : Short FilmEncoded date : UTC 2017-05-22 07:12:13Tagged date : UTC 2017-05-22 07:13:16Writing application : MkvToMp4 version: 0.224 (x64)Cover : YesComment : rip by Frost O.SHDVideo : Yes

VideoID : 1Format : AVCFormat/Info : Advanced Video CodecFormat profile : [email protected] settings, CABAC : YesFormat settings, ReFrames : 11 framesCodec ID : avc1Codec ID/Info : Advanced Video CodingDuration : 1 h 8 minBit rate : 2 100 kb/sMaximum bit rate : 27.4 Mb/sWidth : 1 280 pixelsHeight : 690 pixelsDisplay aspect ratio : 1.85:1Frame rate mode : ConstantFrame rate : 23.976 (24000/1001) FPSOriginal frame rate : 23.976 (23976/1000) FPSColor space : YUVChroma subsampling : 4:2:0Bit depth : 8 bitsScan type : ProgressiveBits/(Pixel*Frame) : 0.099Stream size : 1 023 MiB (94%)Writing library : x264 core 148 r2744 b97ae06Encoding settings : cabac=1 / ref=11 / deblock=1:-1:-1 / analyse=0x3:0x113 / me=umh / subme=11 / psy=1 / psy_rd=0.60:0.00 / mixed_ref=1 / me_range=32 / chroma_me=1 / trellis=2 / 8x8dct=1 / cqm=0 / deadzone=21,11 / fast_pskip=0 / chroma_qp_offset=-2 / threads=6 / lookahead_threads=1 / sliced_threads=0 / nr=0 / decimate=0 / interlaced=0 / bluray_compat=0 / constrained_intra=0 / bframes=6 / b_pyramid=2 / b_adapt=2 / b_bias=0 / direct=3 / weightb=1 / open_gop=0 / weightp=2 / keyint=250 / keyint_min=23 / scenecut=40 / intra_refresh=0 / rc_lookahead=60 / rc=2pass / mbtree=1 / bitrate=2100 / ratetol=1.0 / qcomp=0.70 / qpmin=0 / qpmax=69 / qpstep=4 / cplxblur=20.0 / qblur=0.5 / ip_ratio=1.40 / aq=1:1.00Language : EnglishEncoded date : UTC 2017-05-22 07:12:13Tagged date : UTC 2017-05-22 07:12:33Color range : LimitedColor primaries : BT.709Transfer characteristics : BT.709Matrix coefficients : BT.709

AudioID : 2Format : AACFormat/Info : Advanced Audio CodecFormat profile : LCCodec ID : 40Duration : 1 h 8 minBit rate mode : VariableBit rate : 128 kb/sMaximum bit rate : 135 kb/sChannel(s) : 2 channelsChannel positions : Front: L RSampling rate : 48.0 kHzFrame rate : 46.875 FPS (1024 spf)Compression mode : LossyStream size : 62.3 MiB (6%)Language : RussianDefault : YesAlternate group : 1Encoded date : UTC 2017-05-22 07:12:32Tagged date : UTC 2017-05-22 07:12:33
</div>
</div>
Илья Муромец и Соловей Разбойник
Год выпуска: 2007
Страна: Россия
Жанр: мультфильм
Продолжительность: 01:19:31
Перевод: не требуется
Cубтитры: нетРежиссер: Владимир ТоропчинРоли озвучивали: Олег Табаков, Анатолий Петров, Сергей Маковецкий, Валерий Соловьев, Екатерина Гороховская, Андрей ТолубеевОписание: Славится земля русская богатырями богатырскими да разбойниками разбойничьими… А сверху всего князь княжеский сидит, за всем следит и порядок наводит, если нужно. Да только не всегда выходит у князя так, как нужно — правильно. Вот и сейчас — с богатырём поругался, да от Соловья Разбойника урон потерпел немалый: увёл бандит окаянный казну государственную прямо из-под носа! Что делать князю? А ничего особенного — на то он и князь, чтоб из любой ситуации выход найти! Вот и отправились князь с Ильёй на поиски похищенного, а за ними вслед увязалась корреспондентка летописи «Новая береста». А дорога непростая выдалась, до самого Царьграда довела, где встретил их Император Византийский, да только незадача вышла — повздорили наши герои с императором этим, и заключил он против Князя Киевского и Земель русских союз с Соловьем Разбойником… Релиз группы Качество: BDRip / рип с Blu-ray Disc 1080p
Формат: MP4
Видео кодек: H.264
Аудио кодек: AAC
Видео: 1280x690 AR:1.86 2101 kbps 23.976 fps
Аудио: 2ch 48 kHz 128 kbps
<div class="sp-wrap">
<div class="sp-head folded">Logx264</div>
<div class="sp-body">avs [info]: 1280x690p 1:1 @ 2997/125 fps (cfr)
x264 [info]: using SAR=1/1
x264 [warning]: DPB size (11 frames, 38720 mbs) > level limit (9 frames, 32768 mbs)
x264 [info]: using cpu capabilities: MMX2 SSE2Fast SSSE3 SSE4.2 AVX FMA3 AVX2 LZCNT BMI2
x264 [info]: profile High, level 4.1

x264 [info]: frame I:1372 Avg QP:10.11 size:185506
x264 [info]: frame P:31631 Avg QP:17.69 size: 19824
x264 [info]: frame B:81389 Avg QP:21.02 size: 4564
x264 [info]: consecutive B-frames: 5.1% 4.5% 12.7% 49.4% 15.8% 6.1% 1.7% 1.1% 1.4% 1.0% 1.4%
x264 [info]: mb I I16..4: 14.5% 23.9% 61.6%
x264 [info]: mb P I16..4: 0.7% 2.9% 3.1% P16..4: 16.7% 11.1% 6.4% 0.0% 0.0% skip:59.2%
x264 [info]: mb B I16..4: 0.1% 0.4% 0.3% B16..8: 12.4% 4.5% 1.5% direct: 1.0% skip:79.7% L0:50.0% L1:41.8% BI: 8.2%
x264 [info]: 8x8 transform intra:37.8% inter:26.7%
x264 [info]: direct mvs spatial:93.2% temporal:6.8%
x264 [info]: coded y,uvDC,uvAC intra: 58.5% 69.5% 62.0% inter: 5.7% 6.0% 4.7%
x264 [info]: i16 v,h,dc,p: 58% 27% 5% 9%
x264 [info]: i8 v,h,dc,ddl,ddr,vr,hd,vl,hu: 16% 23% 26% 5% 5% 4% 6% 5% 10%
x264 [info]: i4 v,h,dc,ddl,ddr,vr,hd,vl,hu: 23% 19% 17% 6% 7% 6% 7% 6% 8%
x264 [info]: i8c dc,h,v,p: 36% 40% 17% 7%
x264 [info]: Weighted P-Frames: Y:1.7% UV:1.2%
x264 [info]: ref P L0: 46.6% 3.9% 16.7% 8.9% 6.0% 5.1% 3.5% 2.6% 2.2% 2.3% 1.9% 0.3% 0.0%
x264 [info]: ref B L0: 66.1% 12.9% 7.4% 3.7% 3.3% 2.0% 1.8% 1.1% 1.0% 0.6%
x264 [info]: ref B L1: 94.8% 5.2%
x264 [info]: kb/s:2101.10

encoded 114392 frames, 12.17 fps, 2101.10 kb/s
GeneralComplete name : D:\Torrents\Три богатыря Коллекция.2004-2016.BDRip,WEB-DLRip.x264.1280x\Илья Муромец и Соловей Разбойник.2007.BDRip.x264.1280x.rip by Frost O.S.mp4Format : MPEG-4Format profile : Base MediaCodec ID : isom (isom/avc1)File size : 1.24 GiBDuration : 1 h 19 minOverall bit rate mode : VariableOverall bit rate : 2 237 kb/sMovie name : Илья Муромец и Соловей Разбойник 2007 BDRip x264 1280x rip by Frost O SGenre : AnimationContentType : Short FilmEncoded date : UTC 2017-05-22 07:15:50Tagged date : UTC 2017-05-22 07:17:11Writing application : MkvToMp4 version: 0.224 (x64)Cover : YesComment : rip by Frost O.SHDVideo : Yes

VideoID : 1Format : AVCFormat/Info : Advanced Video CodecFormat profile : [email protected] settings, CABAC : YesFormat settings, ReFrames : 11 framesCodec ID : avc1Codec ID/Info : Advanced Video CodingDuration : 1 h 19 minBit rate : 2 101 kb/sMaximum bit rate : 17.0 Mb/sWidth : 1 280 pixelsHeight : 690 pixelsDisplay aspect ratio : 1.85:1Frame rate mode : ConstantFrame rate : 23.976 (24000/1001) FPSOriginal frame rate : 23.976 (23976/1000) FPSColor space : YUVChroma subsampling : 4:2:0Bit depth : 8 bitsScan type : ProgressiveBits/(Pixel*Frame) : 0.099Stream size : 1.17 GiB (94%)Writing library : x264 core 148 r2744 b97ae06Encoding settings : cabac=1 / ref=11 / deblock=1:-1:-1 / analyse=0x3:0x113 / me=umh / subme=11 / psy=1 / psy_rd=0.60:0.00 / mixed_ref=1 / me_range=32 / chroma_me=1 / trellis=2 / 8x8dct=1 / cqm=0 / deadzone=21,11 / fast_pskip=0 / chroma_qp_offset=-2 / threads=6 / lookahead_threads=1 / sliced_threads=0 / nr=0 / decimate=0 / interlaced=0 / bluray_compat=0 / constrained_intra=0 / bframes=10 / b_pyramid=2 / b_adapt=2 / b_bias=0 / direct=3 / weightb=1 / open_gop=0 / weightp=2 / keyint=250 / keyint_min=23 / scenecut=40 / intra_refresh=0 / rc_lookahead=60 / rc=2pass / mbtree=1 / bitrate=2101 / ratetol=1.0 / qcomp=0.70 / qpmin=0 / qpmax=69 / qpstep=4 / cplxblur=20.0 / qblur=0.5 / ip_ratio=1.40 / aq=1:1.00Language : EnglishEncoded date : UTC 2017-05-22 07:15:50Tagged date : UTC 2017-05-22 07:16:11Color range : LimitedColor primaries : BT.709Transfer characteristics : BT.709Matrix coefficients : BT.709

AudioID : 2Format : AACFormat/Info : Advanced Audio CodecFormat profile : LCCodec ID : 40Duration : 1 h 19 minBit rate mode : VariableBit rate : 128 kb/sMaximum bit rate : 135 kb/sChannel(s) : 2 channelsChannel positions : Front: L RSampling rate : 48.0 kHzFrame rate : 46.875 FPS (1024 spf)Compression mode : LossyStream size : 72.8 MiB (6%)Language : RussianDefault : YesAlternate group : 1Encoded date : UTC 2017-05-22 07:16:09Tagged date : UTC 2017-05-22 07:16:11
</div>
</div>
Три богатыря и Шамаханская царица
Год выпуска: 2010
Страна: Россия
Жанр: мультфильм
Продолжительность: 01:16:32
Перевод: не требуется
Cубтитры: нетРежиссер: Сергей ГлезинРоли озвучивали: Дмитрий Быковский, Валерий Соловьев, Олег Куликович, Сергей Маковецкий, Анна Геллер, Дмитрий Высоцкий, Константин Бронзит, Мария Цветкова, Елена Шульман, Лия Медведева, Игорь Шибанов, Анатолий ПетровОписание: Легендарная Шамаханская царица, которая сводила с ума многих царей и простых смертных, положила свой глаз и на Киевского князя. Тот заболел любовью странной по ней. Но чтобы доставить в целости и сохранности эту чудо-богиню в Киев-Град, срочно из отпуска вызывают всех троих, уже знакомых нам, богатырей: Алёшу Поповича, Добрыню Никитича и Илью Муромца. Теперь троица должна решить, как быть дальше? Вроде бы и слухи о царице ходят нелестные, и князя жаль.. Релиз группы Качество: BDRip / рип с Blu-ray Disc 1080p
Формат: MP4
Видео кодек: H.264
Аудио кодек: AAC
Видео: 1280x720 AR:1.78 1886 kbps 24.000 fps
Аудио: 2ch 48 kHz 128 kbps
<div class="sp-wrap">
<div class="sp-head folded">Logx264</div>
<div class="sp-body">avs [info]: 1280x720p 1:1 @ 24/1 fps (cfr)
x264 [info]: using SAR=1/1
x264 [warning]: DPB size (10 frames, 36000 mbs) > level limit (9 frames, 32768 mbs)
x264 [info]: using cpu capabilities: MMX2 SSE2Fast SSSE3 SSE4.2 AVX FMA3 AVX2 LZCNT BMI2
x264 [info]: profile High, level 4.1

x264 [info]: frame I:1089 Avg QP: 9.48 size:188725
x264 [info]: frame P:30058 Avg QP:15.78 size: 19412
x264 [info]: frame B:79062 Avg QP:18.23 size: 3697
x264 [info]: consecutive B-frames: 5.2% 4.7% 13.6% 42.1% 13.8% 9.5% 2.9% 2.4% 3.0% 2.8%
x264 [info]: mb I I16..4: 12.2% 41.0% 46.8%
x264 [info]: mb P I16..4: 0.7% 4.1% 2.6% P16..4: 20.7% 13.9% 6.9% 0.0% 0.0% skip:51.2%
x264 [info]: mb B I16..4: 0.1% 0.4% 0.2% B16..8: 15.6% 4.8% 1.2% direct: 1.0% skip:76.6% L0:49.8% L1:44.2% BI: 6.0%
x264 [info]: 8x8 transform intra:50.8% inter:31.5%
x264 [info]: direct mvs spatial:93.9% temporal:6.1%
x264 [info]: coded y,uvDC,uvAC intra: 62.2% 67.0% 56.3% inter: 5.3% 6.4% 4.8%
x264 [info]: i16 v,h,dc,p: 42% 31% 9% 18%
x264 [info]: i8 v,h,dc,ddl,ddr,vr,hd,vl,hu: 17% 18% 24% 6% 6% 6% 7% 7% 11%
x264 [info]: i4 v,h,dc,ddl,ddr,vr,hd,vl,hu: 20% 17% 17% 7% 8% 7% 8% 7% 9%
x264 [info]: i8c dc,h,v,p: 35% 39% 17% 8%
x264 [info]: Weighted P-Frames: Y:1.7% UV:1.3%
x264 [info]: ref P L0: 50.5% 3.5% 16.3% 8.3% 5.0% 5.8% 3.4% 2.5% 2.1% 2.3% 0.3% 0.0%
x264 [info]: ref B L0: 66.4% 13.0% 7.7% 4.0% 2.7% 2.7% 1.8% 1.0% 0.7%
x264 [info]: ref B L1: 93.8% 6.2%
x264 [info]: kb/s:1883.77

encoded 110209 frames, 11.89 fps, 1883.77 kb/s
GeneralComplete name : D:\Torrents\Три богатыря Коллекция.2004-2016.BDRip,WEB-DLRip.x264.1280x\Три богатыря и Шамаханская царица.2010.BDRip.x264.1280x.rip by Frost O.S.mp4Format : MPEG-4Format profile : Base MediaCodec ID : isom (isom/avc1)File size : 1.08 GiBDuration : 1 h 16 minOverall bit rate mode : VariableOverall bit rate : 2 020 kb/sMovie name : Три богатыря и Шамаханская царица 2010 BDRip x264 1280x rip by Frost O SContentType : Short FilmEncoded date : UTC 2017-05-22 07:27:08Tagged date : UTC 2017-05-22 07:28:26Writing application : MkvToMp4 version: 0.224 (x64)Cover : YesHDVideo : Yes

VideoID : 1Format : AVCFormat/Info : Advanced Video CodecFormat profile : [email protected] settings, CABAC : YesFormat settings, ReFrames : 10 framesCodec ID : avc1Codec ID/Info : Advanced Video CodingDuration : 1 h 16 minBit rate : 1 886 kb/sMaximum bit rate : 16.7 Mb/sWidth : 1 280 pixelsHeight : 720 pixelsDisplay aspect ratio : 16:9Frame rate mode : ConstantFrame rate : 24.000 FPSColor space : YUVChroma subsampling : 4:2:0Bit depth : 8 bitsScan type : ProgressiveBits/(Pixel*Frame) : 0.085Stream size : 1.01 GiB (93%)Writing library : x264 core 148 r2744 b97ae06Encoding settings : cabac=1 / ref=10 / deblock=1:-1:-1 / analyse=0x3:0x113 / me=umh / subme=11 / psy=1 / psy_rd=0.60:0.00 / mixed_ref=1 / me_range=32 / chroma_me=1 / trellis=2 / 8x8dct=1 / cqm=0 / deadzone=21,11 / fast_pskip=0 / chroma_qp_offset=-2 / threads=6 / lookahead_threads=1 / sliced_threads=0 / nr=0 / decimate=0 / interlaced=0 / bluray_compat=0 / constrained_intra=0 / bframes=9 / b_pyramid=2 / b_adapt=2 / b_bias=0 / direct=3 / weightb=1 / open_gop=0 / weightp=2 / keyint=250 / keyint_min=24 / scenecut=40 / intra_refresh=0 / rc_lookahead=60 / rc=2pass / mbtree=1 / bitrate=1886 / ratetol=1.0 / qcomp=0.70 / qpmin=0 / qpmax=69 / qpstep=4 / cplxblur=20.0 / qblur=0.5 / ip_ratio=1.40 / aq=1:1.00Language : EnglishEncoded date : UTC 2017-05-22 07:27:08Tagged date : UTC 2017-05-22 07:27:35Color range : LimitedColor primaries : BT.709Transfer characteristics : BT.709Matrix coefficients : BT.709

AudioID : 2Format : AACFormat/Info : Advanced Audio CodecFormat profile : LCCodec ID : 40Duration : 1 h 16 minBit rate mode : VariableBit rate : 128 kb/sMaximum bit rate : 135 kb/sChannel(s) : 2 channelsChannel positions : Front: L RSampling rate : 48.0 kHzFrame rate : 46.875 FPS (1024 spf)Compression mode : LossyStream size : 70.1 MiB (6%)Language : RussianDefault : YesAlternate group : 1Encoded date : UTC 2017-05-22 07:27:27Tagged date : UTC 2017-05-22 07:27:35
</div>
</div>


Трекер:  [ 22-Май-2017 10:30 ]

  

Скачать .torrent

Размер .torrent файла 20 KB


Размер: 7.74 GB
Хэш (hash) релиза: fd6456f4e079bfb86a50fea9c528227e612126b5

Еще никто не оставлял запись к записи скачать торрент [MULT] Три богатыря: Коллекция . Будь первым!

!Обратная связь