Police Procedurals | Madeline Brewer | Trzecia planeta od słońca / 3rd Rock from the Sun

Скачать через торрент [VIDEO] Великая стена The Great Wall бесплатно русская версия torrent активатор

Статистика раздачи
Размер:  466 MB   |    Зарегистрирован:  1 год 2 месяца   |    .torrent скачан:  33 раза   |   
Раздают:  1  
   
загрузка...
 
Автор Сообщение

Galfimbul

avatar Galfimbul


Великая стена / The Great Wall<hr class="post-hr">«1700 лет ушло на строительство. 8851 км неприступных стен. Какой враг угрожал империи?»<hr class="post-hr">
<hr class="post-hr">Год выпуска: 2016
Страна: США, Китай, Гонконг, Австралия, Канада
Жанр: фэнтези, боевик, триллер, приключения
Продолжительность: 01:43:03
Перевод: Русский Профессиональный (полное дублирование) Blu-ray CEE
Оригинальная дорожка: Есть
Cубтитры: softsub (отключаемые), русские (форсированные)<hr class="post-hr">Режиссер: Чжан Имоу / Zhang Yimou<hr class="post-hr">В ролях: Мэтт Дэймон, Тянь Цзин, Педро Паскаль, Лу Хан, Уиллем Дефо, Энди Лау, Эдди Пэн, Нуман Акар, Кенни Лин, Ханьюй Чжан, Вики Юй, Лю Бин, Чжэн Кай, Джонни Чикко, Чэни Чэнь, Кэрри Ван .<hr class="post-hr">Описание: Великую стену воздвигли, чтобы оградить Поднебесную от любых угроз, но с таким врагом не сталкивались даже самые отважные ее защитники. Если вторжение не остановить — мир будет уничтожен.<hr class="post-hr"> Релиз группы <hr class="post-hr">Качество: HDRip / рип с BDRip 720p
Формат: MP4
Видео кодек: XVID
Аудио кодек: AAC
Видео: 480х200 AR:2.40 497 kbps 23.976 fps
Аудио: [Russian] 2ch 48 kHz 128 kbps - Профессиональный (полное дублирование) Blu-ray CEE<hr class="post-hr">
GeneralComplete name : D:\Torrents\The Great Wall.2016.HDRip.XviD.480x.rip by Frost O.S.mp4Format : MPEG-4Format profile : Base MediaCodec ID : isom (isom/iso2)File size : 466 MiBDuration : 1 h 43 minOverall bit rate mode : VariableOverall bit rate : 633 kb/sMovie name : The Great Wall 2016 HDRip XviD 480x rip by Frost O SDirector : Чжан Имоу / Zhang YimouActor : Мэтт Дэймон / Тянь Цзин / Педро Паскаль / Лу Хан / Уиллем Дефо / Энди Лау / Эдди Пэн / Нуман Акар / Кенни Лин / Ханьюй Чжан / Вики Юй / Лю Бин / Чжэн Кай / Джонни Чикко / Чэни Чэнь / Кэрри Ван .Genre : ActionContentType : Short FilmEncoded date : UTC 2017-05-19 14:45:22Tagged date : UTC 2017-05-19 14:46:00Writing application : MkvToMp4 version: 0.224 (x64)Cover : YesComment : rip by Frost O.SLongDescription : Великую стену воздвигли, чтобы оградить Поднебесную от любых угроз, но с таким врагом не сталкивались даже самые отважные ее защитники. Если вторжение не остановить — мир будет уничтожен.

VideoID : 1Format : MPEG-4 VisualFormat profile : Advanced [email protected] settings, BVOP : YesFormat settings, QPel : NoFormat settings, GMC : No warppointsFormat settings, Matrix : CustomCodec ID : 20Duration : 1 h 43 minBit rate mode : VariableBit rate : 497 kb/sMaximum bit rate : 194 Mb/sWidth : 480 pixelsHeight : 200 pixelsDisplay aspect ratio : 2.40:1Frame rate mode : VariableFrame rate : 23.976 (23976/1000) FPSMinimum frame rate : 11.988 FPSMaximum frame rate : 23.976 FPSColor space : YUVChroma subsampling : 4:2:0Bit depth : 8 bitsScan type : ProgressiveCompression mode : LossyBits/(Pixel*Frame) : 0.216Stream size : 366 MiB (79%)Title : avi_GPAC0.5.2_DEV_rev248_g39d5978_masterWriting library : XviD 1.2.1 (UTC 2008-12-04)Language : EnglishTagged date : UTC 2017-05-19 14:45:34

AudioID : 2Format : AACFormat/Info : Advanced Audio CodecFormat profile : LCCodec ID : 40Duration : 1 h 43 minBit rate mode : VariableBit rate : 128 kb/sMaximum bit rate : 135 kb/sChannel(s) : 2 channelsChannel positions : Front: L RSampling rate : 48.0 kHzFrame rate : 46.875 FPS (1024 spf)Compression mode : LossyStream size : 94.4 MiB (20%)Title : Dub_ Blu_ray CEE / Dub_ Blu_ray CEELanguage : RussianDefault : YesAlternate group : 1Encoded date : UTC 2017-05-19 14:45:26Tagged date : UTC 2017-05-19 14:45:34

TextID : 3Format : Timed TextMuxing mode : sbtlCodec ID : tx3gDuration : 1 h 25 minBit rate mode : VariableBit rate : 2 b/sStream size : 1.02 KiB (0%)Title : forced / forcedLanguage : RussianDefault : YesForced : NoAlternate group : 2Encoded date : UTC 2017-05-19 14:45:34Tagged date : UTC 2017-05-19 14:45:34
</div><!--/post_body-->

Трекер:  [ 19-Май-2017 17:00 ]

  

Скачать .torrent

Размер .torrent файла 18 KB


Размер: 466 MB
Хэш (hash) релиза: 5508dd03164eec8f975b9ccdd5220d30278ecb

Торренты, похожие на [VIDEO] Великая стена The Great Wall скачать торрент

Форум Название Автор Размер S L Добавлен
Видео (Фильмы/Клипы) ·· [VIDEO] Великая стена / The Great Wall (Чжан Имоу / Zhang Yimou) [2016, фэнтези, боевик, триллер, приключения, BDRip] [MP4, 960x] Dub Blu-ray EUR, Original, Sub (rus, eng) Galfimbul 15515551201.44 GB 0 0 1495137814

23:03

18-Май-17

Еще никто не оставлял запись к записи скачать торрент [VIDEO] Великая стена The Great Wall . Будь первым!

!Обратная связь